osu file format v14

[General]
AudioFilename: audio.mp3
AudioLeadIn: 0
PreviewTime: 259494
Countdown: 0
SampleSet: Soft
StackLeniency: 0.4
Mode: 0
LetterboxInBreaks: 0
WidescreenStoryboard: 1

[Editor]
Bookmarks: 702,33735,88342,111263,117331,166544,189466,259578,294634,322949,354634
DistanceSpacing: 1.5
BeatDivisor: 4
GridSize: 16
TimelineZoom: 2.599999

[Metadata]
Title:Sakura no Zenya
TitleUnicode:サクラノ前夜
Artist:Kano
ArtistUnicode:鹿乃
Creator:Woood13
Version:Tears
Source:
Tags:the night before the cherry blossoms cover utaite sukinano. すきなの。Kowari Rock Japanese
BeatmapID:2466406
BeatmapSetID:1183076

[Difficulty]
HPDrainRate:5.5
CircleSize:4
OverallDifficulty:9.2
ApproachRate:9.3
SliderMultiplier:1.73
SliderTickRate:1

[Events]
//Background and Video events
0,0,"cropped-1920-1080-994689+.jpg",0,0
//Break Periods
2,115340,116657
2,254385,257218
//Storyboard Layer 0 (Background)
//Storyboard Layer 1 (Fail)
//Storyboard Layer 2 (Pass)
//Storyboard Layer 3 (Foreground)
//Storyboard Layer 4 (Overlay)
//Storyboard Sound Samples

[TimingPoints]
702,337.078651685393,4,2,1,35,1,0
702,-200,4,2,1,35,0,0
11488,-200,4,2,1,40,0,0
30364,-250,4,2,1,40,0,0
32387,-714.285714285714,4,2,1,45,0,0
33735,-100,4,2,1,70,0,0
34409,-100,4,2,1,70,0,0
43763,-100,4,2,1,5,0,0
43848,-100,4,2,1,70,0,0
45196,-200,4,2,1,60,0,0
53117,-200,4,2,1,60,0,0
53286,-200,4,2,1,60,0,0
53454,-200,4,2,1,60,0,0
53623,-200,4,2,1,60,0,0
53791,-200,4,2,1,60,0,0
53960,-200,4,2,1,60,0,0
54128,-200,4,2,1,60,0,0
54297,-200,4,2,1,60,0,0
54466,-200,4,2,1,60,0,0
54634,-200,4,2,1,60,0,0
55982,-133.333333333333,4,2,1,65,0,0
66769,-111.111111111111,4,2,1,60,0,0
67022,-111.111111111111,4,2,1,5,0,0
67106,-111.111111111111,4,2,1,60,0,0
69718,-111.111111111111,4,2,1,5,0,0
69803,-111.111111111111,4,2,1,60,0,0
77555,-111.111111111111,4,2,1,65,0,0
77808,-111.111111111111,4,2,1,5,0,0
77893,-111.111111111111,4,2,1,65,0,0
82612,-333.333333333332,4,2,1,65,0,0
82864,-333.333333333332,4,2,1,5,0,0
82949,-111.111111111111,4,2,1,70,0,0
84971,-333.333333333332,4,2,1,70,0,0
85224,-333.333333333332,4,2,1,5,0,0
85308,-111.111111111111,4,2,1,70,0,0
88005,-333.333333333332,4,2,1,70,0,0
88258,-333.333333333332,4,2,1,5,0,0
88342,-100,4,2,1,80,0,1
89269,-100,4,2,1,80,0,1
89353,-100,4,2,1,80,0,1
109915,-100,4,2,1,50,0,1
110252,-100,4,2,1,60,0,1
110589,-100,4,2,1,70,0,1
110926,-100,4,2,1,80,0,1
111263,-100,4,2,1,90,0,0
111769,-100,4,2,1,80,0,0
112612,-100,4,2,1,70,0,0
115140,-100,4,2,1,70,0,0
117331,-100,4,2,1,70,0,0
123398,-133.333333333333,4,2,1,60,0,0
128117,-133.333333333333,4,2,1,60,0,0
128454,-133.333333333333,4,2,1,60,0,0
133510,-133.333333333333,4,2,1,60,0,0
133848,-133.333333333333,4,2,1,60,0,0
134185,-133.333333333333,4,2,1,65,0,0
144971,-133.333333333333,4,2,1,60,0,0
155758,-133.333333333333,4,2,1,65,0,0
157359,-133.333333333333,4,2,1,5,0,0
157443,-133.333333333333,4,2,1,65,0,0
160055,-133.333333333333,4,2,1,5,0,0
160140,-133.333333333333,4,2,1,65,0,0
160814,-250,4,2,1,65,0,0
161067,-250,4,2,1,5,0,0
161151,-250,4,2,1,70,0,0
162162,-100,4,2,1,70,0,0
163848,-100,4,2,1,50,0,0
164185,-100,4,2,1,55,0,0
164522,-100,4,2,1,60,0,0
164859,-100,4,2,1,65,0,0
165196,-100,4,2,1,70,0,0
166460,-100,4,2,1,70,0,0
166544,-100,4,2,1,80,0,1
188117,-100,4,2,1,50,0,1
188454,-100,4,2,1,60,0,1
188791,-100,4,2,1,70,0,1
189128,-100,4,2,1,80,0,1
189466,-100,4,2,1,80,0,0
189971,-100,4,2,1,80,0,0
190814,-133.333333333333,4,2,1,60,0,0
192499,-133.333333333333,4,2,1,5,0,0
192668,-100,4,2,1,70,0,0
193510,-111.111111111111,4,2,1,70,0,0
247443,-384.615384615385,4,2,1,30,0,0
252836,-1000,4,2,1,30,0,0
254185,-1000,4,2,1,30,0,0
258061,-100,4,2,1,70,0,0
258230,-100,4,2,1,40,0,0
258398,-100,4,2,1,45,0,0
258567,-100,4,2,1,50,0,0
258735,-100,4,2,1,55,0,0
258904,-100,4,2,1,60,0,0
259072,-100,4,2,1,75,0,0
259241,-100,4,2,1,80,0,0
259409,-100,4,2,1,80,0,0
259578,-100,4,2,1,85,0,1
291600,-90.9090909090909,4,2,1,85,0,1
291937,-100,4,2,1,85,0,1
292275,-100,4,2,1,50,0,1
292612,-100,4,2,1,60,0,1
292949,-100,4,2,1,70,0,1
293286,-100,4,2,1,80,0,1
294297,-100,4,2,1,80,0,1
294634,-100,4,2,1,75,0,0
305084,-90.9090909090909,4,2,1,75,0,0
305421,-100,4,2,1,75,0,0
316039,-312.5,4,2,1,75,0,0
322612,-312.5,4,2,1,30,0,0
322949,-200,4,2,1,35,0,0
333735,-200,4,2,1,40,0,0
352612,-250,4,2,1,40,0,0
356319,-200,4,2,1,5,0,0

[Colours]
Combo1 : 173,150,205
Combo2 : 255,185,209
Combo3 : 255,132,184
Combo4 : 194,185,221
SliderBorder : 246,172,191
SliderTrackOverride : 255,188,215

[HitObjects]
58,51,702,6,0,L|48:140,1,86.5,2|0,0:2|0:2,0:2:0:0:
102,204,1376,2,0,L|112:293,1,86.5,2|0,0:2|0:2,0:2:0:0:
126,375,2050,2,0,P|71:377|45:346,1,86.5,2|0,0:2|0:2,0:2:0:0:
16,277,2724,1,2,0:2:0:0:
16,277,3398,6,0,P|57:260|101:244,1,86.5,2|0,0:2|0:2,0:2:0:0:
164,192,4072,2,0,P|204:207|244:223,1,86.5,2|0,0:2|0:2,0:2:0:0:
324,255,4746,2,0,P|352:218|343:165,1,86.5,2|0,0:2|0:2,0:2:0:0:
296,111,5421,2,0,L|249:120,1,43.25,2|0,0:2|0:2,0:2:0:0:
159,141,5758,1,2,0:2:0:0:
159,141,6095,6,0,P|127:167|67:170,1,86.5,2|0,0:2|0:2,0:2:0:0:
15,119,6769,2,0,P|48:92|90:86,1,86.5,2|0,0:2|0:2,0:2:0:0:
159,141,7443,2,0,P|165:194|169:237,1,86.5,2|0,0:2|0:2,0:2:0:0:
177,313,8117,1,2,0:2:0:0:
177,313,8791,6,0,P|223:313|278:309,1,86.5,2|0,0:2|0:2,0:2:0:0:
333,259,9466,2,0,P|346:215|326:176,1,86.5,2|0,0:2|0:2,0:2:0:0:
253,138,10140,2,0,P|236:177|249:217,1,86.5,2|0,0:2|0:2,0:2:0:0:
329,179,10814,2,0,P|350:180|371:184,1,43.25,2|0,0:2|0:2,0:2:0:0:
444,210,11151,1,2,0:2:0:0:
444,210,11488,6,0,L|455:314,1,86.5,2|0,0:2|0:2,0:2:0:0:
341,342,12162,2,0,L|352:238,1,86.5,2|0,0:2|0:2,0:2:0:0:
360,161,12668,1,2,0:2:0:0:
360,161,12836,2,0,P|397:136|454:145,1,86.5,2|0,0:2|0:2,0:2:0:0:
504,204,13510,1,2,0:2:0:0:
504,204,14185,6,0,L|515:310,1,86.5,2|0,0:2|0:2,0:2:0:0:
406,325,14859,2,0,L|416:221,1,86.5,2|0,0:2|0:2,0:2:0:0:
422,152,15533,2,0,P|374:133|325:147,1,86.5,2|0,0:2|0:0,0:2:0:0:
278,198,16039,1,2,0:2:0:0:
278,198,16207,2,0,P|271:223|265:248,1,43.25,2|0,0:2|0:2,0:2:0:0:
287,312,16544,1,2,0:2:0:0:
164,91,16881,6,0,P|175:145|182:195,1,86.5,2|0,0:2|0:2,0:2:0:0:
118,236,17555,2,0,P|107:290|100:340,1,86.5,2|0,0:2|0:2,0:2:0:0:
167,372,18061,1,2,0:2:0:0:
167,372,18230,6,0,P|215:385|259:357,1,86.5,2|0,0:2|0:2,0:2:0:0:
310,316,18904,1,2,0:2:0:0:
286,196,19241,2,0,P|292:216|296:237,1,43.25,2|0,0:2|0:2,0:2:0:0:
310,316,19578,6,0,P|312:270|318:216,1,86.5,2|0,0:2|0:2,0:2:0:0:
419,185,20252,2,0,P|422:228|425:271,1,86.5,2|0,0:2|0:2,0:2:0:0:
432,357,20926,6,0,P|390:364|352:345,1,86.5,2|0,0:2|0:0,0:2:0:0:
291,284,21432,1,2,0:2:0:0:
291,284,21600,2,0,P|272:277|241:279,1,43.25,2|0,0:2|0:2,0:2:0:0:
183,330,21937,1,2,0:2:0:0:
183,330,22275,6,0,P|130:339|80:347,1,86.5,2|0,0:2|0:2,0:2:0:0:
140,240,22780,1,2,0:2:0:0:
140,240,22949,2,0,P|193:249|243:257,1,86.5,2|0,0:2|0:2,0:2:0:0:
308,278,23454,1,2,0:2:0:0:
308,278,23623,6,0,P|316:236|297:198,1,86.5,2|0,0:2|0:2,0:2:0:0:
236,137,24297,1,2,0:2:0:0:
236,137,24803,1,2,0:2:0:0:
236,137,24971,6,0,P|275:116|316:119,1,86.5,2|0,0:2|0:2,0:2:0:0:
375,181,25645,2,0,P|414:202|455:199,1,86.5,2|0,0:2|0:2,0:2:0:0:
507,130,26319,6,0,P|502:91|493:33,1,86.5,2|0,0:2|0:2,0:2:0:0:
425,0,26994,2,0,P|403:-1|383:3,1,43.25,2|0,0:2|0:2,0:2:0:0:
388,91,27331,2,0,P|408:96|430:95,1,43.25,2|0,0:2|0:2,0:2:0:0:
310,51,27668,6,0,P|307:105|306:144,1,86.5,2|0,0:2|0:2,0:2:0:0:
369,196,28342,2,0,P|371:250|373:289,1,86.5,2|0,0:2|0:2,0:2:0:0:
324,353,29016,6,0,P|280:363|234:343,1,86.5,2|0,0:2|0:2,0:2:0:0:
174,295,29690,2,0,P|177:251|180:208,1,86.5,2|0,0:2|0:2,0:2:0:0:
234,141,30364,6,0,P|269:134|304:149,1,69.2,2|0,0:2|0:2,0:2:0:0:
355,207,31039,2,0,P|390:214|425:199,1,69.2,2|0,0:2|0:2,0:2:0:0:
482,146,31713,5,2,0:2:0:0:
404,34,32050,2,0,P|398:58|394:81,1,34.6,2|0,0:2|0:2,0:0:0:0:
380,142,32387,6,0,P|349:161|311:157,1,72.6600008869629,2|0,0:2|0:0,0:2:0:0:
58,51,33735,5,8,0:2:0:0:
173,204,33904,1,0,3:2:0:0:
171,7,34072,1,8,0:2:0:0:
65,177,34241,1,8,0:2:0:0:
65,177,34325,1,8,0:2:0:0:
65,177,34409,6,0,L|74:264,1,86.5,6|0,3:2|0:2,0:2:0:0:
124,345,34746,2,0,P|164:362|214:356,1,86.5,0|0,3:0|0:0,0:0:0:0:
279,297,35084,2,0,P|319:280|369:286,1,86.5,0|0,3:2|0:2,0:2:0:0:
435,342,35421,2,0,P|440:294|447:239,1,86.5,0|0,3:2|0:2,0:0:0:0:
358,176,35758,5,0,3:2:0:0:
448,233,35926,1,0,0:2:0:0:
512,146,36095,2,0,P|507:98|500:43,1,86.5,0|0,3:2|0:2,0:0:0:0:
446,1,36432,2,0,P|399:-11|347:15,1,86.5,0|0,3:2|0:2,0:2:0:0:
312,75,36769,1,0,3:2:0:0:
406,90,36937,1,10,0:2:0:0:
240,36,37106,6,0,P|231:79|224:128,1,86.5,2|0,3:2|0:2,0:2:0:0:
126,206,37443,2,0,P|119:163|110:120,1,86.5,0|0,3:2|0:2,0:2:0:0:
53,37,37780,1,0,3:2:0:0:
130,104,37949,1,0,0:2:0:0:
15,158,38117,2,0,P|6:200|0:243,1,86.5,0|0,3:2|0:2,0:2:0:0:
54,335,38454,6,0,P|87:355|136:353,1,86.5,0|0,3:2|0:2,0:2:0:0:
282,255,38791,1,0,3:2:0:0:
250,364,38960,1,0,0:2:0:0:
190,280,39128,1,2,3:2:0:0:
330,335,39297,1,8,0:2:0:0:
243,209,39466,1,0,3:2:0:0:
341,338,39634,1,8,0:2:0:0:
142,362,39803,6,0,P|97:368|51:379,1,86.5,6|0,3:2|0:2,0:2:0:0:
0,293,40140,1,0,3:2:0:0:
57,368,40308,1,0,0:2:0:0:
101,252,40477,2,0,P|94:211|80:140,1,86.5,2|0,3:2|0:2,0:0:0:0:
63,52,40814,1,0,3:2:0:0:
0,131,40982,1,0,0:2:0:0:
154,99,41151,6,0,P|196:98|232:127,1,86.5,2|0,3:2|0:2,0:2:0:0:
292,222,41488,1,0,3:2:0:0:
237,135,41657,1,0,0:2:0:0:
196,280,41825,1,2,3:2:0:0:
328,129,41994,1,8,0:2:0:0:
153,174,42162,1,0,3:2:0:0:
319,282,42331,1,8,0:2:0:0:
235,173,42499,6,0,P|198:161|152:176,1,86.5,6|0,3:2|0:2,0:2:0:0:
76,258,42836,1,0,3:2:0:0:
194,290,43005,1,8,0:2:0:0:
53,164,43173,2,0,P|61:206|68:249,1,86.5,2|0,0:2|3:2,0:0:0:0:
169,383,43510,2,0,P|176:340|184:297,1,86.5,12|0,0:2|0:0,0:2:0:0:
234,223,43848,5,2,3:2:0:0:
347,369,44016,1,8,0:2:0:0:
346,178,44185,1,8,0:2:0:0:
235,337,44353,1,2,3:2:0:0:
404,273,44522,1,10,0:2:0:0:
226,217,44690,1,0,3:2:0:0:
311,110,44859,6,0,P|305:136|300:169,1,43.25,8|8,0:2|0:2,0:0:0:0:
234,259,45027,2,0,P|230:237|225:216,1,43.25,8|8,0:2|0:2,0:0:0:0:
99,114,45196,6,0,P|56:121|7:132,1,86.5,6|2,3:2|0:2,0:2:0:0:
117,28,45870,2,0,P|160:35|209:46,1,86.5,2|0,0:2|0:2,0:2:0:0:
281,88,46376,1,2,3:2:0:0:
281,88,46544,6,0,P|322:101|363:87,1,86.5,2|2,3:2|0:2,0:2:0:0:
499,32,47218,2,0,P|459:18|419:31,1,86.5,2|0,0:2|0:2,0:2:0:0:
369,145,47893,6,0,P|378:187|387:230,1,86.5,2|2,3:2|0:2,0:2:0:0:
269,194,48567,2,0,P|260:236|251:278,1,86.5,2|0,0:2|0:2,0:2:0:0:
312,350,49241,6,0,P|353:362|395:348,1,86.5,2|0,3:2|0:2,0:2:0:0:
456,298,49746,1,0,0:2:0:0:
456,298,49915,2,0,P|450:255|442:206,1,86.5,2|2,0:2|0:2,0:2:0:0:
431,137,50421,1,10,0:2:0:0:
361,246,50589,6,0,P|325:267|283:259,1,86.5,6|0,0:2|0:2,0:2:0:0:
218,209,51095,1,2,0:2:0:0:
218,209,51263,2,0,P|182:188|140:196,1,86.5,2|0,0:2|0:2,0:2:0:0:
73,240,51769,1,2,3:2:0:0:
38,169,51937,6,0,P|44:128|54:79,1,86.5,2|2,3:2|0:2,0:2:0:0:
116,33,52443,1,0,0:2:0:0:
116,33,52612,1,2,0:2:0:0:
169,271,53117,5,0,3:2:0:0:
169,271,53286,2,0,L|175:328,1,43.25,2|0,3:2|0:2,0:2:0:0:
257,366,53623,2,0,L|261:322,1,43.25,2|0,0:2|0:2,0:2:0:0:
334,240,53960,2,0,L|338:283,1,43.25,2|0,0:2|0:2,0:2:0:0:
250,370,54297,2,0,L|254:326,1,43.25,2|0,0:2|3:2,0:2:0:0:
242,221,54634,6,0,L|333:234,1,86.5,2|0,3:2|0:2,0:2:0:0:
397,291,55140,1,0,3:2:0:0:
397,291,55308,2,0,L|482:278,1,86.5,2|2,0:2|0:2,0:0:0:0:
454,365,55814,1,8,0:2:0:0:
408,199,55982,6,0,P|413:159|420:120,1,64.8750024747849,4|0,0:2|0:0,0:2:0:0:
322,66,56319,1,8,0:2:0:0:
261,160,56488,1,0,0:0:0:0:
261,160,56657,2,0,P|266:192|270:224,1,64.8750024747849,2|0,3:2|3:2,0:0:0:0:
319,328,56994,1,2,0:2:0:0:
360,239,57162,1,8,0:2:0:0:
226,310,57331,6,0,P|196:319|141:302,1,64.8750024747849,2|0,0:2|3:2,0:2:0:0:
49,179,57668,2,0,P|80:174|111:183,1,64.8750024747849,10|0,0:2|0:2,0:2:0:0:
189,245,58005,1,0,3:2:0:0:
54,337,58173,1,0,3:2:0:0:
49,179,58342,1,10,0:2:0:0:
134,306,58510,1,2,0:2:0:0:
140,139,58679,6,0,L|149:68,1,64.8750024747849,2|0,3:2|0:2,0:2:0:0:
256,191,59016,2,0,L|247:126,1,64.8750024747849,10|0,0:2|0:2,0:2:0:0:
312,59,59353,2,0,P|351:58|381:75,1,64.8750024747849,2|0,3:2|3:2,0:0:0:0:
436,123,59690,1,0,0:0:0:0:
475,51,59859,1,8,0:2:0:0:
463,220,60027,6,0,L|473:301,1,64.8750024747849,2|0,3:2|3:2,0:0:0:0:
431,365,60364,1,8,0:2:0:0:
362,261,60533,2,0,L|297:253,1,64.8750024747849,2|2,3:2|3:2,0:0:0:0:
172,317,60870,1,8,0:2:0:0:
306,236,61039,1,8,0:2:0:0:
157,186,61207,1,8,0:2:0:0:
307,85,61376,6,0,P|339:77|382:91,1,64.8750024747849,4|0,0:0|0:0,0:0:0:0:
340,167,61713,1,10,0:2:0:0:
201,97,61881,1,0,0:2:0:0:
311,0,62050,2,0,P|376:3|413:57,1,129.75000494957,2|0,3:2|0:2,0:2:0:0:
432,148,62555,1,8,0:2:0:0:
323,96,62724,6,0,L|318:172,1,64.8750024747849,2|0,0:2|3:2,0:2:0:0:
385,277,63061,1,8,0:2:0:0:
250,201,63230,1,0,0:2:0:0:
403,128,63398,2,0,L|408:204,1,64.8750024747849,0|0,3:2|3:2,0:2:0:0:
297,280,63735,1,10,0:2:0:0:
297,280,63819,1,0,0:0:0:70:drum-hitnormal.wav
297,280,63904,1,2,3:2:0:0:
197,131,64072,6,0,L|118:138,1,64.8750024747849,2|0,3:2|0:2,0:2:0:0:
278,201,64409,2,0,L|342:196,1,64.8750024747849,10|0,0:2|0:2,0:2:0:0:
249,55,64746,2,0,P|224:40|183:42,1,64.8750024747849,2|0,3:2|3:2,0:0:0:0:
132,128,65084,1,0,0:0:0:0:
53,77,65252,1,8,0:2:0:0:
38,182,65421,6,0,L|46:250,1,64.8750024747849,2|0,3:2|3:2,0:2:0:0:
136,329,65758,2,0,L|144:261,1,64.8750024747849,8|2,0:2|0:2,0:2:0:0:
158,147,66095,1,2,0:2:0:0:
261,265,66263,1,8,0:2:0:0:
78,174,66432,1,8,0:2:0:0:
280,114,66600,1,8,0:2:0:0:
136,329,66769,6,0,P|79:347|32:310,1,116.77499643631,4|0,3:2|0:0,0:0:0:0:
1,253,67106,2,0,P|5:217|12:168,1,77.8499976242066,0|0,0:0|0:2,0:0:0:0:
131,216,67443,2,0,P|126:177|121:138,1,77.8499976242066,10|0,0:2|0:2,0:2:0:0:
81,40,67780,1,2,3:2:0:0:
81,40,68117,6,0,P|147:15|214:78,1,155.699995248413,2|0,3:2|0:0,0:0:0:0:
275,156,68623,1,0,0:2:0:0:
336,50,68791,2,0,L|415:56,1,77.8499976242066,10|0,0:2|0:0,0:2:0:0:
512,162,69128,2,0,L|434:167,1,77.8499976242066,0|8,3:2|0:2,0:0:0:0:
344,227,69466,6,0,P|352:287|361:349,1,116.77499643631,2|0,3:2|0:0,0:2:0:0:
362,355,69803,1,2,0:2:0:0:
234,240,69971,1,2,0:2:0:0:
346,147,70140,2,0,L|423:152,1,77.8499976242066,8|2,0:2|0:0,0:0:0:0:
380,58,70477,2,0,L|303:53,1,77.8499976242066,0|0,3:2|0:2,0:2:0:0:
230,147,70814,6,0,P|218:225|211:301,1,155.699995248413,2|0,0:2|0:2,0:0:0:0:
114,210,71319,1,0,0:2:0:70:drum-hitnormal.wav
114,210,71404,1,8,0:2:0:0:
114,210,71488,2,0,P|78:200|35:213,1,77.8499976242066,8|0,0:2|0:2,0:2:0:0:
0,315,71825,2,0,P|37:325|74:315,1,77.8499976242066,0|8,3:2|0:2,0:0:0:0:
146,132,72162,5,0,3:2:0:0:
146,132,72499,2,0,P|153:94|170:27,1,77.8499976242066,0|0,0:0|0:2,0:0:0:0:
249,136,72836,2,0,P|257:173|265:212,1,77.8499976242066,10|0,0:2|0:2,0:2:0:0:
319,79,73173,2,0,P|359:68|401:90,1,77.8499976242066,2|8,3:2|0:2,0:0:0:0:
480,192,73510,6,0,P|443:204|407:193,1,77.8499976242066,0|0,0:0|3:2,0:0:0:0:
462,106,73848,1,2,3:2:0:0:
499,281,74016,1,0,3:2:0:0:
499,281,74100,1,8,0:2:0:0:
499,281,74185,2,0,L|512:363,1,77.8499976242066,10|0,0:2|0:0,0:2:0:0:
373,265,74522,2,0,L|385:188,1,77.8499976242066,0|8,3:2|0:2,0:0:0:0:
278,338,74859,6,0,L|185:351,1,77.8499976242066,2|0,3:2|3:2,0:0:0:0:
92,305,75196,1,8,0:2:0:0:
227,212,75364,1,0,0:2:0:0:
227,212,75533,2,0,L|304:222,1,77.8499976242066,0|0,3:2|3:2,0:0:0:0:
361,300,75870,1,0,0:0:0:0:
302,137,76039,1,8,0:2:0:0:
264,313,76207,5,0,3:2:0:0:
385,197,76376,1,8,0:2:0:0:
217,178,76544,2,0,L|140:188,1,77.8499976242066,8|0,0:2|0:2,0:2:0:0:
183,17,76881,1,0,3:2:0:0:
289,156,77050,1,8,0:2:0:0:
86,114,77218,2,0,P|106:106|128:99,1,38.9249988121033,8|8,0:2|0:2,0:0:0:0:
323,28,77387,2,0,P|301:33|279:39,1,38.9249988121033,8|8,0:2|0:2,0:0:0:0:
72,104,77555,6,0,P|62:162|56:219,1,116.77499643631,6|0,3:2|0:0,0:2:0:0:
92,290,77893,2,0,P|124:312|174:303,1,77.8499976242066,2|0,3:2|0:2,0:2:0:0:
228,243,78230,2,0,P|260:221|310:230,1,77.8499976242066,2|0,3:2|0:2,0:2:0:0:
370,321,78567,1,2,3:2:0:0:
370,321,78904,6,0,P|413:328|454:337,1,77.8499976242066,2|0,3:2|0:2,0:2:0:0:
380,214,79241,2,0,P|341:221|303:228,1,77.8499976242066,2|0,3:2|0:2,0:2:0:0:
374,332,79578,2,0,P|417:339|458:348,1,77.8499976242066,2|0,3:2|0:2,0:2:0:0:
373,200,79915,1,2,3:2:0:0:
299,363,80084,1,2,0:2:0:0:
473,240,80252,6,0,L|459:134,1,77.8499976242066,2|0,3:2|0:0,0:2:0:0:
388,78,80589,1,0,3:2:0:0:
302,268,80758,2,0,L|316:162,1,77.8499976242066,2|0,0:2|3:0,0:2:0:0:
291,57,81095,1,0,0:2:0:0:
291,57,81263,2,0,P|218:65|201:88,1,77.8499976242066,2|0,3:2|0:2,0:2:0:0:
149,212,81600,6,0,P|141:175|132:128,1,77.8499976242066,0|0,3:2|0:2,0:2:0:0:
32,46,81937,2,0,P|24:82|15:130,1,77.8499976242066,0|8,3:2|0:2,0:2:0:0:
20,137,82190,1,8,0:2:0:0:
24,152,82275,1,8,0:2:0:0:
119,44,82443,1,0,3:2:0:0:
149,212,82612,6,0,L|157:260,1,38.9249988121033,12|0,0:2|0:0,0:0:0:0:
178,328,82949,5,12,0:2:0:0:
246,138,83117,1,0,0:0:0:0:
48,184,83286,1,0,3:2:0:0:
282,241,83454,5,8,0:2:0:0:
124,72,83623,1,0,0:2:0:0:
70,301,83791,1,8,3:2:0:0:
226,43,83960,6,0,L|323:32,1,77.8499976242066,8|0,0:2|0:2,0:2:0:0:
410,177,84297,1,0,3:2:0:0:
199,157,84466,1,8,0:2:0:0:
431,59,84634,1,8,0:2:0:0:
357,304,84803,1,0,3:2:0:0:
306,51,84971,6,0,L|260:56,1,38.9249988121033,8|0,0:2|0:0,0:2:0:0:
208,101,85308,6,0,L|100:94,1,77.8499976242066,0|8,3:2|0:2,0:0:0:0:
35,33,85645,5,8,3:2:0:0:
31,72,85730,1,8,0:2:0:0:
28,110,85814,1,8,0:2:0:0:
25,148,85898,1,8,0:2:0:0:
23,182,85982,2,0,L|19:250,1,38.9249988121033,8|8,3:2|0:2,0:2:0:0:
127,138,86151,2,0,L|123:70,1,38.9249988121033,8|8,0:2|0:2,0:0:0:0:
178,252,86319,5,8,3:2:0:0:
214,263,86404,1,8,0:2:0:0:
252,256,86488,1,8,0:2:0:0:
282,232,86572,1,8,0:2:0:0:
298,197,86657,2,0,P|304:177|295:135,1,38.9249988121033,8|8,3:2|0:2,0:0:0:0:
163,60,86825,2,0,P|163:79|168:97,1,38.9249988121033,8|8,0:2|0:2,0:0:0:0:
214,263,86994,5,8,0:2:0:0:
342,77,87162,1,0,3:2:0:0:
404,300,87331,1,0,3:2:0:0:
317,212,87499,5,8,0:2:0:0:
450,170,87667,1,0,3:2:0:0:
404,300,87836,1,0,3:2:0:0:
342,77,88005,6,0,L|390:86,1,38.9249988121033,12|0,0:2|0:2,0:2:0:0:
457,103,88342,5,4,3:1:0:0:
396,296,88510,1,0,0:2:0:0:
286,136,88679,1,10,0:2:0:0:
470,230,88848,1,0,0:2:0:0:
279,140,89016,2,0,P|265:201|260:248,1,86.5,2|0,3:1|3:2,0:2:0:0:
272,377,89353,5,10,0:2:0:0:
189,153,89522,1,0,0:2:0:0:
369,264,89690,1,2,3:2:0:0:
150,326,89859,1,0,0:2:0:0:
367,255,90027,2,0,P|407:257|445:295,1,86.5,10|0,0:1|0:2,0:2:0:0:
507,384,90364,5,2,3:2:0:0:
418,145,90533,1,0,3:2:0:0:
303,362,90701,1,10,0:2:0:0:
489,231,90870,1,0,0:2:0:0:
272,167,91039,2,0,P|262:214|255:268,1,86.5,2|0,3:1|0:2,0:2:0:0:
298,377,91376,5,10,0:2:0:0:
355,192,91544,1,0,0:2:0:0:
176,306,91713,1,2,3:2:0:0:
407,328,91881,1,0,3:2:0:0:
263,119,92050,2,0,P|222:109|177:128,1,86.5,10|0,0:1|0:2,0:2:0:0:
148,313,92387,6,0,P|143:270|137:228,1,86.5,2|0,3:2|0:2,0:2:0:0:
27,153,92724,2,0,P|19:196|14:239,1,86.5,10|2,0:2|0:2,0:0:0:0:
152,108,93061,2,0,P|192:93|234:103,1,86.5,2|0,3:1|3:2,0:2:0:0:
362,213,93398,1,8,0:2:0:0:
330,20,93567,6,0,P|308:99|291:195,1,173,6|0,3:2|3:2,0:2:0:0:
373,351,94072,2,0,P|408:373|460:365,1,86.5,10|0,0:2|0:2,0:2:0:0:
381,254,94409,2,0,P|338:250|302:272,1,86.5,2|0,3:2|3:2,0:0:0:0:
244,366,94746,1,10,0:2:0:0:
117,217,94915,6,0,B|160:195|197:224|187:236|227:273|279:243,1,173,6|0,3:2|3:2,0:2:0:0:
68,352,95421,2,0,P|58:314|40:248,1,86.5,10|0,0:2|0:2,0:2:0:0:
122,117,95758,2,0,P|111:158|101:201,1,86.5,2|0,3:2|3:2,0:2:0:0:
100,32,96095,1,10,0:2:0:0:
7,121,96263,1,0,3:2:0:0:
256,173,96432,5,14,0:2:0:0:
23,196,96600,1,0,3:2:0:0:
192,29,96769,5,10,0:2:0:0:
141,264,96937,1,2,3:2:0:0:
55,34,97106,5,8,0:2:0:0:
295,121,97275,1,2,3:2:0:0:
43,235,97443,5,10,0:2:0:0:
259,34,97612,2,0,P|337:32|386:114,1,173,4|0,3:2|3:2,0:2:0:0:
340,291,98117,1,10,0:2:0:0:
452,193,98286,1,0,3:2:0:0:
295,121,98454,2,0,P|291:146|280:167,1,43.25,10|8,0:2|0:2,0:0:0:0:
175,329,98623,2,0,P|172:307|163:287,1,43.25,10|8,0:2|0:2,0:0:0:0:
59,120,98791,1,8,0:3:0:0:
94,97,98876,1,8,0:3:0:0:
138,97,98960,1,8,0:3:0:0:
174,120,99044,1,8,0:3:0:0:
194,157,99128,5,4,3:1:0:0:
58,291,99297,1,0,0:2:0:0:
95,97,99466,1,10,0:2:0:0:
181,261,99634,1,0,0:2:0:0:
226,55,99803,2,0,P|270:45|323:70,1,86.5,2|0,3:1|3:2,0:2:0:0:
361,192,100140,5,10,0:2:0:0:
196,39,100308,1,0,3:2:0:0:
413,112,100477,1,2,0:2:0:0:
206,214,100645,1,0,3:2:0:0:
403,13,100814,2,0,P|448:16|485:48,1,86.5,10|0,0:1|0:2,0:2:0:0:
454,248,101151,5,2,3:2:0:0:
363,74,101319,1,0,3:2:0:0:
338,281,101488,1,10,0:2:0:0:
446,106,101657,1,0,0:2:0:0:
489,327,101825,2,0,P|448:334|403:341,1,86.5,2|0,3:1|0:2,0:2:0:0:
221,352,102162,5,10,0:2:0:0:
383,197,102331,1,0,0:2:0:0:
188,274,102499,1,2,3:2:0:0:
387,342,102668,1,0,3:2:0:0:
214,191,102836,2,0,P|168:196|116:206,1,86.5,10|0,0:1|3:2,0:2:0:0:
30,326,103173,5,2,0:2:0:0:
283,275,103342,1,2,3:2:0:0:
38,175,103510,1,10,0:2:0:0:
296,123,103679,1,2,0:2:0:0:
169,365,103848,2,0,P|165:321|161:267,1,86.5,2|0,3:1|3:2,0:2:0:0:
206,84,104185,1,8,0:2:0:0:
288,328,104353,6,0,L|304:243,1,86.5,6|2,3:2|0:2,0:0:0:0:
327,138,104690,1,0,3:2:0:0:
225,244,104859,2,0,P|189:267|148:260,1,86.5,10|0,0:2|0:2,0:2:0:0:
0,176,105196,2,0,P|41:170|76:194,1,86.5,2|0,3:2|3:2,0:0:0:0:
20,264,105533,1,10,0:2:0:0:
67,66,105701,6,0,P|156:58|245:55,1,173,6|0,3:2|3:2,0:2:0:0:
376,167,106207,2,0,P|420:168|457:142,1,86.5,10|0,0:2|0:2,0:2:0:0:
297,101,106544,2,0,P|273:136|275:179,1,86.5,2|0,3:2|3:2,0:0:0:0:
342,335,106881,2,0,P|336:289|329:230,1,86.5,10|0,0:2|3:2,0:2:0:0:
221,123,107218,5,14,0:2:0:0:
404,216,107387,1,0,3:2:0:0:
193,246,107555,5,8,0:2:0:0:
377,114,107724,1,2,3:2:0:0:
320,341,107893,5,8,0:2:0:0:
221,123,108061,1,0,3:2:0:0:
166,358,108230,5,8,0:2:0:0:
300,178,108398,2,0,P|377:162|439:230,1,173,4|0,3:2|3:2,0:2:0:0:
448,361,108904,5,8,0:2:0:0:
265,266,109072,1,8,0:2:0:0:
265,266,109157,1,8,0:2:0:0:
265,266,109241,1,0,3:2:0:0:
454,209,109409,1,8,0:2:0:0:
326,375,109578,2,0,P|331:333|344:281,1,86.5,2|8,0:2|0:2,0:2:0:0:
458,180,109915,5,14,0:2:0:0:
246,261,110084,1,8,0:2:0:0:
462,350,110252,1,10,0:2:0:0:
318,126,110421,1,8,0:2:0:0:
231,381,110589,5,10,0:2:0:0:
342,56,110758,1,8,0:2:0:0:
426,384,110926,1,10,0:2:0:0:
184,160,111095,1,8,0:2:0:0:
486,219,111263,5,10,0:2:0:0:
87,327,111432,1,8,0:2:0:0:
46,231,111769,6,0,L|96:244,1,43.25,0|0,3:2|3:2,0:2:0:0:
265,285,111937,1,10,0:2:0:0:
0,383,112106,1,8,0:2:0:0:
256,192,112612,5,6,3:2:0:0:
256,192,112696,12,8,115140,0:2:0:0:
155,159,117331,5,0,3:2:0:0:
272,307,117499,1,8,0:2:0:0:
233,113,117668,1,8,2:3:0:0:
136,291,117836,1,8,2:3:0:0:
161,73,118005,6,0,P|191:39|234:30,1,86.5,4|0,3:2|0:2,0:2:0:0:
311,118,118342,1,2,3:2:0:0:
334,5,118510,1,0,0:2:0:0:
233,113,118679,2,0,L|241:216,1,86.5,0|2,3:2|0:2,0:0:0:0:
253,314,119016,1,2,3:2:0:0:
320,237,119185,1,0,0:2:0:0:
169,275,119353,6,0,P|158:328|170:358,1,86.5,0|0,3:2|0:2,0:2:0:0:
253,314,119690,1,2,3:2:0:0:
320,377,119859,1,0,0:2:0:0:
320,237,120027,1,2,3:2:0:0:
149,304,120196,1,8,0:2:0:0:
381,313,120364,1,0,3:2:0:0:
182,200,120533,1,8,0:2:0:0:
424,186,120701,6,0,P|467:183|514:184,1,86.5,4|0,3:2|0:2,0:2:0:0:
426,77,121039,1,0,3:2:0:0:
344,183,121207,2,0,P|309:207|240:179,1,86.5,8|0,0:2|0:2,0:2:0:0:
286,110,121544,1,0,3:2:0:0:
327,291,121713,2,0,P|322:340|317:383,1,86.5,12|0,0:2|0:2,0:2:0:0:
235,298,122050,5,0,3:2:0:0:
405,338,122218,1,8,0:2:0:0:
266,202,122387,1,8,0:2:0:0:
317,376,122555,1,0,3:2:0:0:
394,213,122724,2,0,P|438:216|480:222,1,86.5,8|0,0:2|3:2,0:2:0:0:
415,95,123061,1,8,0:2:0:0:
389,60,123145,1,8,0:2:0:0:
350,42,123230,1,8,0:2:0:0:
308,45,123314,1,8,0:2:0:0:
271,68,123398,6,0,P|266:135|261:209,1,129.75000494957,4|2,3:2|0:2,0:2:0:0:
187,139,123904,1,0,3:2:0:0:
208,268,124072,2,0,P|237:283|291:282,1,64.8750024747849,2|0,0:2|3:2,0:2:0:0:
366,247,124409,1,10,0:2:0:0:
272,206,124578,1,2,3:2:0:0:
272,206,124662,1,8,0:2:0:0:
272,206,124746,6,0,P|265:179|280:130,1,64.8750024747849,10|0,3:2|0:2,0:2:0:0:
327,46,125084,1,2,0:2:0:0:
367,144,125252,1,2,3:2:0:0:
235,71,125421,2,0,P|199:73|151:79,1,64.8750024747849,2|0,0:2|3:2,0:2:0:0:
95,193,125758,2,0,P|127:196|159:198,1,64.8750024747849,8|8,0:2|0:0,0:0:0:0:
38,94,126095,6,0,P|7:122|-2:153,1,64.8750024747849,2|0,3:2|3:2,0:2:0:0:
33,308,126432,2,0,P|28:275|18:224,1,64.8750024747849,2|0,0:2|3:2,0:2:0:0:
143,277,126769,2,0,P|137:308|132:340,1,64.8750024747849,2|0,0:2|3:2,0:2:0:0:
139,351,127022,1,8,0:2:0:0:
146,361,127106,2,0,P|175:380|230:371,1,64.8750024747849,10|0,0:2|3:2,0:0:0:0:
280,299,127443,6,0,B|372:295|372:295|404:324,1,129.75000494957,2|0,3:2|3:2,0:2:0:0:
450,378,127949,1,2,3:2:0:0:
470,292,128117,2,0,L|478:246,3,32.4375012373925,10|8|8|8,0:2|0:2|0:2|0:2,0:0:0:0:
512,197,128454,2,0,L|505:124,1,64.8750024747849,8|8,0:2|0:2,0:0:0:0:
441,44,128791,6,0,P|389:11|311:52,1,129.75000494957,6|2,3:2|0:2,0:2:0:0:
282,100,129297,1,2,3:2:0:0:
392,173,129466,2,0,L|376:86,1,64.8750024747849,2|0,0:2|0:0,0:2:0:0:
327,29,129803,1,8,0:2:0:0:
266,179,129971,1,10,0:2:0:0:
212,22,130140,6,0,P|176:25|127:28,1,64.8750024747849,2|0,3:2|0:2,0:2:0:0:
113,120,130477,1,2,0:2:0:0:
32,37,130645,1,2,3:2:0:0:
12,200,130814,2,0,P|6:168|-6:116,1,64.8750024747849,2|0,0:2|3:2,0:0:0:0:
128,208,131151,1,8,0:0:0:0:
54,295,131319,1,8,0:0:0:0:
88,125,131488,6,0,P|118:113|151:119,1,64.8750024747849,2|0,3:2|0:2,0:2:0:0:
232,178,131825,2,0,P|262:190|295:184,1,64.8750024747849,2|0,0:2|3:2,0:2:0:0:
392,119,132162,2,0,P|390:154|389:188,1,64.8750024747849,2|0,0:2|3:2,0:2:0:0:
393,196,132415,1,8,0:2:0:0:
397,208,132499,1,10,0:2:0:0:
441,325,132668,1,2,3:2:0:0:
503,223,132836,6,0,P|499:168|494:82,1,129.75000494957,2|0,3:2|0:2,0:2:0:0:
405,5,133342,1,0,3:2:0:0:
361,178,133510,2,0,P|353:153|341:120,3,32.4375012373925,10|8|8|8,0:2|0:2|0:2|0:2,0:2:0:0:
306,40,133848,1,2,0:2:0:0:
458,127,134016,1,8,0:2:0:0:
266,227,134185,6,0,P|202:239|139:256,1,129.75000494957,6|10,3:2|0:2,0:2:0:0:
214,319,134690,1,0,0:0:0:0:
236,153,134859,2,0,P|291:146|343:205,1,129.75000494957,2|2,3:2|0:2,0:2:0:0:
367,280,135364,1,8,0:2:0:0:
447,179,135533,6,0,P|442:149|432:104,1,64.8750024747849,2|0,0:2|3:2,0:0:0:0:
388,8,135870,2,0,P|356:-3|312:5,1,64.8750024747849,10|0,0:2|0:2,0:2:0:0:
447,103,136207,2,0,P|479:105|509:94,1,64.8750024747849,2|4,3:2|2:3,0:0:0:0:
334,106,136544,1,0,3:2:0:0:
334,106,136628,1,8,0:2:0:0:
334,106,136713,1,0,3:0:0:0:
329,206,136881,6,0,L|327:281,1,64.8750024747849,2|0,3:2|0:2,0:2:0:0:
260,383,137218,1,10,0:2:0:0:
212,276,137387,1,8,0:2:0:0:
212,276,137471,1,8,0:2:0:0:
212,276,137555,1,2,0:2:0:0:
326,326,137724,1,0,3:2:0:0:
153,381,137893,1,2,0:2:0:0:
204,192,138061,1,8,0:2:0:0:
204,192,138230,6,0,L|270:198,1,64.8750024747849,2|0,0:2|3:2,0:2:0:0:
389,242,138567,1,8,0:2:0:0:
312,133,138735,1,2,0:2:0:0:
258,279,138904,2,0,P|250:313|263:356,1,64.8750024747849,2|8,0:0|0:0,0:0:0:0:
425,263,139241,1,10,0:2:0:0:
323,202,139409,1,10,0:2:0:0:
463,283,139578,5,6,3:2:0:0:
291,333,139746,1,0,0:2:0:0:
393,154,139915,1,10,0:2:0:0:
392,342,140084,1,0,0:2:0:0:
268,197,140252,2,0,P|238:198|203:200,1,64.8750024747849,2|0,3:2|3:2,0:2:0:0:
121,275,140589,1,2,3:2:0:0:
121,275,140673,1,2,3:2:0:0:
121,275,140758,1,8,0:0:0:0:
65,132,140926,6,0,P|60:163|55:196,1,64.8750024747849,2|0,3:2|3:2,0:2:0:0:
31,361,141263,1,10,0:2:0:0:
175,268,141432,1,0,0:2:0:0:
6,258,141600,1,2,3:2:0:0:
140,381,141769,1,8,0:3:0:0:
126,189,141937,1,10,0:2:0:0:
31,361,142106,1,8,0:3:0:0:
213,339,142275,6,0,P|244:334|274:315,1,64.8750024747849,2|0,3:2|0:2,0:2:0:0:
203,230,142612,2,0,P|175:213|143:207,1,64.8750024747849,10|0,0:2|0:2,0:2:0:0:
131,210,142864,1,8,0:2:0:0:
118,215,142949,1,10,0:2:0:0:
4,288,143117,1,0,3:2:0:0:
165,316,143286,1,0,0:0:0:0:
50,163,143454,1,8,0:2:0:0:
81,354,143623,6,0,P|86:319|93:276,1,64.8750024747849,2|2,0:2|3:2,0:2:0:0:
163,188,143960,1,8,0:2:0:0:
245,346,144128,1,2,0:2:0:0:
316,186,144297,1,2,3:2:0:0:
142,355,144466,1,8,0:2:0:0:
363,336,144634,1,8,0:2:0:0:
138,222,144803,1,8,0:3:0:0:
359,241,144971,6,0,P|392:246|444:256,1,64.8750024747849,4|0,3:2|3:2,0:2:0:0:
500,339,145308,2,0,P|468:344|436:349,1,64.8750024747849,2|0,3:2|0:0,0:2:0:0:
350,318,145645,2,0,P|318:312|286:307,1,64.8750024747849,8|0,0:2|0:0,0:0:0:0:
185,282,145982,1,2,3:2:0:0:
228,375,146151,1,0,0:0:0:0:
286,288,146319,6,0,L|277:216,1,64.8750024747849,2|0,0:2|3:2,0:0:0:0:
216,90,146657,2,0,L|208:155,1,64.8750024747849,0|0,0:0|0:2,0:0:0:0:
298,25,146994,2,0,P|329:22|363:35,1,64.8750024747849,10|0,0:2|0:2,0:2:0:0:
418,130,147331,1,2,3:2:0:0:
318,112,147499,1,8,0:2:0:0:
483,33,147668,6,0,L|497:115,1,64.8750024747849,2|0,3:2|0:0,0:2:0:0:
423,232,148005,1,0,0:2:0:0:
423,232,148173,2,0,L|434:169,1,64.8750024747849,0|10,0:2|0:2,0:0:0:0:
504,291,148510,1,0,0:2:0:0:
440,364,148679,1,2,3:2:0:0:
370,296,148848,1,8,0:2:0:0:
274,371,149016,6,0,P|272:340|268:294,1,64.8750024747849,0|0,0:2|3:2,0:0:0:0:
244,135,149353,1,0,0:0:0:0:
189,265,149522,1,8,0:2:0:0:
189,265,149606,1,8,0:2:0:0:
189,265,149690,1,8,0:2:0:0:
329,155,149859,1,0,0:2:0:0:
155,119,150027,2,0,L|144:188,1,64.8750024747849,0|8,3:2|0:2,0:2:0:0:
287,300,150364,6,0,L|276:235,1,64.8750024747849,0|0,3:2|3:2,0:0:0:0:
326,116,150701,2,0,P|358:99|390:100,1,64.8750024747849,0|0,0:0|0:2,0:0:0:0:
461,209,151039,2,0,P|428:207|400:192,1,64.8750024747849,10|0,0:2|0:2,0:2:0:0:
471,55,151376,1,2,3:2:0:0:
512,139,151544,1,8,0:2:0:0:
394,22,151713,6,0,P|358:15|305:8,1,64.8750024747849,2|0,0:2|3:2,0:0:0:0:
246,63,152050,2,0,P|210:69|157:77,1,64.8750024747849,0|0,0:0|0:2,0:0:0:0:
169,76,152303,1,8,0:0:0:0:
156,78,152387,1,10,0:2:0:0:
76,157,152555,1,0,0:2:0:0:
159,229,152724,1,2,3:2:0:0:
74,71,152893,1,8,0:2:0:0:
9,223,153061,6,0,L|17:298,1,64.8750024747849,2|0,3:2|3:2,0:0:0:0:
161,216,153398,1,8,0:2:0:0:
74,134,153567,1,2,0:2:0:0:
93,303,153735,2,0,L|101:378,1,64.8750024747849,2|0,3:2|3:2,0:0:0:0:
187,274,154072,1,0,0:0:0:0:
272,369,154241,1,10,0:2:0:0:
269,247,154409,5,2,0:2:0:0:
180,374,154578,1,8,0:2:0:0:
180,374,154662,1,8,0:2:0:0:
180,374,154746,1,8,0:2:0:0:
337,320,154915,1,2,0:2:0:0:
181,239,155084,1,2,3:2:0:0:
353,196,155252,1,8,0:2:0:0:
262,351,155421,5,8,0:2:0:0:
260,332,155505,1,8,0:2:0:0:
260,313,155589,2,0,L|257:268,1,32.4375012373925,8|8,0:2|0:2,0:0:0:0:
256,170,155758,6,0,L|183:157,1,64.8750024747849,4|0,3:2|0:2,0:2:0:0:
100,262,156095,2,0,L|163:250,1,64.8750024747849,2|0,3:2|0:2,0:2:0:0:
270,310,156432,1,2,3:2:0:0:
274,172,156600,1,8,0:2:0:0:
174,326,156769,1,8,0:3:0:0:
351,294,156937,1,8,0:3:0:0:
172,236,157106,6,0,L|108:247,1,64.8750024747849,2|0,3:2|0:0,0:2:0:0:
198,147,157443,2,0,L|261:158,1,64.8750024747849,10|0,0:2|0:2,0:2:0:0:
368,213,157780,1,2,3:2:0:0:
286,87,157949,1,8,0:2:0:0:
259,243,158117,1,10,0:2:0:0:
259,243,158201,1,8,0:2:0:0:
259,243,158286,1,10,0:2:0:0:
371,123,158454,6,0,L|435:116,1,64.8750024747849,2|0,3:2|0:0,0:2:0:0:
502,180,158791,1,0,3:2:0:0:
408,272,158960,2,0,L|416:185,1,64.8750024747849,2|0,0:2|3:2,0:2:0:0:
435,116,159297,1,10,0:2:0:0:
325,204,159466,1,8,0:3:0:0:
492,264,159634,1,8,0:3:0:0:
342,114,159803,6,0,P|303:111|278:125,1,64.8750024747849,0|0,3:2|0:0,0:2:0:0:
200,194,160140,1,0,3:2:0:0:
285,281,160308,1,8,0:2:0:0:
285,281,160393,1,8,0:2:0:0:
285,281,160477,1,8,0:2:0:0:
200,115,160645,1,0,3:2:0:0:
116,278,160814,6,0,L|120:330,1,51.9,14|0,0:2|0:0,0:2:0:0:
174,384,161151,5,14,0:2:0:0:
200,194,161319,1,0,0:0:0:0:
37,286,161488,1,0,3:2:0:0:
242,297,161657,5,8,0:2:0:0:
84,159,161825,1,0,0:0:0:0:
67,383,161994,1,0,3:2:0:0:
200,194,162162,6,0,P|242:187|291:182,1,86.5,10|0,0:2|0:2,0:2:0:0:
383,237,162499,1,2,3:2:0:0:
300,103,162668,1,8,0:2:0:0:
247,268,162836,2,0,P|211:296|141:279,1,86.5,8|0,0:2|3:2,0:0:0:0:
41,163,163173,5,10,0:2:0:0:
201,198,163342,1,0,3:2:0:0:
19,280,163510,1,2,3:2:0:0:
96,83,163679,1,8,0:2:0:0:
171,296,163848,5,10,3:2:0:0:
197,329,163932,1,8,0:2:0:0:
237,345,164016,1,8,0:2:0:0:
279,340,164100,1,8,0:2:0:0:
314,314,164185,2,0,P|328:297|341:269,1,43.25,8|8,3:2|0:2,0:0:0:0:
221,187,164353,2,0,P|223:208|230:228,1,43.25,8|8,0:2|0:2,0:0:0:0:
306,117,164522,5,10,3:2:0:0:
279,83,164606,1,8,0:2:0:0:
239,66,164690,1,8,0:2:0:0:
197,70,164774,1,8,0:2:0:0:
161,93,164859,2,0,P|147:113|137:145,1,43.25,8|8,3:2|0:2,0:0:0:0:
111,269,165027,2,0,P|102:249|90:231,1,43.25,8|8,0:2|0:2,0:0:0:0:
33,119,165196,5,10,0:2:0:0:
2,296,165364,1,8,3:2:0:0:
131,87,165533,2,0,L|140:133,1,43.25,8|8,0:3|0:3,0:2:0:0:
183,313,165701,1,12,0:2:0:0:
327,79,166544,5,4,3:1:0:0:
272,298,166713,1,0,0:2:0:0:
173,93,166881,1,10,0:2:0:0:
354,238,167050,1,0,0:2:0:0:
138,281,167218,2,0,P|95:288|51:298,1,86.5,2|0,3:1|0:2,0:2:0:0:
250,139,167555,5,10,0:2:0:0:
181,353,167724,1,0,0:2:0:0:
114,134,167893,1,2,3:2:0:0:
269,288,168061,1,0,0:2:0:0:
120,147,168230,2,0,P|78:136|38:150,1,86.5,10|0,0:1|0:2,0:2:0:0:
184,233,168567,5,2,3:2:0:0:
284,43,168735,1,0,3:0:0:0:
347,252,168904,1,10,0:2:0:0:
204,91,169072,1,0,0:2:0:0:
138,299,169241,2,0,P|143:348|147:387,1,86.5,2|0,3:1|0:2,0:2:0:0:
248,200,169578,5,10,0:2:0:0:
46,259,169746,1,0,0:2:0:0:
268,313,169915,1,2,3:2:0:0:
51,372,170084,1,0,0:3:0:0:
140,152,170252,2,0,P|176:128|224:133,1,86.5,10|0,0:1|0:2,0:2:0:0:
409,278,170589,5,2,3:2:0:0:
200,207,170758,1,2,0:2:0:0:
416,156,170926,1,10,0:2:0:0:
279,317,171095,1,2,0:2:0:0:
280,90,171263,2,0,P|284:48|291:2,1,86.5,2|0,3:1|3:1,0:2:0:0:
346,185,171600,1,8,0:2:0:0:
207,38,171769,6,0,P|145:10|58:60,1,173,6|0,3:2|3:2,0:2:0:0:
38,224,172275,2,0,P|33:183|21:111,1,86.5,10|0,0:2|0:2,0:2:0:0:
134,256,172612,2,0,P|114:297|76:316,1,86.5,2|0,3:2|3:2,0:0:0:0:
190,168,172949,1,10,0:2:0:0:
257,365,173117,6,0,P|263:280|276:193,1,173,6|0,3:2|3:2,0:2:0:0:
337,99,173623,2,0,P|368:74|420:80,1,86.5,10|0,0:2|0:2,0:2:0:0:
483,194,173960,2,0,P|440:196|407:171,1,86.5,2|0,3:2|3:2,0:0:0:0:
494,91,174297,1,10,0:2:0:0:
417,275,174466,1,2,3:2:0:0:
337,99,174634,5,14,0:2:0:0:
498,279,174803,1,0,3:2:0:0:
270,236,174971,5,10,0:2:0:0:
496,184,175140,1,2,3:2:0:0:
216,133,175308,5,8,0:2:0:0:
426,234,175477,1,2,3:2:0:0:
211,326,175645,5,10,0:2:0:0:
310,88,175814,2,0,P|348:70|399:79,1,86.5,4|0,3:2|0:0,0:2:0:0:
474,159,176151,1,0,3:2:0:0:
340,244,176319,1,10,0:2:0:0:
340,244,176404,1,8,0:0:0:0:
340,244,176488,2,0,P|319:253|290:255,1,43.25,2|0,3:2|3:0,0:0:0:0:
202,90,176657,5,10,0:2:0:0:
202,90,176741,1,8,0:2:0:0:
202,90,176825,2,0,P|223:92|243:101,1,43.25,10|8,0:2|0:2,0:0:0:0:
143,259,176994,1,8,0:3:0:0:
100,265,177078,1,8,0:3:0:0:
61,249,177162,1,8,0:3:0:0:
35,215,177246,1,8,0:3:0:0:
31,172,177331,5,4,3:1:0:0:
249,237,177499,1,0,0:2:0:0:
47,353,177668,1,10,0:2:0:0:
154,120,177836,1,0,0:2:0:0:
250,350,178005,2,0,P|209:353|162:324,1,86.5,2|0,3:1|3:2,0:2:0:0:
341,115,178342,5,10,0:2:0:0:
374,338,178510,1,0,3:2:0:0:
215,185,178679,1,2,0:2:0:0:
425,249,178848,1,0,3:2:0:0:
231,374,179016,2,0,P|226:332|219:286,1,86.5,10|0,0:1|0:2,0:2:0:0:
352,60,179353,5,2,3:2:0:0:
316,276,179522,1,0,3:2:0:0:
190,100,179690,1,10,0:2:0:0:
411,142,179859,1,0,0:2:0:0:
216,287,180027,2,0,P|171:294|130:278,1,86.5,2|0,3:1|0:2,0:2:0:0:
317,87,180364,5,10,0:2:0:0:
332,325,180533,1,0,0:2:0:0:
213,132,180701,1,2,3:2:0:0:
176,379,180870,1,2,3:2:0:0:
295,174,181039,2,0,P|347:168|386:191,1,86.5,10|0,0:1|3:2,0:2:0:0:
434,338,181376,5,2,0:2:0:0:
192,241,181544,1,2,3:2:0:0:
475,227,181713,1,8,0:2:0:0:
236,338,181881,1,2,0:2:0:0:
441,338,182050,1,2,3:1:0:0:
268,241,182218,1,0,3:2:0:0:
375,384,182387,1,8,0:2:0:0:
282,144,182555,1,6,3:2:0:0:
282,144,182724,6,0,P|272:186|264:229,1,86.5,0|0,0:0|3:2,0:0:0:0:
142,324,183061,2,0,P|132:282|123:240,1,86.5,10|0,0:2|0:2,0:2:0:0:
99,105,183398,2,0,P|142:103|180:124,1,86.5,2|0,3:2|3:2,0:0:0:0:
262,243,183735,1,10,0:2:0:0:
292,80,183904,6,0,P|354:61|428:141,1,173,6|0,3:2|3:2,0:2:0:0:
335,254,184409,2,0,P|284:247|257:196,1,86.5,10|0,0:2|0:2,0:2:0:0:
420,166,184746,2,0,P|449:196|451:238,1,86.5,2|0,3:2|3:2,0:0:0:0:
368,362,185084,2,0,P|323:364|276:367,1,86.5,10|0,0:2|3:2,0:0:0:0:
92,239,185421,5,14,0:2:0:0:
262,351,185589,1,0,3:2:0:0:
35,340,185758,5,8,0:2:0:0:
235,264,185926,1,2,3:2:0:0:
19,179,186095,5,8,0:2:0:0:
171,370,186263,1,0,3:2:0:0:
152,123,186432,5,8,0:2:0:0:
35,340,186600,2,0,P|25:298|11:248,1,86.5,4|0,3:2|0:0,0:2:0:0:
70,102,186937,1,0,3:2:0:0:
165,236,187106,1,8,0:2:0:0:
0,163,187275,1,8,0:2:0:0:
0,163,187359,1,8,0:2:0:0:
0,163,187443,1,0,3:2:0:0:
192,115,187612,5,8,0:2:0:0:
104,268,187780,2,0,P|95:226|109:185,1,86.5,2|8,0:0|0:0,0:0:0:0:
163,338,188117,5,14,0:2:0:0:
28,174,188286,1,8,0:2:0:0:
251,260,188454,1,10,0:2:0:0:
0,377,188623,1,8,0:2:0:0:
119,92,188791,5,10,0:2:0:0:
263,364,188960,1,8,0:2:0:0:
0,250,189128,1,10,0:2:0:0:
265,117,189297,1,8,0:2:0:0:
91,337,189466,5,10,0:2:0:0:
17,38,189634,1,8,0:0:0:0:
0,251,189971,6,0,L|31:207,1,43.25,0|0,3:2|3:2,0:0:0:0:
97,102,190140,5,10,0:2:0:0:
218,235,190308,1,8,0:0:0:0:
218,235,190814,22,0,B|230:140|132:159|114:90|158:-15|277:30|265:102|265:102|283:32|380:8|420:135|389:186|281:180|250:199|238:284,1,713.625027222634,2|8,0:2|0:2,0:2:0:0:
246,291,192752,1,8,0:2:0:0:
253,302,192836,5,8,0:2:0:0:
211,91,193061,5,8,0:3:0:0:
62,246,193286,5,4,0:3:0:0:
177,206,193510,6,0,P|216:196|259:206,1,77.8499976242066,4|0,3:2|0:0,0:2:0:0:
337,263,193848,1,0,0:2:0:0:
211,359,194016,1,0,3:2:0:0:
211,359,194185,2,0,L|218:257,1,77.8499976242066,8|0,0:2|0:2,0:2:0:0:
283,187,194522,1,0,3:2:0:0:
368,354,194690,6,0,P|329:358|287:336,1,77.8499976242066,8|0,0:2|3:2,0:2:0:0:
440,187,195027,1,0,3:2:0:0:
468,366,195196,1,0,0:0:0:0:
359,234,195364,1,0,3:0:0:0:
359,234,195449,1,8,0:2:0:0:
359,234,195533,1,8,0:2:0:0:
277,379,195701,1,8,0:3:0:0:
455,278,195870,1,4,0:3:0:0:
262,213,196039,1,4,0:3:0:0:
396,368,196207,6,0,P|434:381|477:372,1,77.8499976242066,4|0,3:2|0:0,0:2:0:0:
357,181,196544,1,0,0:2:0:0:
290,344,196713,1,0,0:2:0:0:
454,277,196881,2,0,P|449:238|444:200,1,77.8499976242066,8|0,0:2|0:2,0:2:0:0:
384,98,197218,1,0,3:2:0:0:
290,236,197387,6,0,P|320:265|365:267,1,77.8499976242066,8|0,0:2|3:2,0:0:0:0:
276,122,197724,2,0,P|235:125|183:135,1,77.8499976242066,0|0,3:2|0:0,0:2:0:0:
138,274,198061,1,0,3:2:0:0:
290,236,198230,1,8,0:2:0:0:
86,160,198398,1,0,0:2:0:0:
187,371,198567,1,0,3:2:0:0:
256,141,198735,1,8,0:2:0:0:
46,263,198904,6,0,P|118:274|203:292,1,155.699995248413,4|0,3:2|0:2,0:2:0:0:
272,366,199409,1,0,3:2:0:0:
227,203,199578,2,0,P|194:181|137:187,1,77.8499976242066,8|0,0:2|0:0,0:2:0:0:
50,273,199915,1,0,3:2:0:0:
178,356,200084,6,0,P|216:353|248:332,1,77.8499976242066,8|0,0:2|3:2,0:0:0:0:
346,237,200421,1,0,3:2:0:0:
191,270,200589,1,0,0:2:0:0:
318,368,200758,1,0,3:2:0:0:
243,202,200926,2,0,P|210:180|153:186,1,77.8499976242066,8|0,0:2|0:0,0:2:0:0:
64,211,201263,1,0,3:2:0:0:
181,264,201432,1,8,0:2:0:0:
201,96,201600,6,0,L|214:16,1,77.8499976242066,4|0,3:2|0:0,0:2:0:0:
348,136,201937,1,0,0:2:0:0:
227,189,202106,1,0,3:2:0:0:
290,49,202275,2,0,P|327:30|373:36,1,77.8499976242066,8|0,0:2|0:2,0:2:0:0:
453,97,202612,1,0,3:2:0:0:
328,223,202780,2,0,L|342:112,1,77.8499976242066,8|0,0:2|3:2,0:0:0:0:
454,245,203117,5,12,0:2:0:0:
288,308,203286,2,0,P|246:274|241:228,1,77.8499976242066,12|0,3:2|3:2,0:2:0:0:
219,129,203623,5,8,3:3:0:0:
219,129,203735,2,8,P|214:158|196:185,1,51.8999984161377,8|8,0:3|0:3,2:2:0:0:
135,300,203960,5,8,0:2:0:0:
135,300,204072,2,0,P|130:271|112:244,1,51.8999984161377,8|8,0:2|0:2,0:0:0:0:
23,88,204297,6,0,L|132:76,1,77.8499976242066,4|0,3:2|0:0,0:2:0:0:
205,159,204634,1,0,0:2:0:0:
102,235,204803,1,0,3:2:0:0:
124,87,204971,2,0,P|159:67|203:70,1,77.8499976242066,8|0,0:2|0:0,0:2:0:0:
299,147,205308,1,0,3:2:0:0:
195,254,205477,6,0,P|198:221|203:169,1,77.8499976242066,8|0,0:2|3:2,0:0:0:0:
271,60,205814,1,0,3:2:0:0:
336,222,205982,1,0,0:0:0:0:
188,82,206151,1,0,3:2:0:0:
188,82,206235,1,8,0:2:0:0:
188,82,206319,1,8,0:2:0:0:
116,270,206488,1,8,0:3:0:0:
272,149,206657,1,4,0:3:0:0:
76,133,206825,1,4,0:3:0:0:
248,259,206994,6,0,P|293:266|329:252,1,77.8499976242066,4|0,3:2|0:0,0:2:0:0:
282,175,207331,1,0,0:2:0:0:
295,347,207499,1,0,0:0:0:0:
413,236,207668,2,0,P|454:226|495:246,1,77.8499976242066,8|0,0:2|0:0,0:0:0:0:
390,317,208005,1,0,3:2:0:0:
376,154,208173,6,0,P|373:115|367:71,1,77.8499976242066,8|0,0:2|3:2,0:0:0:0:
280,175,208510,1,0,3:2:0:0:
413,236,208679,1,0,0:0:0:0:
273,76,208848,1,0,3:2:0:0:
245,291,209016,2,0,P|296:308|324:301,1,77.8499976242066,8|0,0:2|0:2,0:0:0:0:
142,156,209353,1,0,3:2:0:0:
295,220,209522,1,8,0:2:0:0:
133,294,209690,6,0,P|90:309|45:327,1,77.8499976242066,4|0,3:2|0:2,0:2:0:0:
75,201,210027,1,0,0:2:0:0:
221,272,210196,1,0,3:2:0:0:
221,272,210364,2,0,P|223:324|187:368,1,77.8499976242066,8|0,0:2|0:0,0:2:0:0:
133,294,210701,1,0,3:2:0:0:
231,183,210870,6,0,L|311:197,1,77.8499976242066,8|0,0:2|3:2,0:0:0:0:
400,306,211207,2,0,L|323:319,1,77.8499976242066,0|0,3:2|0:0,0:2:0:0:
457,176,211544,1,0,3:2:0:0:
490,349,211713,1,8,0:2:0:0:
385,215,211881,1,0,0:0:0:0:
361,384,212050,1,0,3:2:0:0:
502,252,212218,1,8,0:2:0:0:
300,237,212387,6,0,P|265:234|222:230,1,77.8499976242066,4|0,3:2|0:0,0:2:0:0:
289,348,212724,1,0,3:2:0:0:
397,206,212893,2,0,P|432:203|475:199,1,77.8499976242066,12|0,0:2|0:0,0:2:0:0:
408,317,213230,1,0,3:2:0:0:
320,140,213398,2,0,P|281:115|238:119,1,77.8499976242066,12|0,0:2|0:0,0:2:0:0:
107,217,213735,6,8,L|112:268,2,51.8999984161377,0|8|8,3:2|0:3|0:3,2:0:0:0:
171,135,214072,6,8,L|178:67,2,51.8999984161377,8|8|8,0:3|0:3|0:3,2:0:0:0:
204,232,214409,5,8,0:0:0:0:
204,232,214522,2,0,P|225:242|259:241,1,51.8999984161377,8|8,0:2|0:2,0:2:0:0:
77,121,214746,5,8,0:3:0:0:
77,121,214859,2,0,P|51:120|27:131,1,51.8999984161377,8|8,0:3|0:3,0:2:0:0:
41,326,215084,6,0,P|65:347|113:355,1,77.8499976242066,6|0,3:2|0:0,0:2:0:0:
221,289,215421,1,0,0:2:0:0:
113,264,215589,1,0,3:2:0:0:
190,370,215758,2,0,P|229:365|291:362,1,77.8499976242066,10|0,0:2|0:0,0:2:0:0:
370,217,216095,1,0,3:2:0:0:
376,368,216263,1,8,0:2:0:0:
376,368,216432,6,0,P|326:364|293:324,1,77.8499976242066,2|0,3:2|3:2,0:0:0:0:
370,217,216769,1,0,0:0:0:0:
467,343,216937,1,0,3:2:0:0:
467,343,217022,1,0,3:0:0:0:
467,343,217106,1,10,0:2:0:0:
290,263,217275,1,8,0:3:0:0:
481,220,217443,1,4,0:3:0:0:
376,368,217612,1,4,0:3:0:0:
342,182,217780,6,0,P|336:140|327:96,1,77.8499976242066,6|0,3:2|0:0,0:2:0:0:
194,205,218117,1,0,0:2:0:0:
356,264,218286,1,0,0:0:0:0:
246,84,218454,2,0,P|209:69|158:81,1,77.8499976242066,10|0,0:2|0:0,0:2:0:0:
85,147,218791,1,0,3:2:0:0:
194,205,218960,1,8,0:2:0:0:
194,205,219128,6,0,P|232:209|267:194,1,77.8499976242066,2|0,3:2|3:2,0:0:0:0:
362,114,219466,5,0,0:0:0:0:
332,280,219634,1,0,3:2:0:0:
332,280,219718,1,8,0:2:0:0:
332,280,219803,1,10,0:2:0:0:
236,118,219971,1,8,2:3:0:0:
195,314,220140,1,4,0:3:0:0:
350,196,220308,1,4,0:3:0:0:
145,167,220477,6,0,P|136:211|129:260,1,77.8499976242066,4|0,3:2|0:0,0:2:0:0:
204,331,220814,1,0,0:2:0:0:
52,273,220982,1,0,3:2:0:0:
211,215,221151,2,0,P|251:213|289:237,1,77.8499976242066,8|0,0:2|0:0,0:2:0:0:
358,298,221488,1,0,3:2:0:0:
228,368,221657,6,0,P|230:332|234:278,1,77.8499976242066,8|0,0:2|3:2,0:0:0:0:
369,204,221994,2,0,P|371:242|373:281,1,77.8499976242066,0|0,3:2|0:0,0:2:0:0:
330,377,222331,1,0,3:2:0:0:
283,230,222499,2,0,P|249:211|210:214,1,77.8499976242066,8|0,0:2|0:0,0:2:0:0:
120,323,222836,1,0,3:2:0:0:
236,295,223005,1,8,0:2:0:0:
84,224,223173,6,0,L|-3:240,1,77.8499976242066,4|0,3:2|0:0,0:2:0:0:
120,323,223510,1,0,3:2:0:0:
141,155,223679,2,0,L|154:56,1,77.8499976242066,12|0,0:2|0:0,0:2:0:0:
58,138,224016,1,0,3:2:0:0:
192,249,224185,2,0,P|232:262|277:245,1,77.8499976242066,12|0,0:2|0:0,0:2:0:0:
368,170,224522,5,0,3:2:0:0:
316,339,224690,1,8,0:2:0:0:
230,178,224859,2,0,P|190:165|145:182,1,77.8499976242066,12|0,0:2|3:2,0:2:0:0:
92,255,225196,6,8,L|97:306,2,51.8999984161377,8|8|8,2:3|2:3|2:3,2:2:0:0:
156,173,225533,6,0,L|163:105,2,51.8999984161377,8|8|8,0:2|0:2|0:2,0:2:0:0:
203,274,225870,6,0,P|234:291|291:284,1,77.8499976242066,6|0,3:2|0:0,0:2:0:0:
386,210,226207,1,0,0:2:0:0:
328,357,226376,1,0,3:2:0:0:
255,215,226544,2,0,P|261:179|274:128,1,77.8499976242066,10|0,0:2|0:0,0:2:0:0:
348,70,226881,1,0,3:2:0:0:
419,221,227050,6,0,P|373:224|330:185,1,77.8499976242066,8|2,0:2|3:2,0:0:0:0:
495,122,227387,1,0,3:2:0:0:
473,284,227555,1,0,0:0:0:0:
389,149,227724,1,0,3:2:0:0:
389,149,227808,1,8,0:2:0:0:
389,149,227893,1,10,0:2:0:0:
356,318,228061,1,8,0:3:0:0:
485,207,228230,1,4,0:3:0:0:
303,204,228398,1,4,0:3:0:0:
473,284,228567,6,0,L|488:195,1,77.8499976242066,6|0,3:2|0:0,0:2:0:0:
376,94,228904,1,0,0:2:0:0:
403,220,229072,1,0,3:2:0:0:
403,220,229157,1,0,3:0:0:0:
403,220,229241,1,10,0:2:0:0:
477,121,229409,1,0,0:0:0:0:
317,166,229578,1,0,3:2:0:0:
485,207,229746,1,8,0:2:0:0:
431,38,229915,6,0,P|393:41|348:45,1,77.8499976242066,2|0,3:2|3:2,0:0:0:0:
236,61,230252,1,0,0:0:0:0:
397,153,230421,1,8,0:2:0:0:
397,153,230505,1,8,0:2:0:0:
397,153,230589,1,10,0:2:0:0:
290,2,230758,1,8,0:3:0:0:
244,181,230926,1,4,0:3:0:0:
353,44,231095,1,4,0:3:0:0:
396,235,231263,6,0,P|405:282|412:323,1,77.8499976242066,6|0,3:2|0:0,0:2:0:0:
297,244,231600,1,0,0:2:0:0:
448,177,231769,1,0,3:2:0:0:
300,332,231937,2,0,P|261:326|228:294,1,77.8499976242066,8|0,0:2|0:0,0:2:0:0:
312,228,232275,1,0,3:2:0:0:
410,384,232443,6,0,L|399:306,1,77.8499976242066,8|0,0:2|3:2,0:0:0:0:
307,166,232780,2,0,L|296:243,1,77.8499976242066,0|0,3:2|0:0,0:2:0:0:
216,355,233117,1,0,3:2:0:0:
133,211,233286,2,0,P|166:190|207:191,1,77.8499976242066,8|0,0:2|0:0,0:2:0:0:
293,327,233623,1,0,3:2:0:0:
189,266,233791,1,8,0:2:0:0:
91,365,233960,6,0,L|75:288,1,77.8499976242066,4|0,3:2|0:0,0:2:0:0:
52,160,234297,1,0,3:2:0:0:
196,280,234466,2,0,L|213:197,1,77.8499976242066,12|0,0:2|0:0,0:2:0:0:
147,104,234803,1,0,3:2:0:0:
96,354,234971,2,0,L|81:278,1,77.8499976242066,12|0,0:2|0:0,0:2:0:0:
214,238,235308,6,8,L|204:289,2,51.8999984161377,0|8|8,3:2|0:3|0:3,2:2:0:0:
157,154,235645,6,8,L|146:103,2,51.8999984161377,8|8|8,0:3|0:3|0:3,2:2:0:0:
205,24,235982,5,8,0:2:0:0:
205,24,236095,2,0,P|230:12|264:12,1,51.8999984161377,8|8,0:2|0:2,0:2:0:0:
337,158,236319,5,8,0:3:0:0:
337,158,236432,2,0,P|311:155|288:144,1,51.8999984161377,8|8,0:3|0:3,0:2:0:0:
430,35,236657,6,0,P|435:78|442:138,1,77.8499976242066,6|0,3:2|0:0,0:2:0:0:
376,230,236994,1,0,0:2:0:0:
422,126,237162,1,0,3:2:0:0:
512,186,237331,2,0,L|504:286,1,77.8499976242066,10|0,0:2|0:0,0:2:0:0:
407,384,237668,1,0,3:2:0:0:
349,243,237836,1,8,0:2:0:0:
349,243,238005,6,0,P|390:242|428:265,1,77.8499976242066,2|0,3:2|3:2,0:0:0:0:
494,349,238342,1,0,0:0:0:0:
443,170,238510,1,0,3:2:0:0:
443,170,238595,1,0,3:0:0:0:
443,170,238679,1,10,0:2:0:0:
337,329,238848,1,8,0:3:0:0:
512,270,239016,1,4,0:3:0:0:
350,165,239185,1,4,0:3:0:0:
412,381,239353,6,0,P|415:339|426:271,1,77.8499976242066,6|0,3:2|0:0,0:2:0:0:
350,165,239690,1,0,0:2:0:0:
281,294,239859,1,0,3:2:0:0:
422,221,240027,2,0,P|438:185|431:122,1,77.8499976242066,10|0,0:2|0:0,0:2:0:0:
366,28,240364,1,0,3:2:0:0:
261,142,240533,6,0,P|262:180|277:215,1,77.8499976242066,8|2,0:2|3:2,0:0:0:0:
346,54,240870,1,0,3:2:0:0:
190,101,241039,1,0,0:0:0:0:
355,177,241207,1,8,0:2:0:0:
355,177,241291,1,8,0:2:0:0:
355,177,241376,1,10,0:2:0:0:
251,21,241544,1,8,0:3:0:0:
193,212,241713,1,4,0:3:0:0:
330,76,241881,1,4,0:3:0:0:
370,268,242050,6,0,P|381:314|389:350,1,77.8499976242066,6|0,3:2|0:2,0:2:0:0:
251,288,242387,1,0,0:2:0:0:
433,210,242555,1,0,3:2:0:0:
249,129,242724,2,0,P|237:175|230:211,1,77.8499976242066,8|0,0:2|0:0,0:2:0:0:
323,341,243061,1,0,3:2:0:0:
408,223,243230,6,0,P|399:184|390:147,1,77.8499976242066,8|0,0:2|3:2,0:0:0:0:
316,44,243567,1,0,3:2:0:0:
476,112,243735,1,0,0:0:0:0:
316,212,243904,1,0,3:2:0:0:
413,48,244072,2,0,P|444:26|501:33,1,77.8499976242066,8|0,0:2|0:0,0:2:0:0:
390,147,244409,1,0,3:2:0:0:
316,44,244578,1,8,0:2:0:0:
231,162,244746,6,0,P|234:211|237:255,1,77.8499976242066,4|0,3:2|0:0,0:2:0:0:
317,341,245084,1,0,3:2:0:0:
403,219,245252,2,0,P|371:196|324:196,1,77.8499976242066,12|0,0:2|0:0,0:2:0:0:
226,322,245589,1,0,3:2:0:0:
404,343,245758,2,0,P|453:346|497:349,1,77.8499976242066,12|0,0:2|0:0,0:2:0:0:
488,343,246010,1,8,0:0:0:0:
494,339,246095,5,0,3:2:0:0:
403,219,246263,1,8,0:2:0:0:
322,370,246432,1,8,0:2:0:0:
497,245,246600,1,8,0:2:0:0:
295,182,246769,1,8,0:2:0:0:
415,381,246937,1,8,0:2:0:0:
490,149,247106,1,8,0:2:0:0:
322,370,247275,1,8,0:2:0:0:
273,278,247443,6,0,L|277:227,3,44.9799997254639,2|0|2|0,0:2|0:2|0:2|0:2,0:2:0:0:
332,173,248791,2,0,L|328:122,3,44.9799997254639,2|0|2|0,0:2|0:2|0:2|0:2,0:2:0:0:
243,104,250140,2,0,L|246:148,3,44.9799997254639,2|0|2|0,0:2|0:2|0:2|0:2,0:2:0:0:
191,209,251488,2,0,L|187:253,3,44.9799997254639,2|0|2|0,0:2|0:2|0:2|0:2,0:2:0:0:
241,323,252836,5,2,0:2:0:0:
256,192,252921,12,2,254185,0:1:0:0:
407,85,258061,5,0,3:2:0:0:
407,103,258145,1,0,3:2:0:0:
407,121,258230,5,8,0:2:0:0:
335,15,258398,1,0,3:2:0:0:
262,218,258567,1,0,3:2:0:0:
137,7,258735,1,8,0:2:0:0:
349,190,258904,5,0,3:2:0:0:
280,131,259072,5,0,3:2:0:0:
175,214,259241,5,6,0:2:0:0:
63,117,259409,5,2,0:2:0:0:
363,320,259578,5,4,3:1:0:0:
211,62,259746,1,0,0:2:0:0:
136,348,259915,1,10,0:2:0:0:
367,194,260084,1,0,0:2:0:0:
117,130,260252,2,0,P|74:118|27:109,1,86.5,2|0,3:1|3:2,0:2:0:0:
280,337,260589,5,10,0:2:0:0:
208,78,260758,1,0,0:2:0:0:
149,339,260926,1,2,3:2:0:0:
294,133,261095,1,0,0:2:0:0:
388,366,261263,2,0,P|431:377|474:368,1,86.5,10|0,0:1|0:2,0:2:0:0:
174,181,261600,5,2,3:2:0:0:
430,267,261769,1,0,3:2:0:0:
171,356,261937,1,10,0:2:0:0:
382,180,262106,1,0,0:2:0:0:
271,372,262275,2,0,P|261:334|246:269,1,86.5,2|0,3:1|0:2,0:2:0:0:
201,89,262612,5,10,0:2:0:0:
356,298,262780,1,0,0:2:0:0:
274,26,262949,1,2,3:2:0:0:
159,293,263117,1,0,3:2:0:0:
326,103,263286,2,0,P|367:90|409:99,1,86.5,10|0,0:1|0:2,0:2:0:0:
489,227,263623,6,0,P|492:192|499:134,1,86.5,2|0,3:2|0:0,0:2:0:0:
358,230,263960,2,0,P|363:272|367:316,1,86.5,10|0,0:2|0:0,0:0:0:0:
322,101,264297,2,0,P|311:59|329:12,1,86.5,2|0,3:1|3:2,0:0:0:0:
448,97,264634,1,8,0:2:0:0:
275,214,264803,1,6,3:2:0:0:
275,214,264971,6,0,P|234:194|211:149,1,86.5,2|0,0:2|3:2,0:2:0:0:
332,15,265308,2,0,P|330:58|329:102,1,86.5,8|0,0:2|0:2,0:2:0:0:
437,277,265645,2,0,P|435:233|433:190,1,86.5,2|0,3:2|3:2,0:0:0:0:
429,70,265982,1,10,0:2:0:0:
336,272,266151,6,0,P|250:301|193:238,1,173,6|0,3:2|3:2,0:2:0:0:
370,187,266657,2,0,P|420:193|474:203,1,86.5,10|0,0:2|0:2,0:2:0:0:
281,118,266994,2,0,P|238:123|196:131,1,86.5,2|0,3:2|3:2,0:2:0:0:
117,255,267331,1,10,0:2:0:0:
181,58,267499,1,0,3:2:0:0:
181,58,267584,1,0,3:2:0:0:
181,58,267668,5,14,0:2:0:0:
252,323,267836,1,0,3:2:0:0:
289,27,268005,5,10,0:2:0:0:
360,306,268173,1,2,3:2:0:0:
112,154,268342,5,10,0:2:0:0:
406,208,268510,1,2,3:2:0:0:
93,306,268679,5,10,0:2:0:0:
288,27,268848,2,0,P|366:-3|440:35,1,173,6|0,3:2|3:2,0:2:0:0:
269,127,269353,5,8,0:2:0:0:
269,127,269437,1,8,0:0:0:0:
269,127,269522,2,0,L|272:179,1,43.25,0|0,3:2|3:2,0:0:0:0:
367,328,269690,2,0,L|369:284,1,43.25,10|8,0:2|0:2,0:0:0:0:
216,277,269859,2,0,L|268:274,1,43.25,8|8,0:2|0:2,0:0:0:0:
417,179,270027,2,0,L|373:177,1,43.25,8|8,0:3|0:3,0:0:0:0:
137,118,270196,2,0,L|181:116,1,43.25,8|8,0:3|0:3,0:0:0:0:
444,30,270364,5,4,3:1:0:0:
271,170,270533,1,0,0:2:0:0:
501,196,270701,1,10,0:2:0:0:
307,53,270870,1,0,0:2:0:0:
329,297,271039,2,0,P|334:352|337:390,1,86.5,2|0,3:1|3:2,0:2:0:0:
442,103,271376,5,10,0:2:0:0:
418,325,271544,1,0,3:2:0:0:
307,135,271713,1,2,0:2:0:0:
508,280,271881,1,0,3:2:0:0:
316,130,272050,2,0,P|274:115|228:127,1,86.5,10|0,0:1|0:2,0:2:0:0:
121,248,272387,5,2,3:2:0:0:
350,233,272555,1,0,3:2:0:0:
143,150,272724,1,10,0:2:0:0:
251,348,272893,1,0,0:2:0:0:
315,131,273061,2,0,P|327:91|343:48,1,86.5,2|0,3:1|0:2,0:2:0:0:
462,262,273398,5,10,0:2:0:0:
200,231,273567,1,0,0:2:0:0:
440,176,273735,1,2,3:2:0:0:
300,384,273904,1,0,3:2:0:0:
232,137,274072,1,10,0:1:0:0:
457,259,274241,1,0,3:2:0:0:
201,349,274409,6,0,P|158:363|110:348,1,86.5,2|0,0:2|3:2,0:2:0:0:
271,215,274746,1,10,0:2:0:0:
315,373,274915,1,2,0:2:0:0:
156,274,275084,2,0,P|161:233|170:172,1,86.5,2|0,3:1|3:2,0:2:0:0:
289,301,275421,1,8,0:2:0:0:
261,126,275589,1,6,3:2:0:0:
261,126,275758,6,0,P|221:98|171:106,1,86.5,2|0,0:2|0:0,0:2:0:0:
91,214,276095,2,0,P|133:213|167:187,1,86.5,8|0,0:2|0:2,0:0:0:0:
118,46,276432,2,0,P|75:46|41:72,1,86.5,2|0,3:2|3:2,0:0:0:0:
0,234,276769,1,10,0:2:0:0:
184,99,276937,2,0,P|174:187|169:275,1,173,6|0,3:2|3:2,0:2:0:0:
262,357,277443,6,0,P|305:355|341:332,1,86.5,8|0,0:2|0:2,0:2:0:0:
244,228,277780,1,2,3:2:0:0:
154,369,277949,1,0,3:2:0:0:
336,248,278117,1,8,0:2:0:0:
117,221,278286,1,0,3:2:0:0:
117,221,278370,1,0,3:2:0:0:
117,221,278454,5,14,0:2:0:0:
341,331,278623,1,0,3:2:0:0:
159,105,278791,5,8,0:2:0:0:
248,379,278960,1,0,3:2:0:0:
314,74,279128,5,8,0:2:0:0:
251,364,279297,1,0,3:2:0:0:
152,87,279466,5,8,0:2:0:0:
391,249,279634,2,0,B|356:234|306:249|319:281|281:301|230:283,1,173,4|0,3:2|3:2,0:2:0:0:
371,354,280140,5,8,0:2:0:0:
239,163,280308,1,0,3:2:0:0:
196,167,280393,1,0,3:2:0:0:
154,170,280477,2,0,L|74:178,1,43.25,8|8,0:2|0:2,0:0:0:0:
20,306,280645,1,8,0:2:0:0:
63,310,280730,1,8,0:2:0:0:
105,313,280814,2,0,L|148:317,1,43.25,8|8,0:0|0:0,0:0:0:0:
222,256,280982,2,0,L|265:251,1,43.25,8|8,0:0|0:0,0:0:0:0:
362,337,281151,5,4,3:1:0:0:
376,128,281319,1,0,0:2:0:0:
267,335,281488,1,10,0:2:0:0:
479,267,281657,1,0,0:2:0:0:
283,143,281825,2,0,L|178:155,1,86.5,2|0,3:1|3:2,0:2:0:0:
93,304,282162,5,8,0:2:0:0:
149,81,282331,1,0,0:2:0:0:
273,259,282499,1,0,3:2:0:0:
85,142,282668,1,0,0:2:0:0:
16,369,282836,2,0,P|10:333|-3:272,1,86.5,10|0,0:1|0:2,0:2:0:0:
198,161,283173,5,2,3:2:0:0:
3,201,283342,1,0,3:2:0:0:
260,238,283510,1,10,0:2:0:0:
55,123,283679,1,0,0:2:0:0:
108,363,283848,2,0,P|151:378|196:371,1,86.5,2|0,3:1|0:2,0:2:0:0:
342,174,284185,5,10,0:2:0:0:
285,376,284353,1,0,0:2:0:0:
167,197,284522,1,2,3:2:0:0:
382,337,284690,1,0,3:2:0:0:
247,132,284859,1,10,0:1:0:0:
190,372,285027,1,0,0:2:0:0:
401,253,285196,6,0,P|451:243|491:260,1,86.5,6|2,3:2|3:2,0:0:0:0:
298,357,285533,1,8,0:2:0:0:
363,157,285701,1,0,0:2:0:0:
464,338,285870,2,0,P|414:348|374:331,1,86.5,0|0,3:0|3:0,0:0:0:0:
270,201,286207,2,0,P|220:191|180:208,1,86.5,10|0,0:0|0:2,0:2:0:0:
74,358,286544,6,0,P|78:283|88:164,1,173,6|8,3:2|0:2,0:0:0:0:
174,67,287050,1,0,0:2:0:0:
279,203,287218,2,0,P|234:216|186:195,1,86.5,0|0,3:2|3:2,0:0:0:0:
74,55,287555,1,10,0:2:0:0:
238,127,287724,1,6,3:2:0:0:
33,220,287893,6,0,P|38:177|46:123,1,86.5,2|0,0:2|0:0,0:2:0:0:
188,202,288230,2,0,P|193:244|199:287,1,86.5,8|0,0:2|0:2,0:0:0:0:
133,124,288567,2,0,P|175:105|223:112,1,86.5,2|0,3:2|3:2,0:2:0:0:
307,207,288904,2,0,P|349:226|397:219,1,86.5,10|0,0:2|3:2,0:0:0:0:
498,94,289241,5,14,0:2:0:0:
418,338,289409,1,0,3:2:0:0:
347,88,289578,5,10,0:2:0:0:
507,312,289746,1,2,3:2:0:0:
420,22,289915,5,8,0:2:0:0:
335,305,290084,1,0,3:2:0:0:
492,93,290252,5,10,0:2:0:0:
231,171,290421,2,0,P|304:184|404:209,1,173,4|0,3:2|3:2,0:2:0:0:
458,317,290926,1,8,0:2:0:0:
375,72,291095,2,0,P|368:95|363:123,1,43.25,0|0,3:2|3:2,0:0:0:0:
308,317,291263,5,8,0:2:0:0:
272,340,291348,1,8,0:2:0:0:
229,343,291432,1,8,0:2:0:0:
191,324,291516,1,8,0:2:0:0:
156,291,291600,1,8,0:3:0:0:
116,266,291685,1,8,0:3:0:0:
69,266,291769,2,0,P|39:281|15:305,1,47.5750014518738,8|8,0:3|0:3,0:0:0:0:
88,351,291937,5,4,0:2:0:0:
249,129,292106,1,0,0:2:0:0:
332,384,292275,1,10,0:2:0:0:
116,178,292443,1,10,0:2:0:0:
397,138,292612,5,8,0:2:0:0:
225,383,292780,1,8,0:2:0:0:
273,57,292949,1,10,0:2:0:0:
464,363,293117,1,8,0:2:0:0:
150,158,293286,5,14,0:2:0:0:
512,237,293454,1,0,3:0:0:0:
113,286,293623,5,14,0:2:0:0:
451,171,293791,1,0,3:2:0:0:
69,82,293960,6,0,P|76:113|83:146,1,43.25,10|8,0:0|0:0,0:0:0:0:
197,340,294128,2,0,P|201:318|206:297,1,43.25,8|8,0:0|0:0,0:0:0:0:
302,177,294297,1,10,0:2:0:0:
334,148,294381,1,8,0:2:0:0:
375,137,294466,1,8,0:2:0:0:
417,145,294550,1,8,0:2:0:0:
451,171,294634,6,0,P|456:219|461:268,1,86.5,6|0,3:2|0:2,0:2:0:0:
332,382,294971,1,8,0:2:0:0:
376,222,295140,1,0,0:2:0:0:
467,358,295308,1,0,3:2:0:0:
467,358,295477,2,0,P|471:314|475:271,1,86.5,0|8,3:2|0:2,0:0:0:0:
375,137,295814,1,0,0:2:0:0:
298,288,295982,5,0,3:2:0:0:
435,189,296151,1,0,0:0:0:0:
265,140,296319,2,0,P|212:147|170:156,1,86.5,8|0,0:2|0:2,0:0:0:0:
102,272,296657,1,0,3:2:0:0:
102,272,296825,2,0,P|144:280|187:285,1,86.5,0|8,3:2|0:2,0:0:0:0:
101,146,297162,1,0,0:2:0:0:
2,247,297331,6,0,P|2:301|44:353,1,86.5,0|0,3:2|0:2,0:2:0:0:
239,199,297668,2,0,P|179:135|101:145,1,173,8|0,0:2|3:2,0:2:0:0:
198,297,298173,1,0,3:2:0:0:
339,166,298342,1,8,0:2:0:0:
151,223,298510,1,0,0:2:0:0:
335,326,298679,6,0,P|387:320|452:314,1,86.5,0|0,3:2|0:0,0:2:0:0:
339,166,299016,2,0,P|295:161|252:157,1,86.5,8|0,0:2|0:0,0:0:0:0:
178,317,299353,1,0,3:2:0:0:
305,248,299522,1,0,3:2:0:0:
141,188,299690,1,8,0:2:0:0:
141,188,300027,5,0,3:2:0:0:
261,319,300196,1,0,3:2:0:0:
392,176,300364,2,0,P|387:136|377:74,1,86.5,8|0,0:2|0:2,0:2:0:0:
270,192,300701,1,0,3:2:0:0:
408,288,300870,1,0,3:2:0:0:
295,104,301039,1,8,0:2:0:0:
261,319,301207,6,0,P|198:352|114:307,1,173,4|0,3:2|3:2,0:2:0:0:
177,160,301713,2,0,P|187:210|200:274,1,86.5,8|0,0:2|0:2,0:2:0:0:
39,181,302050,2,0,P|47:138|56:96,1,86.5,0|0,3:2|3:2,0:2:0:0:
160,26,302387,2,0,P|215:17|253:43,1,86.5,8|0,0:2|3:2,0:0:0:0:
348,212,302724,5,12,0:2:0:0:
400,41,302893,1,0,3:2:0:0:
241,146,303061,5,8,0:2:0:0:
479,169,303230,1,0,3:2:0:0:
286,0,303398,5,8,0:2:0:0:
349,301,303567,1,0,3:2:0:0:
476,17,303735,5,8,0:2:0:0:
355,288,303904,2,0,B|313:270|269:291|286:312|241:339|185:321,1,173,4|0,3:2|3:2,0:2:0:0:
257,193,304409,1,8,0:2:0:0:
364,384,304578,1,8,0:2:0:0:
406,378,304662,1,8,0:2:0:0:
440,352,304746,1,8,0:2:0:0:
457,313,304831,1,8,0:2:0:0:
451,271,304915,2,0,P|441:253|426:233,1,43.25,8|8,0:2|0:2,0:0:0:0:
346,171,305084,5,8,0:3:0:0:
298,174,305168,1,8,0:3:0:0:
250,179,305252,2,0,L|201:183,1,47.5750014518738,8|8,0:3|0:3,0:0:0:0:
94,324,305421,6,0,P|180:315|288:308,1,173,4|8,3:2|0:2,0:2:0:0:
360,251,305926,1,0,0:0:0:0:
203,183,306095,1,0,3:2:0:0:
335,365,306263,1,0,3:2:0:0:
380,147,306432,2,0,P|420:131|466:142,1,86.5,8|0,0:2|3:2,0:0:0:0:
362,270,306769,5,0,0:0:0:0:
290,164,306937,1,0,3:2:0:0:
441,236,307106,2,0,P|438:282|437:336,1,86.5,8|0,0:2|0:2,0:2:0:0:
372,178,307443,1,0,3:2:0:0:
512,282,307612,1,0,3:2:0:0:
327,341,307780,2,0,P|286:350|240:363,1,86.5,8|0,0:2|0:2,0:0:0:0:
372,178,308117,5,0,3:2:0:0:
441,344,308286,1,0,0:2:0:0:
277,271,308454,2,0,P|280:237|288:181,1,86.5,8|0,0:2|0:2,0:2:0:0:
441,78,308791,2,0,P|447:120|451:163,1,86.5,0|0,3:2|3:2,0:0:0:0:
462,328,309128,2,0,P|416:333|372:304,1,86.5,8|0,0:2|0:2,0:2:0:0:
287,185,309466,5,0,3:2:0:0:
318,369,309634,1,0,3:2:0:0:
435,243,309803,1,8,0:2:0:0:
257,291,309971,1,8,0:2:0:0:
257,291,310140,2,0,P|216:301|170:312,1,86.5,0|0,3:2|3:2,0:0:0:0:
287,185,310477,2,0,P|329:195|371:205,1,86.5,8|0,0:2|3:2,0:0:0:0:
472,345,310814,5,0,0:0:0:0:
384,197,310982,1,0,3:2:0:0:
310,363,311151,2,0,P|355:384|405:377,1,86.5,8|0,0:2|0:2,0:2:0:0:
463,182,311488,1,0,3:2:0:0:
299,264,311657,1,0,3:2:0:0:
472,345,311825,2,0,P|474:310|483:239,1,86.5,8|0,0:2|0:2,0:2:0:0:
393,122,312162,6,0,P|353:106|299:122,1,86.5,0|0,3:2|3:2,0:0:0:0:
215,273,312499,2,0,P|256:280|298:263,1,86.5,8|0,0:2|0:2,0:2:0:0:
379,193,312836,1,0,3:2:0:0:
323,350,313005,1,0,3:2:0:0:
247,193,313173,1,8,0:2:0:0:
413,323,313342,1,0,3:2:0:0:
413,323,313426,1,0,3:2:0:0:
413,323,313510,5,12,0:2:0:0:
183,341,313679,1,0,3:2:0:0:
379,190,313848,5,8,0:2:0:0:
261,382,314016,1,0,3:2:0:0:
230,148,314185,5,12,0:2:0:0:
349,379,314353,1,0,3:2:0:0:
320,88,314522,5,8,0:2:0:0:
183,341,314690,1,0,3:2:0:0:
459,262,314859,6,0,L|389:249,3,43.25,12|8|8|8,0:2|0:2|0:2|0:2,0:0:0:0:
238,155,315196,2,0,L|308:142,3,43.25,8|8|8|8,0:2|0:2|0:2|0:2,0:0:0:0:
461,35,315533,1,8,0:2:0:0:
461,35,315617,1,8,0:2:0:0:
461,35,315701,2,0,P|464:57|463:79,1,43.25,8|8,0:2|0:2,0:2:0:0:
337,249,315870,2,0,P|340:227|339:205,1,43.25,8|8,0:2|0:2,0:2:0:0:
245,47,316039,6,0,B|199:12|141:36|141:36|135:96|174:133|174:133|125:164|128:226|128:226|183:252|231:227|231:227|243:283|303:302|303:302|346:260|339:206|339:206|396:213|434:163|434:163|410:108|357:96|357:96|383:44|349:-8|349:-8|276:-2|257:52,1,1079.52,4|0,3:1|0:0,0:2:0:0:
261,40,322949,6,0,P|307:43|353:51,1,86.5,2|0,0:2|0:2,0:2:0:0:
421,133,323623,2,0,P|378:139|335:142,1,86.5,2|0,0:2|0:2,0:2:0:0:
266,194,324297,2,0,P|250:240|265:275,1,86.5,2|0,0:2|0:2,0:2:0:0:
328,330,324971,1,2,0:2:0:0:
328,330,325645,6,0,P|373:339|413:317,1,86.5,2|0,0:2|0:2,0:2:0:0:
360,249,326319,2,0,P|315:240|275:262,1,86.5,2|0,0:2|0:2,0:2:0:0:
245,336,326994,2,0,P|241:294|234:233,1,86.5,2|0,0:2|0:2,0:2:0:0:
319,315,327668,2,0,L|313:261,1,43.25,2|0,0:2|0:2,0:2:0:0:
304,199,328005,1,2,0:2:0:0:
304,199,328342,6,0,P|350:194|410:191,1,86.5,2|0,0:2|0:2,0:2:0:0:
450,287,329016,2,0,P|406:283|363:280,1,86.5,2|0,0:2|0:2,0:2:0:0:
295,333,329690,2,0,P|278:292|287:243,1,86.5,2|0,0:2|0:2,0:2:0:0:
319,172,330364,1,2,0:2:0:0:
319,172,331039,6,0,P|362:174|405:178,1,86.5,2|0,0:2|0:2,0:2:0:0:
473,89,331713,2,0,P|429:85|386:82,1,86.5,2|0,0:2|0:2,0:2:0:0:
300,86,332387,2,0,P|281:129|294:174,1,86.5,2|0,0:2|0:2,0:2:0:0:
342,234,333061,2,0,P|350:258|348:289,1,43.25,2|0,0:2|0:2,0:2:0:0:
318,346,333398,1,2,0:2:0:0:
318,346,333735,6,0,P|276:349|215:356,1,86.5,2|0,0:2|0:2,0:2:0:0:
170,293,334409,2,0,P|126:288|83:285,1,86.5,2|0,0:2|0:2,0:2:0:0:
13,335,334915,1,2,0:2:0:0:
13,335,335084,2,0,P|-3:294|5:244,1,86.5,2|0,0:2|0:2,0:2:0:0:
48,179,335758,1,2,0:2:0:0:
48,179,336263,1,2,0:0:0:0:
48,179,336432,6,0,P|91:182|134:186,1,86.5,2|0,0:2|0:2,0:2:0:0:
199,278,336937,1,0,0:0:0:0:
199,278,337106,2,0,P|155:281|112:285,1,86.5,2|0,0:2|0:2,0:2:0:0:
37,368,337612,1,2,0:2:0:0:
37,368,337780,2,0,P|80:371|123:375,1,86.5,2|0,0:2|0:2,0:2:0:0:
206,280,338286,1,0,0:0:0:0:
206,280,338454,2,0,P|184:281|163:283,1,43.25,2|0,0:2|0:2,0:2:0:0:
80,289,338791,1,2,0:2:0:0:
80,289,339128,6,0,P|63:251|71:204,1,86.5,2|0,0:2|0:2,0:2:0:0:
137,156,339634,1,2,0:2:0:0:
137,156,339803,2,0,P|154:118|146:71,1,86.5,2|0,0:2|0:2,0:2:0:0:
58,126,340308,1,0,0:2:0:0:
58,126,340477,2,0,P|51:168|68:207,1,86.5,2|0,0:2|0:2,0:2:0:0:
147,257,341151,1,2,0:2:0:0:
271,179,341488,2,0,P|249:174|228:170,1,43.25,2|0,0:2|0:2,0:2:0:0:
147,257,341825,6,0,P|190:250|238:245,1,86.5,2|0,0:2|0:2,0:2:0:0:
304,294,342499,2,0,P|346:298|389:305,1,86.5,2|0,0:2|0:2,0:2:0:0:
472,330,343173,2,0,P|489:284|475:242,1,86.5,2|0,0:2|0:0,0:2:0:0:
428,178,343679,1,2,0:2:0:0:
428,178,343848,2,0,P|420:157|419:136,1,43.25,2|0,0:2|0:2,0:2:0:0:
427,61,344185,1,2,0:2:0:0:
427,61,344522,6,0,P|391:55|338:50,1,86.5,2|0,0:2|0:2,0:2:0:0:
263,87,345027,1,2,0:2:0:0:
263,87,345196,2,0,P|219:91|177:97,1,86.5,2|0,0:2|0:2,0:2:0:0:
111,154,345701,1,0,0:2:0:0:
111,154,345870,2,0,P|95:194|117:244,1,86.5,2|0,0:2|0:2,0:2:0:0:
168,295,346544,1,2,0:2:0:0:
168,295,347050,1,2,0:2:0:0:
168,295,347218,6,0,P|213:297|266:301,1,86.5,2|0,0:2|0:2,0:2:0:0:
328,255,347893,2,0,P|371:251|414:250,1,86.5,2|0,0:2|0:2,0:2:0:0:
475,188,348567,2,0,P|483:146|469:105,1,86.5,2|0,0:2|0:2,0:2:0:0:
424,37,349072,1,0,0:2:0:0:
424,37,349241,2,0,P|399:38|373:44,1,43.25,2|0,0:2|0:2,0:2:0:0:
310,4,349578,1,2,0:2:0:0:
282,78,349746,1,0,0:2:0:0:
282,78,349915,6,0,P|289:127|295:171,1,86.5,2|0,0:2|0:2,0:2:0:0:
240,231,350589,2,0,P|232:281|227:324,1,86.5,2|0,0:2|0:2,0:2:0:0:
290,376,351263,2,0,P|341:386|378:364,1,86.5,2|0,0:2|0:2,0:2:0:0:
424,304,351937,2,0,P|419:264|414:215,1,86.5,2|0,0:2|0:2,0:2:0:0:
351,159,352612,6,0,P|313:148|274:162,1,69.2,2|0,0:2|0:2,0:2:0:0:
247,237,353286,2,0,P|280:243|312:232,1,69.2,2|0,0:2|0:2,0:2:0:0:
393,225,353960,2,0,L|390:302,1,69.2,2|0,0:2|0:2,0:2:0:0:
433,367,354466,1,0,0:2:0:0:
433,367,354634,5,2,0:2:0:0:
256,192,354718,12,0,356319,0:2:0:0:
