osu file format v14

[General]
AudioFilename: audio.mp3
AudioLeadIn: 0
PreviewTime: 259492
Countdown: 0
SampleSet: Normal
StackLeniency: 0.7
Mode: 1
LetterboxInBreaks: 0
WidescreenStoryboard: 0

[Editor]
Bookmarks: 217019
DistanceSpacing: 2.6
BeatDivisor: 4
GridSize: 32
TimelineZoom: 2.4

[Metadata]
Title:Sakura no Zenya
TitleUnicode:サクラノ前夜
Artist:Kano
ArtistUnicode:鹿乃
Creator:Santi199
Version:Our Promise
Source:
Tags:the night before the cherry blossoms japanese cover すきなの。 rock jrock j-rock pop jpop j-pop utaite sukinano. female vocals
BeatmapID:3917042
BeatmapSetID:1900291

[Difficulty]
HPDrainRate:5
CircleSize:5
OverallDifficulty:6
ApproachRate:10
SliderMultiplier:1.4
SliderTickRate:1

[Events]
//Background and Video events
0,0,"bg.jpg",0,-130
//Break Periods
//Storyboard Layer 0 (Background)
//Storyboard Layer 1 (Fail)
//Storyboard Layer 2 (Pass)
//Storyboard Layer 3 (Foreground)
//Storyboard Layer 4 (Overlay)
//Storyboard Sound Samples

[TimingPoints]
700,674.157303370787,4,1,0,40,1,0
700,-83.3333333333333,4,1,0,40,0,0
33639,-59.5238095238095,4,1,0,52,0,0
33723,-58.1395348837209,4,1,0,53,0,0
33892,-55.5555555555556,4,1,0,55,0,0
34060,-53.763440860215,4,1,0,57,0,0
34229,-51.5463917525773,4,1,0,58,0,0
34313,-51.0204081632653,4,1,0,59,0,0
34407,337.078651685393,4,1,0,60,1,0
45510,-125.000015625,4,1,0,40,0,0
55295,-121.94064,4,1,0,52,0,0
55380,-120.475044,4,1,0,53,0,0
55464,-119.04428,4,1,0,54,0,0
55632,-116.282295,4,1,0,56,0,0
55717,-114.93313,4,1,0,57,0,0
55801,-113.63025,4,1,0,58,0,0
55970,-111.11112,4,1,0,60,0,0
82946,-109.7561,4,1,0,60,0,0
83115,-109.09289,4,1,0,60,0,0
83284,-108.43374,4,1,0,60,0,0
83452,-107.786354,4,1,0,60,0,0
83621,-107.14287,4,1,0,60,0,0
83789,-106.51075,4,1,0,60,0,0
83958,-105.88236,4,1,0,60,0,0
84126,-105.26499,4,1,0,60,0,0
84295,-104.65117,4,1,0,60,0,0
84464,-104.044464,4,1,0,60,0,0
84632,-103.44828,4,1,0,60,0,0
84801,-102.8554,4,1,0,60,0,0
84969,-102.272736,4,1,0,60,0,0
85138,-101.69321,4,1,0,60,0,0
85306,-101.1236,4,1,0,60,0,0
85475,-100.557,4,1,0,60,0,0
85643,-100,4,1,0,60,0,0
88002,-83.3333383333333,4,1,0,60,0,0
88339,-90.9090968595037,4,1,0,80,0,1
98451,-90.9090968595037,4,1,0,80,0,0
99126,-90.9090968595037,4,1,0,80,0,1
108553,-92.78729,4,1,0,78,0,1
108722,-94.74473,4,1,0,76,0,1
108891,-96.786545,4,1,0,73,0,1
109059,-98.90541,4,1,0,71,0,1
109144,-100.01318,4,1,0,70,0,1
109228,-101.13258,4,1,0,69,0,1
109396,-103.44829,4,1,0,67,0,1
109565,-105.88729,4,1,0,64,0,1
109649,-107.14287,4,1,0,63,0,1
109733,-108.42858,4,1,0,62,0,1
109902,-111.11112,4,1,0,60,0,1
110071,-108.09945,4,1,0,63,0,1
110239,-105.263176,4,1,0,65,0,1
110408,-102.55631,4,1,0,68,0,1
110576,-100.00001,4,1,0,70,0,1
110745,-97.553925,4,1,0,73,0,1
110913,-95.2381,4,1,0,75,0,1
111082,-93.016846,4,1,0,78,0,1
111260,-90.909096,4,1,0,80,0,0
112936,-100,4,1,0,60,0,0
123722,-125,4,1,0,40,0,0
133498,-121.96181,4,1,0,52,0,0
133582,-120.48022,4,1,0,53,0,0
133666,-119.050995,4,1,0,54,0,0
133835,-116.27587,4,1,0,56,0,0
133919,-114.9441,4,1,0,57,0,0
134003,-113.64251,4,1,0,58,0,0
134088,-112.37005,4,1,0,59,0,0
134172,-111.11112,4,1,0,60,0,0
161148,-109.756546,4,1,0,60,0,0
161317,-109.09354,4,1,0,60,0,0
161486,-108.43461,4,1,0,60,0,0
161655,-107.783585,4,1,0,60,0,0
161823,-107.14413,4,1,0,60,0,0
161992,-106.50847,4,1,0,60,0,0
162160,-105.884,4,1,0,60,0,0
162329,-105.26317,4,1,0,60,0,0
162497,-104.653175,4,1,0,60,0,0
162666,-104.04664,4,1,0,60,0,0
162834,-103.45063,4,1,0,60,0,0
163003,-102.85792,4,1,0,60,0,0
163171,-102.27541,4,1,0,60,0,0
163340,-101.69605,4,1,0,60,0,0
163508,-101.126595,4,1,0,60,0,0
163677,-100.56014,4,1,0,60,0,0
163846,-100,4,1,0,60,0,0
166541,-90.9090909090909,4,1,0,80,0,1
176654,-90.9090909090909,4,1,0,80,0,0
177328,-90.9090909090909,4,1,0,80,0,1
186755,-92.7772,4,1,0,78,0,1
186924,-94.73553,4,1,0,76,0,1
187093,-96.77831,4,1,0,73,0,1
187261,-98.89824,4,1,0,71,0,1
187346,-100.00659,4,1,0,70,0,1
187430,-101.12659,4,1,0,69,0,1
187598,-103.44357,4,1,0,67,0,1
187767,-105.883995,4,1,0,64,0,1
187851,-107.140335,4,1,0,63,0,1
187935,-108.42685,4,1,0,62,0,1
188104,-111.111115,4,1,0,60,0,1
188273,-108.10161,4,1,0,63,0,1
188441,-105.267265,4,1,0,65,0,1
188610,-102.56215,4,1,0,68,0,1
188779,-100.007416,4,1,0,70,0,1
188947,-97.56274,4,1,0,72,0,1
189116,-95.24819,4,1,0,75,0,1
189284,-93.02807,4,1,0,77,0,1
189463,-90.92133,4,1,0,80,0,0
190802,-90.92133,4,1,0,60,0,0
192666,-90.92133,4,1,0,60,0,0
192749,-92.60122,4,1,0,60,0,0
192833,-94.34435,4,1,0,60,0,0
193058,-99.35393,4,1,0,60,0,0
193283,-104.92535,4,1,0,60,0,0
193508,-111.129395,4,1,0,60,0,0
246093,-111.129395,4,1,0,60,0,0
246250,-108.13409,4,1,0,62,0,0
246335,-106.67929,4,1,0,64,0,0
246419,-105.279564,4,1,0,65,0,0
246588,-102.58749,4,1,0,67,0,0
246756,-100.01481,4,1,0,70,0,0
246925,-97.58213,4,1,0,72,0,0
247093,-95.25152,4,1,0,75,0,0
247262,-93.02965,4,1,0,78,0,0
247440,674.157303370787,4,1,0,20,1,8
247441,674.157303370787,4,1,0,20,1,0
247441,-45.4545454545455,4,1,0,20,0,0
247775,-47.3369145425181,4,1,0,20,0,0
248112,-49.3819247321674,4,1,0,20,0,0
248449,-51.6116066301726,4,1,0,20,0,0
248786,-54.0521578768016,4,1,0,20,0,0
249123,-56.7349772765528,4,1,0,20,0,0
249461,-59.7072760285196,4,1,0,20,0,0
249798,-62.9979207064925,4,1,0,20,0,0
250135,-66.6724359608347,4,1,0,20,0,0
250472,-70.8021530786399,4,1,0,20,0,0
250809,-75.4772434641438,4,1,0,20,0,0
251146,-80.8133784877274,4,1,0,20,0,0
251483,-86.9614293085655,4,1,0,20,0,0
251820,-94.1219588816363,4,1,0,20,0,0
252157,-102.567516165843,4,1,0,20,0,0
252494,-112.678116250888,4,1,0,20,0,0
252831,-125,4,1,0,20,0,0
258048,-55.5555555555556,4,1,0,40,0,0
258133,-54.9450549450549,4,1,0,42,0,0
258227,337.078651685393,4,1,0,44,1,8
258228,337.078651685393,4,1,0,44,1,0
258228,-108.444244,4,1,0,44,0,0
258386,-105.90059,4,1,0,49,0,0
258555,-103.45942,4,1,0,53,0,0
258723,-101.14173,4,1,0,58,0,0
258892,-98.91271,4,1,0,62,0,0
259060,-96.792175,4,1,0,67,0,0
259229,-94.74881,4,1,0,71,0,0
259397,-92.8013,4,1,0,76,0,0
259576,-90.921326,4,1,0,80,0,1
269688,-90.921326,4,1,0,80,0,0
270362,-90.921326,4,1,0,80,0,1
280475,-90.921326,4,1,0,80,0,0
281149,-90.921326,4,1,0,80,0,1
291251,-94.34434,4,1,0,76,0,1
291335,-96.17633,4,1,0,74,0,1
291420,-98.058014,4,1,0,72,0,1
291504,-100.01479,4,1,0,70,0,1
291588,-102.05128,4,1,0,68,0,1
291673,-104.1982,4,1,0,66,0,1
291757,-106.41049,4,1,0,64,0,1
291841,-108.71875,4,1,0,62,0,1
291925,-111.12938,4,1,0,60,0,1
292094,-109.60292,4,1,0,61,0,1
292262,-108.11782,4,1,0,63,0,1
292431,-106.68087,4,1,0,64,0,1
292600,-105.2734,4,1,0,65,0,1
292768,-103.910576,4,1,0,66,0,1
292937,-102.5748,4,1,0,68,0,1
293105,-101.27292,4,1,0,69,0,1
293274,-100.01109,4,1,0,70,0,1
293442,-98.773094,4,1,0,71,0,1
293611,-97.57242,4,1,0,73,0,1
293779,-96.40058,4,1,0,74,0,1
293948,-95.24984,4,1,0,75,0,1
294032,-94.688034,4,1,0,76,0,1
294116,-94.13281,4,1,0,76,0,1
294201,-93.577576,4,1,0,77,0,1
294285,-93.03526,4,1,0,78,0,1
294369,-92.49921,4,1,0,78,0,1
294453,-91.96302,4,1,0,79,0,1
294538,-91.43921,4,1,0,79,0,1
294632,-90.921326,4,1,0,80,0,0
316205,-90.921326,4,1,0,80,0,0
317553,-100.01184,4,1,0,72,0,0
318902,-111.13122,4,1,0,64,0,0
320250,-125.02083,4,1,0,56,0,0
321598,-142.87828,4,1,0,48,0,0
322947,674.157303370787,4,1,0,40,1,0
322947,-83.3333333333333,4,1,0,40,0,0
354791,-83.3333333333333,4,1,0,20,0,0

[HitObjects]
256,192,700,5,8,0:0:0:0:
256,192,1037,1,0,0:0:0:0:
256,192,1374,1,0,0:0:0:0:
256,192,1711,1,8,0:0:0:0:
256,192,2048,1,8,0:0:0:0:
256,192,2385,1,0,0:0:0:0:
256,192,2722,1,8,0:0:0:0:
256,192,3396,1,8,0:0:0:0:
256,192,3733,1,0,0:0:0:0:
256,192,4070,1,0,0:0:0:0:
256,192,4407,1,8,0:0:0:0:
256,192,4744,1,8,0:0:0:0:
256,192,5082,1,0,0:0:0:0:
256,192,5419,1,8,0:0:0:0:
256,192,5587,1,8,0:0:0:0:
256,192,5756,1,0,0:0:0:0:
256,192,6093,1,8,0:0:0:0:
256,192,6430,1,0,0:0:0:0:
256,192,6767,1,0,0:0:0:0:
256,192,7104,1,0,0:0:0:0:
256,192,7441,1,8,0:0:0:0:
256,192,7778,1,0,0:0:0:0:
256,192,8115,1,8,0:0:0:0:
256,192,8789,1,8,0:0:0:0:
256,192,9126,1,8,0:0:0:0:
256,192,9464,1,0,0:0:0:0:
256,192,9801,1,0,0:0:0:0:
256,192,10138,1,8,0:0:0:0:
256,192,10475,1,0,0:0:0:0:
256,192,10812,1,8,0:0:0:0:
256,192,10980,1,0,0:0:0:0:
256,192,11149,1,8,0:0:0:0:
256,192,11486,1,8,0:0:0:0:
256,192,11823,1,0,0:0:0:0:
256,192,12160,1,0,0:0:0:0:
256,192,12497,1,0,0:0:0:0:
256,192,12666,1,0,0:0:0:0:
256,192,12834,1,8,0:0:0:0:
256,192,13171,1,0,0:0:0:0:
256,192,13508,1,8,0:0:0:0:
256,192,14183,1,8,0:0:0:0:
256,192,14520,1,0,0:0:0:0:
256,192,14857,1,0,0:0:0:0:
256,192,15194,1,0,0:0:0:0:
256,192,15531,1,8,0:0:0:0:
256,192,15868,1,0,0:0:0:0:
256,192,16205,1,8,0:0:0:0:
256,192,16374,1,8,0:0:0:0:
256,192,16542,1,0,0:0:0:0:
256,192,16879,1,8,0:0:0:0:
256,192,17216,1,0,0:0:0:0:
256,192,17553,1,0,0:0:0:0:
256,192,17891,1,8,0:0:0:0:
256,192,18059,1,0,0:0:0:0:
256,192,18228,1,8,0:0:0:0:
256,192,18565,1,0,0:0:0:0:
256,192,18902,1,8,0:0:0:0:
256,192,19239,1,0,0:0:0:0:
256,192,19407,1,0,0:0:0:0:
256,192,19576,1,8,0:0:0:0:
256,192,19913,1,0,0:0:0:0:
256,192,20250,1,0,0:0:0:0:
256,192,20587,1,0,0:0:0:0:
256,192,20924,1,8,0:0:0:0:
256,192,21261,1,0,0:0:0:0:
256,192,21430,1,0,0:0:0:0:
256,192,21598,1,8,0:0:0:0:
256,192,21767,1,0,0:0:0:0:
256,192,21935,1,8,0:0:0:0:
256,192,22273,1,8,0:0:0:0:
256,192,22610,1,0,0:0:0:0:
256,192,22778,1,0,0:0:0:0:
256,192,22947,1,8,0:0:0:0:
256,192,23284,1,8,0:0:0:0:
256,192,23452,1,0,0:0:0:0:
256,192,23621,1,8,0:0:0:0:
256,192,23958,1,0,0:0:0:0:
256,192,24295,1,8,0:0:0:0:
256,192,24801,1,0,0:0:0:0:
256,192,24969,1,8,0:0:0:0:
256,192,25306,1,0,0:0:0:0:
256,192,25643,1,8,0:0:0:0:
256,192,25980,1,8,0:0:0:0:
256,192,26317,1,0,0:0:0:0:
256,192,26655,1,0,0:0:0:0:
256,192,26992,1,8,0:0:0:0:
256,192,27160,1,8,0:0:0:0:
256,192,27329,1,0,0:0:0:0:
256,192,27666,1,8,0:0:0:0:
256,192,28003,1,0,0:0:0:0:
256,192,28340,1,0,0:0:0:0:
256,192,28677,1,0,0:0:0:0:
256,192,29014,1,8,0:0:0:0:
256,192,29351,1,8,0:0:0:0:
256,192,29688,1,8,0:0:0:0:
256,192,30025,1,0,0:0:0:0:
256,192,30362,1,8,0:0:0:0:
256,192,31037,1,8,0:0:0:0:
256,192,31711,1,8,0:0:0:0:
256,192,32048,1,0,0:0:0:0:
256,192,32216,1,0,0:0:0:0:
256,192,32385,1,8,0:0:0:0:
256,192,32553,12,0,33396,0:0:0:0:
256,192,33649,5,0,0:0:0:0:
256,192,33733,1,8,0:0:0:0:
256,192,33902,1,0,0:0:0:0:
256,192,34070,1,8,0:0:0:0:
256,192,34239,1,0,0:0:0:0:
256,192,34323,1,0,0:0:0:0:
256,192,34407,1,12,0:0:0:0:
256,192,34575,1,0,0:0:0:0:
256,192,34744,1,0,0:0:0:0:
256,192,34912,1,0,0:0:0:0:
256,192,34996,1,8,0:0:0:0:
256,192,35081,1,0,0:0:0:0:
256,192,35249,1,0,0:0:0:0:
256,192,35418,1,8,0:0:0:0:
256,192,35586,1,0,0:0:0:0:
256,192,35755,1,8,0:0:0:0:
256,192,35839,1,0,0:0:0:0:
256,192,35923,1,8,0:0:0:0:
256,192,36092,1,0,0:0:0:0:
256,192,36260,1,8,0:0:0:0:
256,192,36429,1,0,0:0:0:0:
256,192,36513,1,0,0:0:0:0:
256,192,36598,1,8,0:0:0:0:
256,192,36766,1,0,0:0:0:0:
256,192,36935,1,8,0:0:0:0:
256,192,37019,1,8,0:0:0:0:
256,192,37103,1,0,0:0:0:0:
256,192,37440,1,8,0:0:0:0:
256,192,37609,1,0,0:0:0:0:
256,192,37693,1,8,0:0:0:0:
256,192,37777,1,0,0:0:0:0:
256,192,37946,1,0,0:0:0:0:
256,192,38114,1,0,0:0:0:0:
256,192,38283,1,0,0:0:0:0:
256,192,38367,1,0,0:0:0:0:
256,192,38451,1,8,0:0:0:0:
256,192,38620,1,0,0:0:0:0:
256,192,38789,1,8,0:0:0:0:
256,192,38957,1,0,0:0:0:0:
256,192,39126,1,8,0:0:0:0:
256,192,39294,1,8,0:0:0:0:
256,192,39463,1,0,0:0:0:0:
256,192,39631,1,0,0:0:0:0:
256,192,39800,1,12,0:0:0:0:
256,192,39968,1,0,0:0:0:0:
256,192,40053,1,8,0:0:0:0:
256,192,40137,1,0,0:0:0:0:
256,192,40305,1,8,0:0:0:0:
256,192,40390,1,8,0:0:0:0:
256,192,40474,1,0,0:0:0:0:
256,192,40642,1,0,0:0:0:0:
256,192,40727,1,0,0:0:0:0:
256,192,40811,1,8,0:0:0:0:
256,192,40980,1,8,0:0:0:0:
256,192,41064,1,0,0:0:0:0:
256,192,41148,1,8,0:0:0:0:
256,192,41317,1,0,0:0:0:0:
256,192,41401,1,8,0:0:0:0:
256,192,41485,1,0,0:0:0:0:
256,192,41654,1,8,0:0:0:0:
256,192,41738,1,8,0:0:0:0:
256,192,41822,1,0,0:0:0:0:
256,192,41991,1,8,0:0:0:0:
256,192,42075,1,0,0:0:0:0:
256,192,42159,1,8,0:0:0:0:
256,192,42328,1,0,0:0:0:0:
256,192,42412,1,0,0:0:0:0:
256,192,42496,1,12,0:0:0:0:
256,192,42665,1,0,0:0:0:0:
256,192,42833,1,8,0:0:0:0:
256,192,43002,1,8,0:0:0:0:
256,192,43086,1,0,0:0:0:0:
256,192,43171,1,8,0:0:0:0:
256,192,43339,1,0,0:0:0:0:
256,192,43508,1,12,0:0:0:0:
256,192,43676,1,0,0:0:0:0:
256,192,43760,1,0,0:0:0:0:
256,192,43845,1,8,0:0:0:0:
256,192,44013,1,8,0:0:0:0:
256,192,44182,1,8,0:0:0:0:
256,192,44350,1,0,0:0:0:0:
256,192,44519,1,8,0:0:0:0:
256,192,44687,1,0,0:0:0:0:
256,192,44856,1,0,0:0:0:0:
256,192,44940,1,0,0:0:0:0:
256,192,45024,1,0,0:0:0:0:
256,192,45109,1,0,0:0:0:0:
256,192,45193,1,12,0:0:0:0:
256,192,45530,1,8,0:0:0:0:
256,192,45867,1,8,0:0:0:0:
256,192,46204,1,8,0:0:0:0:
256,192,46373,1,0,0:0:0:0:
256,192,46541,1,0,0:0:0:0:
256,192,46878,1,8,0:0:0:0:
256,192,47215,1,0,0:0:0:0:
256,192,47384,1,0,0:0:0:0:
256,192,47553,1,8,0:0:0:0:
256,192,47721,1,0,0:0:0:0:
256,192,47890,1,8,0:0:0:0:
256,192,48227,1,8,0:0:0:0:
256,192,48564,1,8,0:0:0:0:
256,192,48901,1,0,0:0:0:0:
256,192,49069,1,0,0:0:0:0:
256,192,49238,1,8,0:0:0:0:
256,192,49575,1,0,0:0:0:0:
256,192,49744,1,8,0:0:0:0:
256,192,49912,1,8,0:0:0:0:
256,192,50081,1,0,0:0:0:0:
256,192,50249,1,0,0:0:0:0:
256,192,50418,1,0,0:0:0:0:
256,192,50586,1,12,0:0:0:0:
256,192,50923,1,8,0:0:0:0:
256,192,51092,1,0,0:0:0:0:
256,192,51260,1,8,0:0:0:0:
256,192,51598,1,8,0:0:0:0:
256,192,51766,1,0,0:0:0:0:
256,192,51935,1,0,0:0:0:0:
256,192,52272,1,0,0:0:0:0:
256,192,52440,1,0,0:0:0:0:
256,192,52609,1,8,0:0:0:0:
256,192,52777,1,8,0:0:0:0:
256,192,52946,1,0,0:0:0:0:
256,192,53114,1,8,0:0:0:0:
256,192,53283,1,0,0:0:0:0:
256,192,53620,1,8,0:0:0:0:
256,192,53957,1,8,0:0:0:0:
256,192,54294,1,0,0:0:0:0:
256,192,54463,1,0,0:0:0:0:
256,192,54631,1,8,0:0:0:0:
256,192,54968,1,0,0:0:0:0:
256,192,55137,1,8,0:0:0:0:
256,192,55305,1,8,0:0:0:0:
256,192,55390,1,8,0:0:0:0:
256,192,55474,1,0,0:0:0:0:
256,192,55642,1,0,0:0:0:0:
256,192,55727,1,8,0:0:0:0:
256,192,55811,1,0,0:0:0:0:
256,192,55980,1,12,0:0:0:0:
256,192,56317,1,0,0:0:0:0:
256,192,56485,1,0,0:0:0:0:
256,192,56654,1,8,0:0:0:0:
256,192,56991,1,8,0:0:0:0:
256,192,57075,1,8,0:0:0:0:
256,192,57159,1,0,0:0:0:0:
256,192,57328,1,8,0:0:0:0:
256,192,57496,1,0,0:0:0:0:
256,192,57665,1,8,0:0:0:0:
256,192,57833,1,0,0:0:0:0:
256,192,58002,1,8,0:0:0:0:
256,192,58171,1,8,0:0:0:0:
256,192,58339,1,0,0:0:0:0:
256,192,58423,1,0,0:0:0:0:
256,192,58508,1,8,0:0:0:0:
256,192,58592,1,8,0:0:0:0:
256,192,58676,1,0,0:0:0:0:
256,192,58845,1,0,0:0:0:0:
256,192,59013,1,8,0:0:0:0:
256,192,59182,1,0,0:0:0:0:
256,192,59350,1,8,0:0:0:0:
256,192,59687,1,8,0:0:0:0:
256,192,59856,1,0,0:0:0:0:
256,192,60024,1,8,0:0:0:0:
256,192,60362,1,0,0:0:0:0:
256,192,60530,1,0,0:0:0:0:
256,192,60699,1,8,0:0:0:0:
256,192,60867,1,8,0:0:0:0:
256,192,61036,1,0,0:0:0:0:
256,192,61120,1,8,0:0:0:0:
256,192,61204,1,0,0:0:0:0:
256,192,61289,1,0,0:0:0:0:
256,192,61373,1,12,0:0:0:0:
256,192,61541,1,0,0:0:0:0:
256,192,61710,1,0,0:0:0:0:
256,192,61878,1,8,0:0:0:0:
256,192,61963,1,0,0:0:0:0:
256,192,62047,1,8,0:0:0:0:
256,192,62215,1,0,0:0:0:0:
256,192,62384,1,0,0:0:0:0:
256,192,62553,1,8,0:0:0:0:
256,192,62637,1,8,0:0:0:0:
256,192,62721,1,0,0:0:0:0:
256,192,62890,1,0,0:0:0:0:
256,192,63058,1,8,0:0:0:0:
256,192,63227,1,8,0:0:0:0:
256,192,63395,1,8,0:0:0:0:
256,192,63564,1,0,0:0:0:0:
256,192,63648,1,0,0:0:0:0:
256,192,63732,1,8,0:0:0:0:
256,192,63817,1,8,0:0:0:0:
256,192,63901,1,0,0:0:0:0:
256,192,64069,1,8,0:0:0:0:
256,192,64238,1,0,0:0:0:0:
256,192,64406,1,8,0:0:0:0:
256,192,64744,1,8,0:0:0:0:
256,192,65081,1,8,0:0:0:0:
256,192,65249,1,0,0:0:0:0:
256,192,65418,1,8,0:0:0:0:
256,192,65755,1,0,0:0:0:0:
256,192,65923,1,8,0:0:0:0:
256,192,66092,1,8,0:0:0:0:
256,192,66260,1,0,0:0:0:0:
256,192,66429,1,0,0:0:0:0:
256,192,66513,1,8,0:0:0:0:
256,192,66598,1,0,0:0:0:0:
256,192,66766,1,12,0:0:0:0:
256,192,66935,1,0,0:0:0:0:
256,192,67103,1,8,0:0:0:0:
256,192,67440,1,8,0:0:0:0:
256,192,67777,1,0,0:0:0:0:
256,192,67946,1,0,0:0:0:0:
256,192,68114,1,8,0:0:0:0:
256,192,68283,1,0,0:0:0:0:
256,192,68451,1,0,0:0:0:0:
256,192,68789,1,8,0:0:0:0:
256,192,69126,1,0,0:0:0:0:
256,192,69294,1,0,0:0:0:0:
256,192,69378,1,0,0:0:0:0:
256,192,69463,1,8,0:0:0:0:
256,192,69631,1,0,0:0:0:0:
256,192,69800,1,0,0:0:0:0:
256,192,69968,1,8,0:0:0:0:
256,192,70137,1,0,0:0:0:0:
256,192,70305,1,8,0:0:0:0:
256,192,70390,1,0,0:0:0:0:
256,192,70474,1,8,0:0:0:0:
256,192,70642,1,0,0:0:0:0:
256,192,70811,1,8,0:0:0:0:
256,192,70980,1,0,0:0:0:0:
256,192,71148,1,0,0:0:0:0:
256,192,71317,1,0,0:0:0:0:
256,192,71401,1,0,0:0:0:0:
256,192,71485,1,8,0:0:0:0:
256,192,71654,1,0,0:0:0:0:
256,192,71822,1,8,0:0:0:0:
256,192,71991,1,0,0:0:0:0:
256,192,72075,1,8,0:0:0:0:
256,192,72159,1,0,0:0:0:0:
256,192,72328,1,0,0:0:0:0:
256,192,72496,1,8,0:0:0:0:
256,192,72833,1,8,0:0:0:0:
256,192,73171,1,0,0:0:0:0:
256,192,73339,1,0,0:0:0:0:
256,192,73508,1,8,0:0:0:0:
256,192,73676,1,0,0:0:0:0:
256,192,73845,1,8,0:0:0:0:
256,192,74182,1,8,0:0:0:0:
256,192,74350,1,0,0:0:0:0:
256,192,74519,1,0,0:0:0:0:
256,192,74687,1,0,0:0:0:0:
256,192,74772,1,0,0:0:0:0:
256,192,74856,1,8,0:0:0:0:
256,192,75193,1,0,0:0:0:0:
256,192,75362,1,0,0:0:0:0:
256,192,75530,1,8,0:0:0:0:
256,192,75699,1,0,0:0:0:0:
256,192,76036,1,0,0:0:0:0:
256,192,76204,1,8,0:0:0:0:
256,192,76373,1,0,0:0:0:0:
256,192,76457,1,8,0:0:0:0:
256,192,76541,1,0,0:0:0:0:
256,192,76710,1,0,0:0:0:0:
256,192,76878,1,8,0:0:0:0:
256,192,77047,1,0,0:0:0:0:
256,192,77215,1,8,0:0:0:0:
256,192,77300,1,8,0:0:0:0:
256,192,77384,1,0,0:0:0:0:
256,192,77468,1,0,0:0:0:0:
256,192,77553,1,12,0:0:0:0:
256,192,77721,1,0,0:0:0:0:
256,192,77890,1,8,0:0:0:0:
256,192,78227,1,8,0:0:0:0:
256,192,78564,1,0,0:0:0:0:
256,192,78732,1,0,0:0:0:0:
256,192,78817,1,0,0:0:0:0:
256,192,78901,1,8,0:0:0:0:
256,192,79069,1,0,0:0:0:0:
256,192,79238,1,8,0:0:0:0:
256,192,79406,1,0,0:0:0:0:
256,192,79575,1,8,0:0:0:0:
256,192,79912,1,0,0:0:0:0:
256,192,80081,1,8,0:0:0:0:
256,192,80165,1,0,0:0:0:0:
256,192,80249,1,8,0:0:0:0:
256,192,80418,1,0,0:0:0:0:
256,192,80586,1,0,0:0:0:0:
256,192,80755,1,8,0:0:0:0:
256,192,81092,1,0,0:0:0:0:
256,192,81260,1,8,0:0:0:0:
256,192,81345,1,8,0:0:0:0:
256,192,81429,1,0,0:0:0:0:
256,192,81598,1,8,0:0:0:0:
256,192,81766,1,0,0:0:0:0:
256,192,81935,1,0,0:0:0:0:
256,192,82103,1,8,0:0:0:0:
256,192,82187,1,0,0:0:0:0:
256,192,82272,1,8,0:0:0:0:
256,192,82440,1,0,0:0:0:0:
256,192,82609,1,12,0:0:0:0:
256,192,82946,1,12,0:0:0:0:
256,192,83114,1,0,0:0:0:0:
256,192,83283,1,0,0:0:0:0:
256,192,83451,1,12,0:0:0:0:
256,192,83620,1,0,0:0:0:0:
256,192,83789,1,0,0:0:0:0:
256,192,83957,1,12,0:0:0:0:
256,192,84126,1,0,0:0:0:0:
256,192,84294,1,0,0:0:0:0:
256,192,84463,1,12,0:0:0:0:
256,192,84631,1,12,0:0:0:0:
256,192,84800,1,0,0:0:0:0:
256,192,84968,1,12,0:0:0:0:
256,192,85137,1,0,0:0:0:0:
256,192,85305,1,0,0:0:0:0:
256,192,85474,1,8,0:0:0:0:
256,192,85642,1,0,0:0:0:0:
256,192,85727,1,0,0:0:0:0:
256,192,85811,1,8,0:0:0:0:
256,192,85895,1,8,0:0:0:0:
256,192,85980,1,0,0:0:0:0:
256,192,86064,1,8,0:0:0:0:
256,192,86148,1,0,0:0:0:0:
256,192,86232,1,0,0:0:0:0:
256,192,86317,1,8,0:0:0:0:
256,192,86401,1,0,0:0:0:0:
256,192,86485,1,8,0:0:0:0:
256,192,86569,1,8,0:0:0:0:
256,192,86654,1,0,0:0:0:0:
256,192,86738,1,8,0:0:0:0:
256,192,86822,1,0,0:0:0:0:
256,192,86906,1,0,0:0:0:0:
256,192,86991,1,12,0:0:0:0:
256,192,87159,1,0,0:0:0:0:
256,192,87328,1,0,0:0:0:0:
256,192,87496,1,12,0:0:0:0:
256,192,87665,1,0,0:0:0:0:
256,192,87833,1,0,0:0:0:0:
256,192,88002,1,12,0:0:0:0:
256,192,88339,1,4,0:0:0:0:
256,192,88508,1,8,0:0:0:0:
256,192,88676,1,0,0:0:0:0:
256,192,88760,1,8,0:0:0:0:
256,192,88845,1,0,0:0:0:0:
256,192,88929,1,0,0:0:0:0:
256,192,89013,1,8,0:0:0:0:
256,192,89182,1,0,0:0:0:0:
256,192,89350,1,8,0:0:0:0:
256,192,89519,1,0,0:0:0:0:
256,192,89687,1,8,0:0:0:0:
256,192,89772,1,8,0:0:0:0:
256,192,89856,1,0,0:0:0:0:
256,192,89940,1,0,0:0:0:0:
256,192,90024,1,8,0:0:0:0:
256,192,90193,1,0,0:0:0:0:
256,192,90362,1,8,0:0:0:0:
256,192,90446,1,0,0:0:0:0:
256,192,90530,1,8,0:0:0:0:
256,192,90699,1,0,0:0:0:0:
256,192,90783,1,0,0:0:0:0:
256,192,90867,1,8,0:0:0:0:
256,192,90951,1,8,0:0:0:0:
256,192,91036,1,0,0:0:0:0:
256,192,91204,1,0,0:0:0:0:
256,192,91373,1,8,0:0:0:0:
256,192,91457,1,8,0:0:0:0:
256,192,91541,1,0,0:0:0:0:
256,192,91710,1,0,0:0:0:0:
256,192,91794,1,8,0:0:0:0:
256,192,91878,1,0,0:0:0:0:
256,192,92047,1,8,0:0:0:0:
256,192,92215,1,0,0:0:0:0:
256,192,92300,1,0,0:0:0:0:
256,192,92384,1,8,0:0:0:0:
256,192,92553,1,0,0:0:0:0:
256,192,92721,1,8,0:0:0:0:
256,192,92805,1,8,0:0:0:0:
256,192,92890,1,0,0:0:0:0:
256,192,93058,1,8,0:0:0:0:
256,192,93142,1,0,0:0:0:0:
256,192,93227,1,8,0:0:0:0:
256,192,93395,1,0,0:0:0:0:
256,192,93564,1,12,0:0:0:0:
256,192,93901,1,0,0:0:0:0:
256,192,94069,1,8,0:0:0:0:
256,192,94154,1,0,0:0:0:0:
256,192,94238,1,8,0:0:0:0:
256,192,94322,1,8,0:0:0:0:
256,192,94406,1,0,0:0:0:0:
256,192,94575,1,8,0:0:0:0:
256,192,94744,1,0,0:0:0:0:
256,192,94912,1,12,0:0:0:0:
256,192,95249,1,8,0:0:0:0:
256,192,95333,1,0,0:0:0:0:
256,192,95418,1,8,0:0:0:0:
256,192,95586,1,0,0:0:0:0:
256,192,95755,1,8,0:0:0:0:
256,192,95839,1,8,0:0:0:0:
256,192,95923,1,0,0:0:0:0:
256,192,96008,1,0,0:0:0:0:
256,192,96092,1,8,0:0:0:0:
256,192,96260,1,0,0:0:0:0:
256,192,96345,1,0,0:0:0:0:
256,192,96429,1,12,0:0:0:0:
256,192,96598,1,0,0:0:0:0:
256,192,96766,1,8,0:0:0:0:
256,192,96935,1,8,0:0:0:0:
256,192,97103,1,0,0:0:0:0:
256,192,97272,1,8,0:0:0:0:
256,192,97440,1,0,0:0:0:0:
256,192,97609,1,12,0:0:0:0:
256,192,97946,1,0,0:0:0:0:
256,192,98030,1,0,0:0:0:0:
256,192,98114,1,8,0:0:0:0:
256,192,98283,1,0,0:0:0:0:
256,192,98451,1,8,0:0:0:0:
256,192,98536,1,8,0:0:0:0:
256,192,98620,1,0,0:0:0:0:
256,192,98704,1,0,0:0:0:0:
256,192,98789,1,8,0:0:0:0:
256,192,98873,1,8,0:0:0:0:
256,192,98957,1,0,0:0:0:0:
256,192,99041,1,0,0:0:0:0:
256,192,99126,1,12,0:0:0:0:
256,192,99294,1,0,0:0:0:0:
256,192,99463,1,0,0:0:0:0:
256,192,99547,1,8,0:0:0:0:
256,192,99631,1,0,0:0:0:0:
256,192,99715,1,0,0:0:0:0:
256,192,99800,1,8,0:0:0:0:
256,192,99968,1,0,0:0:0:0:
256,192,100137,1,8,0:0:0:0:
256,192,100221,1,8,0:0:0:0:
256,192,100305,1,0,0:0:0:0:
256,192,100474,1,8,0:0:0:0:
256,192,100642,1,0,0:0:0:0:
256,192,100811,1,8,0:0:0:0:
256,192,100895,1,0,0:0:0:0:
256,192,100980,1,0,0:0:0:0:
256,192,101148,1,8,0:0:0:0:
256,192,101232,1,0,0:0:0:0:
256,192,101317,1,8,0:0:0:0:
256,192,101401,1,8,0:0:0:0:
256,192,101485,1,0,0:0:0:0:
256,192,101654,1,8,0:0:0:0:
256,192,101822,1,0,0:0:0:0:
256,192,101906,1,8,0:0:0:0:
256,192,101991,1,0,0:0:0:0:
256,192,102159,1,8,0:0:0:0:
256,192,102328,1,0,0:0:0:0:
256,192,102496,1,8,0:0:0:0:
256,192,102581,1,0,0:0:0:0:
256,192,102665,1,0,0:0:0:0:
256,192,102749,1,0,0:0:0:0:
256,192,102833,1,8,0:0:0:0:
256,192,103002,1,0,0:0:0:0:
256,192,103171,1,8,0:0:0:0:
256,192,103339,1,8,0:0:0:0:
256,192,103508,1,0,0:0:0:0:
256,192,103592,1,0,0:0:0:0:
256,192,103676,1,8,0:0:0:0:
256,192,103760,1,8,0:0:0:0:
256,192,103845,1,0,0:0:0:0:
256,192,104013,1,0,0:0:0:0:
256,192,104182,1,0,0:0:0:0:
256,192,104350,1,12,0:0:0:0:
256,192,104687,1,0,0:0:0:0:
256,192,104856,1,8,0:0:0:0:
256,192,104940,1,0,0:0:0:0:
256,192,105024,1,8,0:0:0:0:
256,192,105193,1,8,0:0:0:0:
256,192,105277,1,0,0:0:0:0:
256,192,105362,1,8,0:0:0:0:
256,192,105446,1,8,0:0:0:0:
256,192,105530,1,0,0:0:0:0:
256,192,105699,1,12,0:0:0:0:
256,192,106036,1,0,0:0:0:0:
256,192,106204,1,0,0:0:0:0:
256,192,106289,1,0,0:0:0:0:
256,192,106373,1,8,0:0:0:0:
256,192,106457,1,8,0:0:0:0:
256,192,106541,1,0,0:0:0:0:
256,192,106710,1,0,0:0:0:0:
256,192,106878,1,8,0:0:0:0:
256,192,107047,1,0,0:0:0:0:
256,192,107131,1,0,0:0:0:0:
256,192,107215,1,12,0:0:0:0:
256,192,107384,1,0,0:0:0:0:
256,192,107553,1,8,0:0:0:0:
256,192,107721,1,8,0:0:0:0:
256,192,107890,1,0,0:0:0:0:
256,192,108058,1,8,0:0:0:0:
256,192,108227,1,0,0:0:0:0:
256,192,108395,1,12,0:0:0:0:
256,192,108732,1,0,0:0:0:0:
256,192,108901,1,8,0:0:0:0:
256,192,109069,1,0,0:0:0:0:
256,192,109154,1,0,0:0:0:0:
256,192,109238,1,8,0:0:0:0:
256,192,109406,1,0,0:0:0:0:
256,192,109575,1,8,0:0:0:0:
256,192,109659,1,0,0:0:0:0:
256,192,109744,1,8,0:0:0:0:
256,192,109912,1,12,0:0:0:0:
256,192,110081,1,0,0:0:0:0:
256,192,110249,1,8,0:0:0:0:
256,192,110418,1,8,0:0:0:0:
256,192,110586,1,0,0:0:0:0:
256,192,110755,1,0,0:0:0:0:
256,192,110923,1,8,0:0:0:0:
256,192,111092,1,0,0:0:0:0:
256,192,111260,1,12,0:0:0:0:
256,192,111429,1,4,0:0:0:0:
256,192,111766,1,0,0:0:0:0:
256,192,111850,1,0,0:0:0:0:
256,192,111935,1,12,0:0:0:0:
256,192,112103,1,4,0:0:0:0:
256,192,112609,1,12,0:0:0:0:
256,192,112946,1,8,0:0:0:0:
256,192,113283,1,8,0:0:0:0:
256,192,113620,1,8,0:0:0:0:
256,192,113957,1,8,0:0:0:0:
256,192,114294,1,8,0:0:0:0:
256,192,114631,1,8,0:0:0:0:
256,192,114968,1,8,0:0:0:0:
256,192,115137,1,0,0:0:0:0:
256,192,115305,5,8,0:0:0:0:
256,192,115642,1,8,0:0:0:0:
256,192,115980,1,8,0:0:0:0:
256,192,116317,1,8,0:0:0:0:
256,192,116654,1,8,0:0:0:0:
256,192,116991,1,8,0:0:0:0:
256,192,117328,1,8,0:0:0:0:
256,192,117496,1,8,0:0:0:0:
256,192,117665,1,0,0:0:0:0:
256,192,117833,1,0,0:0:0:0:
256,192,118002,1,12,0:0:0:0:
256,192,118171,1,0,0:0:0:0:
256,192,118255,1,8,0:0:0:0:
256,192,118339,1,0,0:0:0:0:
256,192,118508,1,8,0:0:0:0:
256,192,118592,1,0,0:0:0:0:
256,192,118676,1,8,0:0:0:0:
256,192,118845,1,8,0:0:0:0:
256,192,118929,1,8,0:0:0:0:
256,192,119013,1,0,0:0:0:0:
256,192,119182,1,0,0:0:0:0:
256,192,119266,1,0,0:0:0:0:
256,192,119350,1,8,0:0:0:0:
256,192,119519,1,0,0:0:0:0:
256,192,119603,1,8,0:0:0:0:
256,192,119687,1,0,0:0:0:0:
256,192,119856,1,0,0:0:0:0:
256,192,119940,1,0,0:0:0:0:
256,192,120024,1,8,0:0:0:0:
256,192,120193,1,8,0:0:0:0:
256,192,120277,1,0,0:0:0:0:
256,192,120362,1,8,0:0:0:0:
256,192,120530,1,0,0:0:0:0:
256,192,120614,1,0,0:0:0:0:
256,192,120699,1,12,0:0:0:0:
256,192,120867,1,0,0:0:0:0:
256,192,120951,1,8,0:0:0:0:
256,192,121036,1,0,0:0:0:0:
256,192,121204,1,8,0:0:0:0:
256,192,121373,1,0,0:0:0:0:
256,192,121541,1,0,0:0:0:0:
256,192,121710,1,12,0:0:0:0:
256,192,121878,1,0,0:0:0:0:
256,192,121963,1,0,0:0:0:0:
256,192,122047,1,8,0:0:0:0:
256,192,122215,1,0,0:0:0:0:
256,192,122384,1,8,0:0:0:0:
256,192,122553,1,0,0:0:0:0:
256,192,122637,1,0,0:0:0:0:
256,192,122721,1,8,0:0:0:0:
256,192,122890,1,0,0:0:0:0:
256,192,123058,1,0,0:0:0:0:
256,192,123142,1,0,0:0:0:0:
256,192,123227,1,0,0:0:0:0:
256,192,123311,1,0,0:0:0:0:
256,192,123395,1,12,0:0:0:0:
256,192,123732,1,0,0:0:0:0:
256,192,123901,1,0,0:0:0:0:
256,192,124069,1,8,0:0:0:0:
256,192,124406,1,8,0:0:0:0:
256,192,124575,1,0,0:0:0:0:
256,192,124659,1,0,0:0:0:0:
256,192,124744,1,8,0:0:0:0:
256,192,125081,1,0,0:0:0:0:
256,192,125249,1,0,0:0:0:0:
256,192,125418,1,8,0:0:0:0:
256,192,125586,1,0,0:0:0:0:
256,192,125755,1,8,0:0:0:0:
256,192,125839,1,8,0:0:0:0:
256,192,125923,1,0,0:0:0:0:
256,192,126008,1,0,0:0:0:0:
256,192,126092,1,8,0:0:0:0:
256,192,126429,1,8,0:0:0:0:
256,192,126766,1,8,0:0:0:0:
256,192,126935,1,0,0:0:0:0:
256,192,127019,1,8,0:0:0:0:
256,192,127103,1,0,0:0:0:0:
256,192,127272,1,0,0:0:0:0:
256,192,127440,1,8,0:0:0:0:
256,192,127777,1,0,0:0:0:0:
256,192,127946,1,0,0:0:0:0:
256,192,128114,1,8,0:0:0:0:
256,192,128199,1,0,0:0:0:0:
256,192,128283,1,8,0:0:0:0:
256,192,128367,1,8,0:0:0:0:
256,192,128451,1,0,0:0:0:0:
256,192,128620,1,8,0:0:0:0:
256,192,128789,1,12,0:0:0:0:
256,192,129126,1,8,0:0:0:0:
256,192,129294,1,0,0:0:0:0:
256,192,129463,1,8,0:0:0:0:
256,192,129800,1,0,0:0:0:0:
256,192,129968,1,0,0:0:0:0:
256,192,130053,1,0,0:0:0:0:
256,192,130137,1,8,0:0:0:0:
256,192,130474,1,0,0:0:0:0:
256,192,130642,1,0,0:0:0:0:
256,192,130811,1,8,0:0:0:0:
256,192,130980,1,0,0:0:0:0:
256,192,131148,1,0,0:0:0:0:
256,192,131232,1,8,0:0:0:0:
256,192,131317,1,0,0:0:0:0:
256,192,131401,1,0,0:0:0:0:
256,192,131485,1,8,0:0:0:0:
256,192,131822,1,8,0:0:0:0:
256,192,132159,1,8,0:0:0:0:
256,192,132328,1,0,0:0:0:0:
256,192,132412,1,8,0:0:0:0:
256,192,132496,1,0,0:0:0:0:
256,192,132665,1,0,0:0:0:0:
256,192,132833,1,8,0:0:0:0:
256,192,133171,1,0,0:0:0:0:
256,192,133339,1,0,0:0:0:0:
256,192,133508,1,8,0:0:0:0:
256,192,133592,1,0,0:0:0:0:
256,192,133676,1,8,0:0:0:0:
256,192,133845,1,8,0:0:0:0:
256,192,133929,1,8,0:0:0:0:
256,192,134013,1,0,0:0:0:0:
256,192,134098,1,0,0:0:0:0:
256,192,134182,1,12,0:0:0:0:
256,192,134519,1,0,0:0:0:0:
256,192,134687,1,8,0:0:0:0:
256,192,134856,1,8,0:0:0:0:
256,192,135193,1,0,0:0:0:0:
256,192,135362,1,8,0:0:0:0:
256,192,135446,1,0,0:0:0:0:
256,192,135530,1,8,0:0:0:0:
256,192,135699,1,0,0:0:0:0:
256,192,135867,1,8,0:0:0:0:
256,192,136036,1,0,0:0:0:0:
256,192,136204,1,0,0:0:0:0:
256,192,136289,1,8,0:0:0:0:
256,192,136373,1,0,0:0:0:0:
256,192,136541,1,8,0:0:0:0:
256,192,136710,1,0,0:0:0:0:
256,192,136878,1,8,0:0:0:0:
256,192,137215,1,8,0:0:0:0:
256,192,137384,1,0,0:0:0:0:
256,192,137468,1,0,0:0:0:0:
256,192,137553,1,8,0:0:0:0:
256,192,137721,1,8,0:0:0:0:
256,192,137890,1,0,0:0:0:0:
256,192,138058,1,8,0:0:0:0:
256,192,138227,1,8,0:0:0:0:
256,192,138564,1,0,0:0:0:0:
256,192,138732,1,0,0:0:0:0:
256,192,138817,1,0,0:0:0:0:
256,192,138901,1,8,0:0:0:0:
256,192,139069,1,0,0:0:0:0:
256,192,139238,1,0,0:0:0:0:
256,192,139322,1,8,0:0:0:0:
256,192,139406,1,0,0:0:0:0:
256,192,139491,1,0,0:0:0:0:
256,192,139575,1,12,0:0:0:0:
256,192,139744,1,0,0:0:0:0:
256,192,139912,1,8,0:0:0:0:
256,192,140081,1,0,0:0:0:0:
256,192,140165,1,0,0:0:0:0:
256,192,140249,1,8,0:0:0:0:
256,192,140418,1,0,0:0:0:0:
256,192,140586,1,8,0:0:0:0:
256,192,140755,1,8,0:0:0:0:
256,192,140839,1,0,0:0:0:0:
256,192,140923,1,8,0:0:0:0:
256,192,141092,1,0,0:0:0:0:
256,192,141260,1,8,0:0:0:0:
256,192,141429,1,8,0:0:0:0:
256,192,141598,1,8,0:0:0:0:
256,192,141766,1,0,0:0:0:0:
256,192,141850,1,8,0:0:0:0:
256,192,141935,1,0,0:0:0:0:
256,192,142103,1,0,0:0:0:0:
256,192,142187,1,0,0:0:0:0:
256,192,142272,1,8,0:0:0:0:
256,192,142440,1,0,0:0:0:0:
256,192,142609,1,8,0:0:0:0:
256,192,142946,1,8,0:0:0:0:
256,192,143114,1,0,0:0:0:0:
256,192,143283,1,0,0:0:0:0:
256,192,143451,1,0,0:0:0:0:
256,192,143620,1,8,0:0:0:0:
256,192,143957,1,0,0:0:0:0:
256,192,144126,1,0,0:0:0:0:
256,192,144294,1,8,0:0:0:0:
256,192,144463,1,0,0:0:0:0:
256,192,144631,1,0,0:0:0:0:
256,192,144715,1,8,0:0:0:0:
256,192,144800,1,0,0:0:0:0:
256,192,144968,1,12,0:0:0:0:
256,192,145137,1,0,0:0:0:0:
256,192,145305,1,8,0:0:0:0:
256,192,145642,1,8,0:0:0:0:
256,192,145980,1,0,0:0:0:0:
256,192,146148,1,0,0:0:0:0:
256,192,146317,1,8,0:0:0:0:
256,192,146485,1,0,0:0:0:0:
256,192,146654,1,0,0:0:0:0:
256,192,146991,1,8,0:0:0:0:
256,192,147328,1,0,0:0:0:0:
256,192,147496,1,0,0:0:0:0:
256,192,147581,1,0,0:0:0:0:
256,192,147665,1,8,0:0:0:0:
256,192,147833,1,0,0:0:0:0:
256,192,148002,1,0,0:0:0:0:
256,192,148171,1,8,0:0:0:0:
256,192,148255,1,0,0:0:0:0:
256,192,148339,1,8,0:0:0:0:
256,192,148508,1,8,0:0:0:0:
256,192,148676,1,0,0:0:0:0:
256,192,148845,1,8,0:0:0:0:
256,192,148929,1,8,0:0:0:0:
256,192,149013,1,0,0:0:0:0:
256,192,149182,1,0,0:0:0:0:
256,192,149350,1,0,0:0:0:0:
256,192,149519,1,8,0:0:0:0:
256,192,149603,1,0,0:0:0:0:
256,192,149687,1,8,0:0:0:0:
256,192,149856,1,0,0:0:0:0:
256,192,150024,1,8,0:0:0:0:
256,192,150193,1,0,0:0:0:0:
256,192,150277,1,8,0:0:0:0:
256,192,150362,1,0,0:0:0:0:
256,192,150530,1,0,0:0:0:0:
256,192,150699,1,8,0:0:0:0:
256,192,151036,1,8,0:0:0:0:
256,192,151373,1,0,0:0:0:0:
256,192,151541,1,0,0:0:0:0:
256,192,151710,1,8,0:0:0:0:
256,192,151878,1,0,0:0:0:0:
256,192,152047,1,8,0:0:0:0:
256,192,152384,1,8,0:0:0:0:
256,192,152553,1,0,0:0:0:0:
256,192,152721,1,0,0:0:0:0:
256,192,152890,1,0,0:0:0:0:
256,192,152974,1,0,0:0:0:0:
256,192,153058,1,8,0:0:0:0:
256,192,153395,1,0,0:0:0:0:
256,192,153564,1,0,0:0:0:0:
256,192,153732,1,8,0:0:0:0:
256,192,153901,1,0,0:0:0:0:
256,192,154238,1,0,0:0:0:0:
256,192,154406,1,8,0:0:0:0:
256,192,154575,1,0,0:0:0:0:
256,192,154659,1,8,0:0:0:0:
256,192,154744,1,0,0:0:0:0:
256,192,154912,1,0,0:0:0:0:
256,192,155081,1,8,0:0:0:0:
256,192,155249,1,0,0:0:0:0:
256,192,155418,1,8,0:0:0:0:
256,192,155502,1,8,0:0:0:0:
256,192,155586,1,0,0:0:0:0:
256,192,155671,1,0,0:0:0:0:
256,192,155755,1,12,0:0:0:0:
256,192,155923,1,0,0:0:0:0:
256,192,156092,1,8,0:0:0:0:
256,192,156429,1,8,0:0:0:0:
256,192,156598,1,0,0:0:0:0:
256,192,156766,1,0,0:0:0:0:
256,192,156935,1,0,0:0:0:0:
256,192,157019,1,0,0:0:0:0:
256,192,157103,1,8,0:0:0:0:
256,192,157272,1,0,0:0:0:0:
256,192,157440,1,8,0:0:0:0:
256,192,157609,1,0,0:0:0:0:
256,192,157777,1,8,0:0:0:0:
256,192,157946,1,0,0:0:0:0:
256,192,158114,1,8,0:0:0:0:
256,192,158199,1,8,0:0:0:0:
256,192,158283,1,0,0:0:0:0:
256,192,158367,1,0,0:0:0:0:
256,192,158451,1,8,0:0:0:0:
256,192,158620,1,0,0:0:0:0:
256,192,158789,1,0,0:0:0:0:
256,192,158957,1,8,0:0:0:0:
256,192,159294,1,0,0:0:0:0:
256,192,159463,1,8,0:0:0:0:
256,192,159547,1,8,0:0:0:0:
256,192,159631,1,0,0:0:0:0:
256,192,159800,1,8,0:0:0:0:
256,192,159968,1,0,0:0:0:0:
256,192,160137,1,0,0:0:0:0:
256,192,160305,1,8,0:0:0:0:
256,192,160390,1,0,0:0:0:0:
256,192,160474,1,8,0:0:0:0:
256,192,160642,1,0,0:0:0:0:
256,192,160811,1,12,0:0:0:0:
256,192,161148,1,12,0:0:0:0:
256,192,161317,1,0,0:0:0:0:
256,192,161485,1,0,0:0:0:0:
256,192,161654,1,12,0:0:0:0:
256,192,161822,1,0,0:0:0:0:
256,192,161991,1,0,0:0:0:0:
256,192,162159,1,14,0:0:0:0:
256,192,162328,1,0,0:0:0:0:
256,192,162496,1,0,0:0:0:0:
256,192,162665,1,12,0:0:0:0:
256,192,162833,1,12,0:0:0:0:
256,192,163002,1,0,0:0:0:0:
256,192,163171,1,12,0:0:0:0:
256,192,163339,1,0,0:0:0:0:
256,192,163508,1,8,0:0:0:0:
256,192,163676,1,0,0:0:0:0:
256,192,163845,1,8,0:0:0:0:
256,192,163929,1,8,0:0:0:0:
256,192,164013,1,0,0:0:0:0:
256,192,164098,1,0,0:0:0:0:
256,192,164182,1,8,0:0:0:0:
256,192,164266,1,0,0:0:0:0:
256,192,164350,1,8,0:0:0:0:
256,192,164435,1,8,0:0:0:0:
256,192,164519,1,0,0:0:0:0:
256,192,164603,1,8,0:0:0:0:
256,192,164687,1,0,0:0:0:0:
256,192,164772,1,0,0:0:0:0:
256,192,164856,1,8,0:0:0:0:
256,192,164940,1,8,0:0:0:0:
256,192,165024,1,0,0:0:0:0:
256,192,165109,1,0,0:0:0:0:
256,192,165193,1,12,0:0:0:0:
256,192,165362,1,0,0:0:0:0:
256,192,165530,1,0,0:0:0:0:
256,192,165699,1,12,0:0:0:0:
256,192,165867,12,0,166373,0:0:0:0:
256,192,166541,5,4,0:0:0:0:
256,192,166710,1,8,0:0:0:0:
256,192,166878,1,0,0:0:0:0:
256,192,166963,1,0,0:0:0:0:
256,192,167047,1,8,0:0:0:0:
256,192,167131,1,8,0:0:0:0:
256,192,167215,1,0,0:0:0:0:
256,192,167384,1,0,0:0:0:0:
256,192,167553,1,8,0:0:0:0:
256,192,167721,1,0,0:0:0:0:
256,192,167890,1,8,0:0:0:0:
256,192,167974,1,8,0:0:0:0:
256,192,168058,1,0,0:0:0:0:
256,192,168142,1,0,0:0:0:0:
256,192,168227,1,8,0:0:0:0:
256,192,168395,1,0,0:0:0:0:
256,192,168564,1,8,0:0:0:0:
256,192,168648,1,0,0:0:0:0:
256,192,168732,1,8,0:0:0:0:
256,192,168901,1,0,0:0:0:0:
256,192,168985,1,8,0:0:0:0:
256,192,169069,1,0,0:0:0:0:
256,192,169154,1,0,0:0:0:0:
256,192,169238,1,8,0:0:0:0:
256,192,169406,1,0,0:0:0:0:
256,192,169575,1,8,0:0:0:0:
256,192,169659,1,0,0:0:0:0:
256,192,169744,1,8,0:0:0:0:
256,192,169912,1,8,0:0:0:0:
256,192,169996,1,8,0:0:0:0:
256,192,170081,1,0,0:0:0:0:
256,192,170249,1,8,0:0:0:0:
256,192,170418,1,0,0:0:0:0:
256,192,170586,1,8,0:0:0:0:
256,192,170671,1,0,0:0:0:0:
256,192,170755,1,8,0:0:0:0:
256,192,170839,1,8,0:0:0:0:
256,192,170923,1,0,0:0:0:0:
256,192,171092,1,0,0:0:0:0:
256,192,171260,1,8,0:0:0:0:
256,192,171345,1,0,0:0:0:0:
256,192,171429,1,8,0:0:0:0:
256,192,171598,1,0,0:0:0:0:
256,192,171766,1,12,0:0:0:0:
256,192,172103,1,0,0:0:0:0:
256,192,172272,1,8,0:0:0:0:
256,192,172356,1,8,0:0:0:0:
256,192,172440,1,0,0:0:0:0:
256,192,172524,1,0,0:0:0:0:
256,192,172609,1,8,0:0:0:0:
256,192,172777,1,0,0:0:0:0:
256,192,172946,1,0,0:0:0:0:
256,192,173114,1,12,0:0:0:0:
256,192,173451,1,8,0:0:0:0:
256,192,173536,1,0,0:0:0:0:
256,192,173620,1,8,0:0:0:0:
256,192,173789,1,0,0:0:0:0:
256,192,173957,1,8,0:0:0:0:
256,192,174041,1,0,0:0:0:0:
256,192,174126,1,0,0:0:0:0:
256,192,174210,1,0,0:0:0:0:
256,192,174294,1,8,0:0:0:0:
256,192,174463,1,0,0:0:0:0:
256,192,174547,1,0,0:0:0:0:
256,192,174631,1,12,0:0:0:0:
256,192,174800,1,0,0:0:0:0:
256,192,174968,1,8,0:0:0:0:
256,192,175137,1,8,0:0:0:0:
256,192,175305,1,0,0:0:0:0:
256,192,175474,1,8,0:0:0:0:
256,192,175642,1,0,0:0:0:0:
256,192,175811,1,12,0:0:0:0:
256,192,176148,1,0,0:0:0:0:
256,192,176232,1,0,0:0:0:0:
256,192,176317,1,8,0:0:0:0:
256,192,176485,1,0,0:0:0:0:
256,192,176654,1,8,0:0:0:0:
256,192,176738,1,8,0:0:0:0:
256,192,176822,1,0,0:0:0:0:
256,192,176906,1,0,0:0:0:0:
256,192,176991,1,8,0:0:0:0:
256,192,177075,1,8,0:0:0:0:
256,192,177159,1,0,0:0:0:0:
256,192,177244,1,0,0:0:0:0:
256,192,177328,1,12,0:0:0:0:
256,192,177496,1,0,0:0:0:0:
256,192,177665,1,0,0:0:0:0:
256,192,177749,1,8,0:0:0:0:
256,192,177833,1,0,0:0:0:0:
256,192,177918,1,0,0:0:0:0:
256,192,178002,1,8,0:0:0:0:
256,192,178171,1,0,0:0:0:0:
256,192,178339,1,8,0:0:0:0:
256,192,178423,1,8,0:0:0:0:
256,192,178508,1,0,0:0:0:0:
256,192,178676,1,8,0:0:0:0:
256,192,178845,1,0,0:0:0:0:
256,192,179013,1,8,0:0:0:0:
256,192,179098,1,0,0:0:0:0:
256,192,179182,1,0,0:0:0:0:
256,192,179350,1,8,0:0:0:0:
256,192,179435,1,0,0:0:0:0:
256,192,179519,1,8,0:0:0:0:
256,192,179603,1,8,0:0:0:0:
256,192,179687,1,0,0:0:0:0:
256,192,179856,1,8,0:0:0:0:
256,192,180024,1,0,0:0:0:0:
256,192,180109,1,8,0:0:0:0:
256,192,180193,1,0,0:0:0:0:
256,192,180362,1,8,0:0:0:0:
256,192,180530,1,0,0:0:0:0:
256,192,180699,1,8,0:0:0:0:
256,192,180783,1,8,0:0:0:0:
256,192,180867,1,0,0:0:0:0:
256,192,180951,1,0,0:0:0:0:
256,192,181036,1,8,0:0:0:0:
256,192,181204,1,0,0:0:0:0:
256,192,181373,1,8,0:0:0:0:
256,192,181541,1,8,0:0:0:0:
256,192,181710,1,0,0:0:0:0:
256,192,181794,1,8,0:0:0:0:
256,192,181878,1,0,0:0:0:0:
256,192,181963,1,0,0:0:0:0:
256,192,182047,1,8,0:0:0:0:
256,192,182215,1,0,0:0:0:0:
256,192,182384,1,0,0:0:0:0:
256,192,182553,1,12,0:0:0:0:
256,192,182721,1,0,0:0:0:0:
256,192,182890,1,0,0:0:0:0:
256,192,183058,1,8,0:0:0:0:
256,192,183142,1,0,0:0:0:0:
256,192,183227,1,8,0:0:0:0:
256,192,183395,1,8,0:0:0:0:
256,192,183480,1,0,0:0:0:0:
256,192,183564,1,8,0:0:0:0:
256,192,183648,1,8,0:0:0:0:
256,192,183732,1,0,0:0:0:0:
256,192,183901,1,12,0:0:0:0:
256,192,184238,1,0,0:0:0:0:
256,192,184406,1,0,0:0:0:0:
256,192,184491,1,8,0:0:0:0:
256,192,184575,1,0,0:0:0:0:
256,192,184659,1,0,0:0:0:0:
256,192,184744,1,8,0:0:0:0:
256,192,184912,1,0,0:0:0:0:
256,192,185081,1,8,0:0:0:0:
256,192,185249,1,0,0:0:0:0:
256,192,185333,1,0,0:0:0:0:
256,192,185418,1,12,0:0:0:0:
256,192,185586,1,0,0:0:0:0:
256,192,185755,1,8,0:0:0:0:
256,192,185923,1,8,0:0:0:0:
256,192,186092,1,0,0:0:0:0:
256,192,186260,1,8,0:0:0:0:
256,192,186429,1,0,0:0:0:0:
256,192,186598,1,12,0:0:0:0:
256,192,186935,1,0,0:0:0:0:
256,192,187103,1,8,0:0:0:0:
256,192,187272,1,0,0:0:0:0:
256,192,187356,1,0,0:0:0:0:
256,192,187440,1,8,0:0:0:0:
256,192,187609,1,0,0:0:0:0:
256,192,187777,1,8,0:0:0:0:
256,192,187862,1,0,0:0:0:0:
256,192,187946,1,8,0:0:0:0:
256,192,188114,1,12,0:0:0:0:
256,192,188283,1,0,0:0:0:0:
256,192,188451,1,8,0:0:0:0:
256,192,188620,1,8,0:0:0:0:
256,192,188789,1,0,0:0:0:0:
256,192,188957,1,0,0:0:0:0:
256,192,189126,1,8,0:0:0:0:
256,192,189294,1,0,0:0:0:0:
256,192,189463,1,12,0:0:0:0:
256,192,189631,1,4,0:0:0:0:
256,192,189968,1,0,0:0:0:0:
256,192,190053,1,0,0:0:0:0:
256,192,190137,1,12,0:0:0:0:
256,192,190305,1,4,0:0:0:0:
256,192,190811,12,0,192496,0:0:0:0:
256,192,192665,5,0,0:0:0:0:
256,192,192749,1,0,0:0:0:0:
256,192,192833,1,8,0:0:0:0:
256,192,193058,1,0,0:0:0:0:
256,192,193283,1,0,0:0:0:0:
256,192,193508,1,12,0:0:0:0:
256,192,193845,1,0,0:0:0:0:
256,192,194182,1,8,0:0:0:0:
256,192,194519,1,0,0:0:0:0:
256,192,194687,1,8,0:0:0:0:
256,192,194856,1,8,0:0:0:0:
256,192,195024,1,0,0:0:0:0:
256,192,195193,1,8,0:0:0:0:
256,192,195362,1,0,0:0:0:0:
256,192,195446,1,0,0:0:0:0:
256,192,195530,1,8,0:0:0:0:
256,192,195699,1,8,0:0:0:0:
256,192,195867,1,0,0:0:0:0:
256,192,196036,1,0,0:0:0:0:
256,192,196204,1,12,0:0:0:0:
256,192,196541,1,0,0:0:0:0:
256,192,196878,1,8,0:0:0:0:
256,192,197215,1,0,0:0:0:0:
256,192,197384,1,8,0:0:0:0:
256,192,197553,1,8,0:0:0:0:
256,192,197721,1,0,0:0:0:0:
256,192,198058,1,0,0:0:0:0:
256,192,198227,1,8,0:0:0:0:
256,192,198395,1,8,0:0:0:0:
256,192,198564,1,0,0:0:0:0:
256,192,198732,1,0,0:0:0:0:
256,192,198901,1,12,0:0:0:0:
256,192,199238,1,0,0:0:0:0:
256,192,199406,1,0,0:0:0:0:
256,192,199575,1,8,0:0:0:0:
256,192,199912,1,0,0:0:0:0:
256,192,200081,1,8,0:0:0:0:
256,192,200249,1,0,0:0:0:0:
256,192,200418,1,0,0:0:0:0:
256,192,200586,1,8,0:0:0:0:
256,192,200755,1,0,0:0:0:0:
256,192,200923,1,8,0:0:0:0:
256,192,201092,1,8,0:0:0:0:
256,192,201260,1,0,0:0:0:0:
256,192,201429,1,0,0:0:0:0:
256,192,201598,1,12,0:0:0:0:
256,192,201935,1,0,0:0:0:0:
256,192,202103,1,0,0:0:0:0:
256,192,202272,1,8,0:0:0:0:
256,192,202440,1,8,0:0:0:0:
256,192,202609,1,0,0:0:0:0:
256,192,202777,1,8,0:0:0:0:
256,192,202946,1,0,0:0:0:0:
256,192,203114,1,12,0:0:0:0:
256,192,203283,1,12,0:0:0:0:
256,192,203451,1,0,0:0:0:0:
256,192,203620,1,8,0:0:0:0:
256,192,203732,1,0,0:0:0:0:
256,192,203845,1,0,0:0:0:0:
256,192,203957,1,8,0:0:0:0:
256,192,204069,1,0,0:0:0:0:
256,192,204182,1,0,0:0:0:0:
256,192,204294,1,12,0:0:0:0:
256,192,204631,1,0,0:0:0:0:
256,192,204800,1,0,0:0:0:0:
256,192,204968,1,8,0:0:0:0:
256,192,205305,1,8,0:0:0:0:
256,192,205474,1,8,0:0:0:0:
256,192,205642,1,0,0:0:0:0:
256,192,205811,1,0,0:0:0:0:
256,192,206148,1,0,0:0:0:0:
256,192,206232,1,0,0:0:0:0:
256,192,206317,1,8,0:0:0:0:
256,192,206485,1,8,0:0:0:0:
256,192,206654,1,0,0:0:0:0:
256,192,206822,1,0,0:0:0:0:
256,192,206991,1,12,0:0:0:0:
256,192,207328,1,0,0:0:0:0:
256,192,207496,1,0,0:0:0:0:
256,192,207665,1,8,0:0:0:0:
256,192,208002,1,0,0:0:0:0:
256,192,208171,1,8,0:0:0:0:
256,192,208339,1,8,0:0:0:0:
256,192,208508,1,0,0:0:0:0:
256,192,208845,1,0,0:0:0:0:
256,192,209013,1,8,0:0:0:0:
256,192,209182,1,0,0:0:0:0:
256,192,209350,1,0,0:0:0:0:
256,192,209519,1,0,0:0:0:0:
256,192,209687,1,12,0:0:0:0:
256,192,210024,1,0,0:0:0:0:
256,192,210193,1,0,0:0:0:0:
256,192,210362,1,8,0:0:0:0:
256,192,210699,1,8,0:0:0:0:
256,192,210867,1,8,0:0:0:0:
256,192,211036,1,0,0:0:0:0:
256,192,211204,1,0,0:0:0:0:
256,192,211541,1,0,0:0:0:0:
256,192,211710,1,0,0:0:0:0:
256,192,211878,1,8,0:0:0:0:
256,192,212047,1,8,0:0:0:0:
256,192,212215,1,0,0:0:0:0:
256,192,212384,1,12,0:0:0:0:
256,192,212721,1,0,0:0:0:0:
256,192,212890,1,12,0:0:0:0:
256,192,213227,1,0,0:0:0:0:
256,192,213395,1,12,0:0:0:0:
256,192,213732,1,8,0:0:0:0:
256,192,213845,1,0,0:0:0:0:
256,192,213957,1,0,0:0:0:0:
256,192,214069,1,8,0:0:0:0:
256,192,214182,1,8,0:0:0:0:
256,192,214294,1,0,0:0:0:0:
256,192,214406,1,8,0:0:0:0:
256,192,214519,1,0,0:0:0:0:
256,192,214631,1,0,0:0:0:0:
256,192,214744,1,8,0:0:0:0:
256,192,214856,1,0,0:0:0:0:
256,192,214968,1,0,0:0:0:0:
256,192,215081,1,12,0:0:0:0:
256,192,215418,1,0,0:0:0:0:
256,192,215586,1,0,0:0:0:0:
256,192,215755,1,8,0:0:0:0:
256,192,216092,1,8,0:0:0:0:
256,192,216260,1,8,0:0:0:0:
256,192,216429,1,0,0:0:0:0:
256,192,216598,1,0,0:0:0:0:
256,192,216935,1,0,0:0:0:0:
256,192,217019,1,0,0:0:0:0:
256,192,217103,1,8,0:0:0:0:
256,192,217272,1,8,0:0:0:0:
256,192,217440,1,0,0:0:0:0:
256,192,217609,1,0,0:0:0:0:
256,192,217777,1,12,0:0:0:0:
256,192,218114,1,0,0:0:0:0:
256,192,218283,1,0,0:0:0:0:
256,192,218451,1,8,0:0:0:0:
256,192,218789,1,8,0:0:0:0:
256,192,218957,1,8,0:0:0:0:
256,192,219126,1,0,0:0:0:0:
256,192,219294,1,0,0:0:0:0:
256,192,219631,1,0,0:0:0:0:
256,192,219715,1,0,0:0:0:0:
256,192,219800,1,8,0:0:0:0:
256,192,219968,1,8,0:0:0:0:
256,192,220137,1,0,0:0:0:0:
256,192,220305,1,0,0:0:0:0:
256,192,220474,1,12,0:0:0:0:
256,192,220811,1,0,0:0:0:0:
256,192,220980,1,0,0:0:0:0:
256,192,221148,1,8,0:0:0:0:
256,192,221485,1,0,0:0:0:0:
256,192,221654,1,8,0:0:0:0:
256,192,221822,1,8,0:0:0:0:
256,192,221991,1,0,0:0:0:0:
256,192,222328,1,0,0:0:0:0:
256,192,222496,1,8,0:0:0:0:
256,192,222665,1,8,0:0:0:0:
256,192,222833,1,0,0:0:0:0:
256,192,223002,1,0,0:0:0:0:
256,192,223171,1,12,0:0:0:0:
256,192,223508,1,0,0:0:0:0:
256,192,223676,1,12,0:0:0:0:
256,192,224013,1,0,0:0:0:0:
256,192,224182,1,12,0:0:0:0:
256,192,224519,1,0,0:0:0:0:
256,192,224687,1,12,0:0:0:0:
256,192,224856,1,12,0:0:0:0:
256,192,225024,1,0,0:0:0:0:
256,192,225193,1,8,0:0:0:0:
256,192,225305,1,0,0:0:0:0:
256,192,225418,1,0,0:0:0:0:
256,192,225530,1,8,0:0:0:0:
256,192,225642,1,0,0:0:0:0:
256,192,225755,1,0,0:0:0:0:
256,192,225867,1,12,0:0:0:0:
256,192,226204,1,0,0:0:0:0:
256,192,226373,1,0,0:0:0:0:
256,192,226541,1,8,0:0:0:0:
256,192,226878,1,8,0:0:0:0:
256,192,227047,1,8,0:0:0:0:
256,192,227215,1,0,0:0:0:0:
256,192,227384,1,0,0:0:0:0:
256,192,227721,1,0,0:0:0:0:
256,192,227805,1,0,0:0:0:0:
256,192,227890,1,8,0:0:0:0:
256,192,228058,1,0,0:0:0:0:
256,192,228227,1,0,0:0:0:0:
256,192,228395,1,0,0:0:0:0:
256,192,228564,1,12,0:0:0:0:
256,192,228901,1,0,0:0:0:0:
256,192,229069,1,0,0:0:0:0:
256,192,229238,1,8,0:0:0:0:
256,192,229575,1,8,0:0:0:0:
256,192,229744,1,0,0:0:0:0:
256,192,229912,1,0,0:0:0:0:
256,192,230081,1,8,0:0:0:0:
256,192,230418,1,0,0:0:0:0:
256,192,230502,1,0,0:0:0:0:
256,192,230586,1,8,0:0:0:0:
256,192,230755,1,8,0:0:0:0:
256,192,230923,1,0,0:0:0:0:
256,192,231092,1,0,0:0:0:0:
256,192,231260,1,12,0:0:0:0:
256,192,231598,1,0,0:0:0:0:
256,192,231766,1,0,0:0:0:0:
256,192,231935,1,8,0:0:0:0:
256,192,232272,1,0,0:0:0:0:
256,192,232440,1,8,0:0:0:0:
256,192,232609,1,8,0:0:0:0:
256,192,232777,1,0,0:0:0:0:
256,192,233114,1,0,0:0:0:0:
256,192,233283,1,8,0:0:0:0:
256,192,233451,1,8,0:0:0:0:
256,192,233620,1,0,0:0:0:0:
256,192,233789,1,0,0:0:0:0:
256,192,233957,1,12,0:0:0:0:
256,192,234294,1,0,0:0:0:0:
256,192,234463,1,12,0:0:0:0:
256,192,234800,1,0,0:0:0:0:
256,192,234968,1,12,0:0:0:0:
256,192,235305,1,8,0:0:0:0:
256,192,235418,1,0,0:0:0:0:
256,192,235530,1,0,0:0:0:0:
256,192,235642,1,8,0:0:0:0:
256,192,235755,1,8,0:0:0:0:
256,192,235867,1,0,0:0:0:0:
256,192,235980,1,8,0:0:0:0:
256,192,236092,1,0,0:0:0:0:
256,192,236204,1,0,0:0:0:0:
256,192,236317,1,8,0:0:0:0:
256,192,236429,1,0,0:0:0:0:
256,192,236541,1,0,0:0:0:0:
256,192,236654,1,12,0:0:0:0:
256,192,236991,1,0,0:0:0:0:
256,192,237159,1,0,0:0:0:0:
256,192,237328,1,8,0:0:0:0:
256,192,237665,1,8,0:0:0:0:
256,192,237833,1,0,0:0:0:0:
256,192,238002,1,0,0:0:0:0:
256,192,238171,1,8,0:0:0:0:
256,192,238508,1,0,0:0:0:0:
256,192,238592,1,0,0:0:0:0:
256,192,238676,1,8,0:0:0:0:
256,192,238845,1,8,0:0:0:0:
256,192,239013,1,0,0:0:0:0:
256,192,239182,1,0,0:0:0:0:
256,192,239350,1,12,0:0:0:0:
256,192,239687,1,0,0:0:0:0:
256,192,239856,1,0,0:0:0:0:
256,192,240024,1,8,0:0:0:0:
256,192,240362,1,8,0:0:0:0:
256,192,240530,1,8,0:0:0:0:
256,192,240699,1,0,0:0:0:0:
256,192,240867,1,0,0:0:0:0:
256,192,241204,1,0,0:0:0:0:
256,192,241289,1,0,0:0:0:0:
256,192,241373,1,8,0:0:0:0:
256,192,241541,1,8,0:0:0:0:
256,192,241710,1,0,0:0:0:0:
256,192,241878,1,0,0:0:0:0:
256,192,242047,1,12,0:0:0:0:
256,192,242384,1,0,0:0:0:0:
256,192,242553,1,0,0:0:0:0:
256,192,242721,1,8,0:0:0:0:
256,192,243058,1,0,0:0:0:0:
256,192,243227,1,8,0:0:0:0:
256,192,243395,1,8,0:0:0:0:
256,192,243564,1,0,0:0:0:0:
256,192,243901,1,0,0:0:0:0:
256,192,244069,1,8,0:0:0:0:
256,192,244238,1,8,0:0:0:0:
256,192,244406,1,0,0:0:0:0:
256,192,244575,1,0,0:0:0:0:
256,192,244744,1,12,0:0:0:0:
256,192,245081,1,0,0:0:0:0:
256,192,245249,1,12,0:0:0:0:
256,192,245586,1,0,0:0:0:0:
256,192,245755,1,12,0:0:0:0:
256,192,246092,1,12,0:0:0:0:
256,192,246260,1,0,0:0:0:0:
256,192,246345,1,0,0:0:0:0:
256,192,246429,1,8,0:0:0:0:
256,192,246598,1,8,0:0:0:0:
256,192,246766,1,8,0:0:0:0:
256,192,246935,1,8,0:0:0:0:
256,192,247103,1,8,0:0:0:0:
256,192,247272,1,8,0:0:0:0:
256,192,247441,1,0,0:0:0:0:
256,192,247778,1,8,0:0:0:0:
256,192,248115,1,0,0:0:0:0:
256,192,248452,1,8,0:0:0:0:
256,192,248789,1,0,0:0:0:0:
256,192,249126,1,8,0:0:0:0:
256,192,249463,1,0,0:0:0:0:
256,192,249800,1,8,0:0:0:0:
256,192,250137,1,0,0:0:0:0:
256,192,250474,1,8,0:0:0:0:
256,192,250811,1,0,0:0:0:0:
256,192,251148,1,8,0:0:0:0:
256,192,251485,1,0,0:0:0:0:
256,192,251823,1,8,0:0:0:0:
256,192,252160,1,0,0:0:0:0:
256,192,252497,1,8,0:0:0:0:
256,192,252834,1,0,0:0:0:0:
256,192,253002,12,0,253845,0:0:0:0:
256,192,254182,5,8,0:0:0:0:
256,192,258058,5,0,0:0:0:0:
256,192,258143,1,0,0:0:0:0:
256,192,258228,1,8,0:0:0:0:
256,192,258396,1,0,0:0:0:0:
256,192,258565,1,0,0:0:0:0:
256,192,258733,1,8,0:0:0:0:
256,192,258902,1,0,0:0:0:0:
256,192,259070,1,0,0:0:0:0:
256,192,259239,1,12,0:0:0:0:
256,192,259576,1,4,0:0:0:0:
256,192,259744,1,8,0:0:0:0:
256,192,259913,1,0,0:0:0:0:
256,192,259997,1,8,0:0:0:0:
256,192,260081,1,0,0:0:0:0:
256,192,260166,1,0,0:0:0:0:
256,192,260250,1,8,0:0:0:0:
256,192,260419,1,0,0:0:0:0:
256,192,260587,1,8,0:0:0:0:
256,192,260756,1,0,0:0:0:0:
256,192,260924,1,8,0:0:0:0:
256,192,261008,1,8,0:0:0:0:
256,192,261093,1,0,0:0:0:0:
256,192,261177,1,0,0:0:0:0:
256,192,261261,1,8,0:0:0:0:
256,192,261430,1,0,0:0:0:0:
256,192,261598,1,8,0:0:0:0:
256,192,261683,1,0,0:0:0:0:
256,192,261767,1,8,0:0:0:0:
256,192,261935,1,0,0:0:0:0:
256,192,262020,1,0,0:0:0:0:
256,192,262104,1,8,0:0:0:0:
256,192,262188,1,8,0:0:0:0:
256,192,262272,1,0,0:0:0:0:
256,192,262441,1,0,0:0:0:0:
256,192,262610,1,8,0:0:0:0:
256,192,262694,1,8,0:0:0:0:
256,192,262778,1,0,0:0:0:0:
256,192,262947,1,0,0:0:0:0:
256,192,263031,1,8,0:0:0:0:
256,192,263115,1,0,0:0:0:0:
256,192,263284,1,8,0:0:0:0:
256,192,263452,1,0,0:0:0:0:
256,192,263536,1,0,0:0:0:0:
256,192,263621,1,8,0:0:0:0:
256,192,263789,1,0,0:0:0:0:
256,192,263958,1,8,0:0:0:0:
256,192,264042,1,8,0:0:0:0:
256,192,264126,1,0,0:0:0:0:
256,192,264295,1,8,0:0:0:0:
256,192,264379,1,0,0:0:0:0:
256,192,264463,1,8,0:0:0:0:
256,192,264632,1,0,0:0:0:0:
256,192,264801,1,12,0:0:0:0:
256,192,264969,1,0,0:0:0:0:
256,192,265138,1,0,0:0:0:0:
256,192,265306,1,8,0:0:0:0:
256,192,265390,1,0,0:0:0:0:
256,192,265475,1,8,0:0:0:0:
256,192,265559,1,8,0:0:0:0:
256,192,265643,1,0,0:0:0:0:
256,192,265812,1,8,0:0:0:0:
256,192,265980,1,0,0:0:0:0:
256,192,266149,1,12,0:0:0:0:
256,192,266486,1,8,0:0:0:0:
256,192,266570,1,0,0:0:0:0:
256,192,266654,1,8,0:0:0:0:
256,192,266823,1,0,0:0:0:0:
256,192,266992,1,8,0:0:0:0:
256,192,267076,1,8,0:0:0:0:
256,192,267160,1,0,0:0:0:0:
256,192,267244,1,0,0:0:0:0:
256,192,267329,1,8,0:0:0:0:
256,192,267497,1,0,0:0:0:0:
256,192,267581,1,0,0:0:0:0:
256,192,267666,1,12,0:0:0:0:
256,192,267834,1,0,0:0:0:0:
256,192,268003,1,8,0:0:0:0:
256,192,268171,1,8,0:0:0:0:
256,192,268340,1,0,0:0:0:0:
256,192,268508,1,8,0:0:0:0:
256,192,268677,1,0,0:0:0:0:
256,192,268845,1,12,0:0:0:0:
256,192,269183,1,0,0:0:0:0:
256,192,269351,1,8,0:0:0:0:
256,192,269520,1,0,0:0:0:0:
256,192,269688,1,8,0:0:0:0:
256,192,269772,1,8,0:0:0:0:
256,192,269857,1,0,0:0:0:0:
256,192,269941,1,0,0:0:0:0:
256,192,270025,1,8,0:0:0:0:
256,192,270110,1,8,0:0:0:0:
256,192,270194,1,0,0:0:0:0:
256,192,270278,1,0,0:0:0:0:
256,192,270362,1,12,0:0:0:0:
256,192,270531,1,0,0:0:0:0:
256,192,270699,1,0,0:0:0:0:
256,192,270784,1,8,0:0:0:0:
256,192,270868,1,0,0:0:0:0:
256,192,270952,1,0,0:0:0:0:
256,192,271036,1,8,0:0:0:0:
256,192,271205,1,0,0:0:0:0:
256,192,271374,1,8,0:0:0:0:
256,192,271458,1,8,0:0:0:0:
256,192,271542,1,0,0:0:0:0:
256,192,271711,1,8,0:0:0:0:
256,192,271879,1,0,0:0:0:0:
256,192,272048,1,8,0:0:0:0:
256,192,272132,1,0,0:0:0:0:
256,192,272216,1,8,0:0:0:0:
256,192,272385,1,8,0:0:0:0:
256,192,272469,1,8,0:0:0:0:
256,192,272553,1,0,0:0:0:0:
256,192,272638,1,0,0:0:0:0:
256,192,272722,1,8,0:0:0:0:
256,192,272890,1,0,0:0:0:0:
256,192,273059,1,8,0:0:0:0:
256,192,273143,1,0,0:0:0:0:
256,192,273228,1,0,0:0:0:0:
256,192,273396,1,8,0:0:0:0:
256,192,273565,1,0,0:0:0:0:
256,192,273733,1,8,0:0:0:0:
256,192,273817,1,0,0:0:0:0:
256,192,273902,1,8,0:0:0:0:
256,192,273986,1,8,0:0:0:0:
256,192,274070,1,0,0:0:0:0:
256,192,274239,1,0,0:0:0:0:
256,192,274407,1,8,0:0:0:0:
256,192,274576,1,0,0:0:0:0:
256,192,274744,1,8,0:0:0:0:
256,192,274829,1,0,0:0:0:0:
256,192,274913,1,0,0:0:0:0:
256,192,274997,1,0,0:0:0:0:
256,192,275081,1,8,0:0:0:0:
256,192,275250,1,0,0:0:0:0:
256,192,275419,1,0,0:0:0:0:
256,192,275587,1,12,0:0:0:0:
256,192,275756,1,0,0:0:0:0:
256,192,275924,1,0,0:0:0:0:
256,192,276093,1,8,0:0:0:0:
256,192,276177,1,0,0:0:0:0:
256,192,276261,1,8,0:0:0:0:
256,192,276430,1,8,0:0:0:0:
256,192,276514,1,0,0:0:0:0:
256,192,276598,1,8,0:0:0:0:
256,192,276683,1,8,0:0:0:0:
256,192,276767,1,0,0:0:0:0:
256,192,276935,1,12,0:0:0:0:
256,192,277272,1,0,0:0:0:0:
256,192,277441,1,8,0:0:0:0:
256,192,277525,1,8,0:0:0:0:
256,192,277610,1,0,0:0:0:0:
256,192,277694,1,0,0:0:0:0:
256,192,277778,1,8,0:0:0:0:
256,192,277947,1,0,0:0:0:0:
256,192,278115,1,8,0:0:0:0:
256,192,278284,1,0,0:0:0:0:
256,192,278368,1,0,0:0:0:0:
256,192,278452,1,12,0:0:0:0:
256,192,278621,1,0,0:0:0:0:
256,192,278789,1,8,0:0:0:0:
256,192,278958,1,8,0:0:0:0:
256,192,279126,1,0,0:0:0:0:
256,192,279295,1,8,0:0:0:0:
256,192,279463,1,0,0:0:0:0:
256,192,279632,1,12,0:0:0:0:
256,192,279969,1,0,0:0:0:0:
256,192,280138,1,8,0:0:0:0:
256,192,280306,1,0,0:0:0:0:
256,192,280475,1,8,0:0:0:0:
256,192,280559,1,8,0:0:0:0:
256,192,280643,1,0,0:0:0:0:
256,192,280728,1,0,0:0:0:0:
256,192,280812,1,8,0:0:0:0:
256,192,280896,1,8,0:0:0:0:
256,192,280980,1,0,0:0:0:0:
256,192,281065,1,0,0:0:0:0:
256,192,281149,1,12,0:0:0:0:
256,192,281317,1,0,0:0:0:0:
256,192,281486,1,8,0:0:0:0:
256,192,281570,1,8,0:0:0:0:
256,192,281654,1,0,0:0:0:0:
256,192,281739,1,0,0:0:0:0:
256,192,281823,1,8,0:0:0:0:
256,192,281992,1,0,0:0:0:0:
256,192,282160,1,8,0:0:0:0:
256,192,282244,1,0,0:0:0:0:
256,192,282329,1,8,0:0:0:0:
256,192,282497,1,0,0:0:0:0:
256,192,282581,1,0,0:0:0:0:
256,192,282666,1,8,0:0:0:0:
256,192,282750,1,8,0:0:0:0:
256,192,282834,1,0,0:0:0:0:
256,192,283003,1,0,0:0:0:0:
256,192,283171,1,8,0:0:0:0:
256,192,283340,1,8,0:0:0:0:
256,192,283508,1,8,0:0:0:0:
256,192,283677,1,0,0:0:0:0:
256,192,283845,1,8,0:0:0:0:
256,192,283930,1,0,0:0:0:0:
256,192,284014,1,8,0:0:0:0:
256,192,284183,1,8,0:0:0:0:
256,192,284351,1,0,0:0:0:0:
256,192,284520,1,8,0:0:0:0:
256,192,284604,1,8,0:0:0:0:
256,192,284688,1,0,0:0:0:0:
256,192,284857,1,8,0:0:0:0:
256,192,284941,1,8,0:0:0:0:
256,192,285025,1,0,0:0:0:0:
256,192,285110,1,0,0:0:0:0:
256,192,285194,1,12,0:0:0:0:
256,192,285531,1,8,0:0:0:0:
256,192,285699,1,0,0:0:0:0:
256,192,285784,1,0,0:0:0:0:
256,192,285868,1,8,0:0:0:0:
256,192,286036,1,0,0:0:0:0:
256,192,286205,1,8,0:0:0:0:
256,192,286289,1,0,0:0:0:0:
256,192,286374,1,0,0:0:0:0:
256,192,286458,1,0,0:0:0:0:
256,192,286542,1,12,0:0:0:0:
256,192,286879,1,0,0:0:0:0:
256,192,287048,1,0,0:0:0:0:
256,192,287132,1,8,0:0:0:0:
256,192,287216,1,0,0:0:0:0:
256,192,287385,1,0,0:0:0:0:
256,192,287553,1,0,0:0:0:0:
256,192,287638,1,0,0:0:0:0:
256,192,287722,1,12,0:0:0:0:
256,192,287890,1,8,0:0:0:0:
256,192,288059,1,0,0:0:0:0:
256,192,288228,1,8,0:0:0:0:
256,192,288312,1,0,0:0:0:0:
256,192,288396,1,8,0:0:0:0:
256,192,288565,1,0,0:0:0:0:
256,192,288649,1,8,0:0:0:0:
256,192,288733,1,0,0:0:0:0:
256,192,288817,1,0,0:0:0:0:
256,192,288902,1,8,0:0:0:0:
256,192,289070,1,0,0:0:0:0:
256,192,289154,1,0,0:0:0:0:
256,192,289239,1,12,0:0:0:0:
256,192,289407,1,0,0:0:0:0:
256,192,289576,1,8,0:0:0:0:
256,192,289744,1,8,0:0:0:0:
256,192,289913,1,0,0:0:0:0:
256,192,290081,1,8,0:0:0:0:
256,192,290250,1,0,0:0:0:0:
256,192,290419,1,12,0:0:0:0:
256,192,290756,1,0,0:0:0:0:
256,192,290924,1,8,0:0:0:0:
256,192,291093,1,0,0:0:0:0:
256,192,291261,1,8,0:0:0:0:
256,192,291345,1,8,0:0:0:0:
256,192,291430,1,0,0:0:0:0:
256,192,291514,1,8,0:0:0:0:
256,192,291598,1,0,0:0:0:0:
256,192,291683,1,0,0:0:0:0:
256,192,291767,1,8,0:0:0:0:
256,192,291851,1,0,0:0:0:0:
256,192,291935,1,8,0:0:0:0:
256,192,292104,1,0,0:0:0:0:
256,192,292272,1,8,0:0:0:0:
256,192,292441,1,8,0:0:0:0:
256,192,292610,1,0,0:0:0:0:
256,192,292778,1,0,0:0:0:0:
256,192,292947,1,8,0:0:0:0:
256,192,293115,1,0,0:0:0:0:
256,192,293284,1,8,0:0:0:0:
256,192,293452,1,0,0:0:0:0:
256,192,293621,1,8,0:0:0:0:
256,192,293789,1,8,0:0:0:0:
256,192,293958,1,0,0:0:0:0:
256,192,294042,1,0,0:0:0:0:
256,192,294126,1,8,0:0:0:0:
256,192,294211,1,8,0:0:0:0:
256,192,294295,1,0,0:0:0:0:
256,192,294379,1,8,0:0:0:0:
256,192,294463,1,0,0:0:0:0:
256,192,294548,1,0,0:0:0:0:
256,192,294632,1,12,0:0:0:0:
256,192,294969,1,0,0:0:0:0:
256,192,295306,1,8,0:0:0:0:
256,192,295475,1,0,0:0:0:0:
256,192,295643,1,8,0:0:0:0:
256,192,295728,1,8,0:0:0:0:
256,192,295812,1,0,0:0:0:0:
256,192,295980,1,8,0:0:0:0:
256,192,296317,1,8,0:0:0:0:
256,192,296486,1,0,0:0:0:0:
256,192,296654,1,8,0:0:0:0:
256,192,296739,1,0,0:0:0:0:
256,192,296823,1,8,0:0:0:0:
256,192,296992,1,0,0:0:0:0:
256,192,297160,1,0,0:0:0:0:
256,192,297244,1,0,0:0:0:0:
256,192,297329,1,8,0:0:0:0:
256,192,297497,1,0,0:0:0:0:
256,192,297666,1,8,0:0:0:0:
256,192,297750,1,8,0:0:0:0:
256,192,297834,1,0,0:0:0:0:
256,192,298003,1,8,0:0:0:0:
256,192,298171,1,0,0:0:0:0:
256,192,298340,1,8,0:0:0:0:
256,192,298424,1,0,0:0:0:0:
256,192,298508,1,8,0:0:0:0:
256,192,298677,1,0,0:0:0:0:
256,192,299014,1,8,0:0:0:0:
256,192,299183,1,0,0:0:0:0:
256,192,299267,1,0,0:0:0:0:
256,192,299351,1,8,0:0:0:0:
256,192,299520,1,0,0:0:0:0:
256,192,299688,1,8,0:0:0:0:
256,192,299772,1,8,0:0:0:0:
256,192,299857,1,0,0:0:0:0:
256,192,299941,1,0,0:0:0:0:
256,192,300025,1,8,0:0:0:0:
256,192,300194,1,0,0:0:0:0:
256,192,300362,1,8,0:0:0:0:
256,192,300699,1,0,0:0:0:0:
256,192,300868,1,0,0:0:0:0:
256,192,301036,1,8,0:0:0:0:
256,192,301121,1,0,0:0:0:0:
256,192,301205,1,12,0:0:0:0:
256,192,301542,1,0,0:0:0:0:
256,192,301711,1,8,0:0:0:0:
256,192,301795,1,8,0:0:0:0:
256,192,301879,1,0,0:0:0:0:
256,192,302048,1,8,0:0:0:0:
256,192,302216,1,0,0:0:0:0:
256,192,302385,1,8,0:0:0:0:
256,192,302553,1,0,0:0:0:0:
256,192,302638,1,0,0:0:0:0:
256,192,302722,1,12,0:0:0:0:
256,192,302890,1,0,0:0:0:0:
256,192,303059,1,0,0:0:0:0:
256,192,303228,1,8,0:0:0:0:
256,192,303396,1,0,0:0:0:0:
256,192,303565,1,8,0:0:0:0:
256,192,303733,1,0,0:0:0:0:
256,192,303902,1,12,0:0:0:0:
256,192,304239,1,0,0:0:0:0:
256,192,304407,1,8,0:0:0:0:
256,192,304576,1,0,0:0:0:0:
256,192,304744,1,8,0:0:0:0:
256,192,304829,1,8,0:0:0:0:
256,192,304913,1,0,0:0:0:0:
256,192,304997,1,0,0:0:0:0:
256,192,305081,1,8,0:0:0:0:
256,192,305166,1,8,0:0:0:0:
256,192,305250,1,0,0:0:0:0:
256,192,305334,1,0,0:0:0:0:
256,192,305419,1,12,0:0:0:0:
256,192,305756,1,8,0:0:0:0:
256,192,306093,1,0,0:0:0:0:
256,192,306261,1,0,0:0:0:0:
256,192,306430,1,8,0:0:0:0:
256,192,306514,1,8,0:0:0:0:
256,192,306598,1,0,0:0:0:0:
256,192,306767,1,8,0:0:0:0:
256,192,306935,1,0,0:0:0:0:
256,192,307104,1,8,0:0:0:0:
256,192,307272,1,0,0:0:0:0:
256,192,307441,1,8,0:0:0:0:
256,192,307525,1,0,0:0:0:0:
256,192,307610,1,8,0:0:0:0:
256,192,307778,1,0,0:0:0:0:
256,192,307947,1,0,0:0:0:0:
256,192,308115,1,8,0:0:0:0:
256,192,308284,1,0,0:0:0:0:
256,192,308452,1,8,0:0:0:0:
256,192,308536,1,0,0:0:0:0:
256,192,308621,1,0,0:0:0:0:
256,192,308789,1,8,0:0:0:0:
256,192,308958,1,0,0:0:0:0:
256,192,309126,1,0,0:0:0:0:
256,192,309211,1,0,0:0:0:0:
256,192,309295,1,8,0:0:0:0:
256,192,309379,1,8,0:0:0:0:
256,192,309463,1,0,0:0:0:0:
256,192,309632,1,0,0:0:0:0:
256,192,309801,1,8,0:0:0:0:
256,192,309969,1,0,0:0:0:0:
256,192,310053,1,0,0:0:0:0:
256,192,310138,1,8,0:0:0:0:
256,192,310306,1,0,0:0:0:0:
256,192,310475,1,8,0:0:0:0:
256,192,310559,1,0,0:0:0:0:
256,192,310643,1,8,0:0:0:0:
256,192,310727,1,8,0:0:0:0:
256,192,310812,1,0,0:0:0:0:
256,192,310980,1,0,0:0:0:0:
256,192,311149,1,8,0:0:0:0:
256,192,311486,1,8,0:0:0:0:
256,192,311654,1,0,0:0:0:0:
256,192,311823,1,8,0:0:0:0:
256,192,311907,1,0,0:0:0:0:
256,192,311992,1,8,0:0:0:0:
256,192,312160,1,0,0:0:0:0:
256,192,312329,1,0,0:0:0:0:
256,192,312497,1,8,0:0:0:0:
256,192,312581,1,8,0:0:0:0:
256,192,312666,1,0,0:0:0:0:
256,192,312750,1,0,0:0:0:0:
256,192,312834,1,8,0:0:0:0:
256,192,313003,1,0,0:0:0:0:
256,192,313171,1,8,0:0:0:0:
256,192,313340,1,0,0:0:0:0:
256,192,313424,1,0,0:0:0:0:
256,192,313508,1,12,0:0:0:0:
256,192,313677,1,0,0:0:0:0:
256,192,313845,1,0,0:0:0:0:
256,192,314014,1,0,0:0:0:0:
256,192,314183,1,12,0:0:0:0:
256,192,314351,1,0,0:0:0:0:
256,192,314520,1,0,0:0:0:0:
256,192,314688,1,12,0:0:0:0:
256,192,314857,1,0,0:0:0:0:
256,192,314941,1,8,0:0:0:0:
256,192,315025,1,0,0:0:0:0:
256,192,315110,1,0,0:0:0:0:
256,192,315194,1,8,0:0:0:0:
256,192,315278,1,0,0:0:0:0:
256,192,315362,1,8,0:0:0:0:
256,192,315447,1,8,0:0:0:0:
256,192,315531,1,0,0:0:0:0:
256,192,315615,1,0,0:0:0:0:
256,192,315699,1,8,0:0:0:0:
256,192,315868,1,0,0:0:0:0:
256,192,316036,1,12,0:0:0:0:
256,192,316205,12,0,322778,0:0:0:0:
256,192,322947,5,8,0:0:0:0:
256,192,323284,1,0,0:0:0:0:
256,192,323621,1,0,0:0:0:0:
256,192,323958,1,8,0:0:0:0:
256,192,324295,1,8,0:0:0:0:
256,192,324632,1,0,0:0:0:0:
256,192,324969,1,8,0:0:0:0:
256,192,325643,1,8,0:0:0:0:
256,192,325980,1,0,0:0:0:0:
256,192,326317,1,0,0:0:0:0:
256,192,326654,1,8,0:0:0:0:
256,192,326991,1,8,0:0:0:0:
256,192,327329,1,0,0:0:0:0:
256,192,327666,1,8,0:0:0:0:
256,192,327834,1,0,0:0:0:0:
256,192,328003,1,8,0:0:0:0:
256,192,328340,1,8,0:0:0:0:
256,192,328677,1,0,0:0:0:0:
256,192,329014,1,0,0:0:0:0:
256,192,329351,1,0,0:0:0:0:
256,192,329688,1,8,0:0:0:0:
256,192,330025,1,0,0:0:0:0:
256,192,330362,1,8,0:0:0:0:
256,192,331036,1,8,0:0:0:0:
256,192,331373,1,8,0:0:0:0:
256,192,331711,1,0,0:0:0:0:
256,192,332048,1,0,0:0:0:0:
256,192,332385,1,8,0:0:0:0:
256,192,332722,1,0,0:0:0:0:
256,192,333059,1,8,0:0:0:0:
256,192,333227,1,0,0:0:0:0:
256,192,333396,1,8,0:0:0:0:
256,192,333733,1,8,0:0:0:0:
256,192,334070,1,0,0:0:0:0:
256,192,334407,1,0,0:0:0:0:
256,192,334744,1,0,0:0:0:0:
256,192,334913,1,0,0:0:0:0:
256,192,335081,1,8,0:0:0:0:
256,192,335418,1,0,0:0:0:0:
256,192,335755,1,8,0:0:0:0:
256,192,336261,1,0,0:0:0:0:
256,192,336430,1,8,0:0:0:0:
256,192,336767,1,0,0:0:0:0:
256,192,336935,1,8,0:0:0:0:
256,192,337104,1,0,0:0:0:0:
256,192,337441,1,8,0:0:0:0:
256,192,337609,1,0,0:0:0:0:
256,192,337778,1,8,0:0:0:0:
256,192,338115,1,0,0:0:0:0:
256,192,338452,1,8,0:0:0:0:
256,192,338621,1,8,0:0:0:0:
256,192,338789,1,0,0:0:0:0:
256,192,339126,1,8,0:0:0:0:
256,192,339463,1,0,0:0:0:0:
256,192,339632,1,8,0:0:0:0:
256,192,339800,1,0,0:0:0:0:
256,192,340138,1,8,0:0:0:0:
256,192,340306,1,0,0:0:0:0:
256,192,340475,1,8,0:0:0:0:
256,192,340812,1,0,0:0:0:0:
256,192,341149,1,8,0:0:0:0:
256,192,341486,1,0,0:0:0:0:
256,192,341654,1,0,0:0:0:0:
256,192,341823,1,8,0:0:0:0:
256,192,342160,1,0,0:0:0:0:
256,192,342497,1,0,0:0:0:0:
256,192,342834,1,8,0:0:0:0:
256,192,343171,1,8,0:0:0:0:
256,192,343508,1,0,0:0:0:0:
256,192,343677,1,0,0:0:0:0:
256,192,343845,1,8,0:0:0:0:
256,192,344014,1,0,0:0:0:0:
256,192,344182,1,8,0:0:0:0:
256,192,344520,1,8,0:0:0:0:
256,192,344857,1,0,0:0:0:0:
256,192,345025,1,0,0:0:0:0:
256,192,345194,1,8,0:0:0:0:
256,192,345531,1,8,0:0:0:0:
256,192,345699,1,0,0:0:0:0:
256,192,345868,1,8,0:0:0:0:
256,192,346205,1,0,0:0:0:0:
256,192,346542,1,8,0:0:0:0:
256,192,347048,1,0,0:0:0:0:
256,192,347216,1,8,0:0:0:0:
256,192,347553,1,0,0:0:0:0:
256,192,347890,1,8,0:0:0:0:
256,192,348227,1,8,0:0:0:0:
256,192,348564,1,0,0:0:0:0:
256,192,348902,1,0,0:0:0:0:
256,192,349070,1,0,0:0:0:0:
256,192,349239,1,8,0:0:0:0:
256,192,349407,1,0,0:0:0:0:
256,192,349576,1,8,0:0:0:0:
256,192,349913,1,8,0:0:0:0:
256,192,350250,1,0,0:0:0:0:
256,192,350587,1,0,0:0:0:0:
256,192,350924,1,0,0:0:0:0:
256,192,351261,1,8,0:0:0:0:
256,192,351598,1,8,0:0:0:0:
256,192,351935,1,8,0:0:0:0:
256,192,352272,1,0,0:0:0:0:
256,192,352609,1,8,0:0:0:0:
256,192,353284,1,8,0:0:0:0:
256,192,353958,1,8,0:0:0:0:
256,192,354295,1,0,0:0:0:0:
256,192,354632,1,8,0:0:0:0:
256,192,354800,12,0,356486,0:0:0:0:
