osu file format v14

[General]
AudioFilename: audio.mp3
AudioLeadIn: 0
PreviewTime: 87995
Countdown: 0
SampleSet: Soft
StackLeniency: 0.8
Mode: 0
LetterboxInBreaks: 0
WidescreenStoryboard: 0

[Editor]
Bookmarks: 104873
DistanceSpacing: 1.2
BeatDivisor: 4
GridSize: 16
TimelineZoom: 2.899999

[Metadata]
Title:Sakura no Zenya
TitleUnicode:サクラノ前夜
Artist:Kano
ArtistUnicode:鹿乃
Creator:[XV]
Version:LGV's Hard
Source:
Tags:[_L_u_k_a_s_], Akitoshi, Anxient, Kencho, LGV894, Kisses, Lulkas, utaite, すきなの, sukinano, the night before the cherry blossoms, Crowie, Victorica, Miriko, -Laura-, Corinn
BeatmapID:1260950
BeatmapSetID:594067

[Difficulty]
HPDrainRate:5.2
CircleSize:3.8
OverallDifficulty:6.8
ApproachRate:7.4
SliderMultiplier:1.2
SliderTickRate:1

[Events]
//Background and Video events
0,0,"vckbg.jpg",0,0
//Break Periods
//Storyboard Layer 0 (Background)
//Storyboard Layer 1 (Fail)
//Storyboard Layer 2 (Pass)
//Storyboard Layer 3 (Foreground)
//Storyboard Sound Samples

[TimingPoints]
439,337.078651685393,4,2,2,50,1,0
24371,-100,4,2,2,5,0,0
24392,-100,4,2,2,50,0,0
32461,-100,4,2,2,15,0,0
32798,-100,4,2,2,15,0,0
33135,-100,4,2,2,50,0,0
33472,-100,4,2,1,50,0,0
34146,-90.9090909090909,4,2,1,60,0,0
43585,-90.9090909090909,4,2,1,70,0,0
44596,-90.9090909090909,4,2,1,40,0,0
44680,-90.9090909090909,4,2,1,40,0,0
44764,-90.9090909090909,4,2,1,40,0,0
44849,-90.9090909090909,4,2,1,40,0,0
44933,-100,4,2,1,50,0,0
55719,-90.9090909090909,4,2,1,60,0,0
66506,-90.9090909090909,4,2,1,50,0,0
76955,-90.9090909090909,4,2,1,40,0,0
77040,-90.9090909090909,4,2,1,40,0,0
77124,-90.9090909090909,4,2,1,40,0,0
77208,-90.9090909090909,4,2,1,40,0,0
77292,-90.9090909090909,4,2,1,55,0,0
82686,-90.9090909090909,4,2,1,60,0,0
85382,-90.9090909090909,4,2,1,70,0,0
85467,-90.9090909090909,4,2,1,40,0,0
85719,-90.9090909090909,4,2,1,70,0,0
85804,-90.9090909090909,4,2,1,40,0,0
86056,-90.9090909090909,4,2,1,70,0,0
86141,-90.9090909090909,4,2,1,40,0,0
86394,-90.9090909090909,4,2,1,30,0,0
86478,-90.9090909090909,4,2,1,40,0,0
86562,-90.9090909090909,4,2,1,60,0,0
86646,-90.9090909090909,4,2,1,70,0,0
86731,-83.3333333333333,4,2,1,75,0,0
87742,-76.9230769230769,4,2,1,75,0,0
88079,-83.3333333333333,4,2,1,70,0,1
96169,-83.3333333333333,4,2,1,75,0,1
97517,-83.3333333333333,4,2,1,70,0,1
98191,-83.3333333333333,4,2,1,50,0,1
98528,-83.3333333333333,4,2,1,65,0,1
98613,-83.3333333333333,4,2,1,70,0,1
98697,-83.3333333333333,4,2,1,75,0,1
98781,-83.3333333333333,4,2,1,80,0,1
98865,-83.3333333333333,4,2,1,70,0,1
106955,-83.3333333333333,4,2,1,75,0,1
108304,-83.3333333333333,4,2,1,70,0,1
109652,-83.3333333333333,4,2,1,60,0,1
109989,-83.3333333333333,4,2,1,70,0,1
110326,-83.3333333333333,4,2,1,85,0,1
110663,-83.3333333333333,4,2,1,100,0,1
111000,-76.9230769230769,4,2,1,90,0,1
111506,-76.9230769230769,4,2,1,80,0,1
112180,-76.9230769230769,4,2,1,70,0,1
112349,-100,4,2,1,70,0,0
112433,-100,4,2,1,40,0,0
112686,-100,4,2,1,38,0,0
113023,-100,4,2,1,36,0,0
113360,-100,4,2,1,34,0,0
113697,-100,4,2,1,32,0,0
114034,-100,4,2,1,30,0,0
114371,-100,4,2,1,28,0,0
114708,-100,4,2,1,26,0,0
115045,-100,4,2,1,24,0,0
115382,-100,4,2,1,22,0,0
115719,-100,4,2,1,20,0,0
116056,-100,4,2,1,18,0,0
116394,-100,4,2,1,5,0,0

[Colours]
Combo1 : 166,203,215
Combo2 : 255,125,138
Combo3 : 108,134,193
Combo4 : 99,89,213

[HitObjects]
38,166,439,6,0,P|89:136|148:135,1,120,2|0,0:0|0:0,0:0:0:0:
223,41,1113,2,0,P|274:70|333:71,1,120,0|0,0:0|0:0,0:0:0:0:
445,29,1787,2,0,L|430:148,1,120,2|0,0:0|0:0,0:0:0:0:
477,258,2461,1,0,0:0:0:0:
483,266,3135,6,0,B|404:252|404:252|366:264,1,120,2|0,0:0|0:0,0:0:0:0:
260,321,3809,2,0,B|222:333|222:333|143:319,1,120,0|0,0:0|0:0,0:0:0:0:
98,207,4483,2,0,P|98:147|128:96,1,120,2|0,0:0|0:0,0:0:0:0:
249,126,5158,2,0,L|308:120,2,60,0|0|0,0:0|0:0|0:0,0:0:0:0:
351,63,5832,6,0,P|344:122|345:182,1,120,2|0,0:0|0:0,0:0:0:0:
232,270,6506,2,0,P|233:210|226:150,1,120,0|0,0:0|0:0,0:0:0:0:
159,51,7180,2,0,L|39:36,1,120,2|0,0:0|0:0,0:0:0:0:
68,152,7854,1,0,0:0:0:0:
65,161,8528,6,0,L|184:146,1,120,2|0,0:0|0:0,0:0:0:0:
265,57,9203,2,0,L|384:72,1,120,0|0,0:0|0:0,0:0:0:0:
470,155,9877,2,0,P|490:210|479:269,1,120,2|0,0:0|0:0,0:0:0:0:
387,345,10551,2,0,L|328:339,1,60,0|0,0:0|0:0,0:0:0:0:
273,290,10888,1,0,0:0:0:0:
141,324,11225,6,0,P|200:319|260:307,1,120,2|0,0:0|0:0,0:0:0:0:
186,183,11899,2,0,P|127:170|67:166,1,120,0|0,0:0|0:0,0:0:0:0:
19,220,12405,1,0,0:0:0:0:
19,220,12573,2,0,B|31:182|31:182|17:103,1,120,2|0,0:0|0:0,0:0:0:0:
137,23,13247,1,0,0:0:0:0:
147,31,13922,6,0,P|206:25|259:50,1,120,2|0,0:0|0:0,0:0:0:0:
313,184,14596,2,0,P|372:189|425:164,1,120,0|0,0:0|0:0,0:0:0:0:
269,68,15270,2,0,L|263:247,1,180,2|0,0:0|0:0,0:0:0:0:
236,315,15944,2,0,P|210:300|194:274,2,60,0|0|0,0:0|0:0|0:0,0:0:0:0:
108,334,16618,6,0,L|227:330,1,120,2|0,0:0|0:0,0:0:0:0:
165,200,17292,2,0,L|45:196,1,120,0|0,0:0|0:0,0:0:0:0:
8,56,17967,2,0,P|67:52|119:79,1,120,2|0,0:0|0:0,0:0:0:0:
179,210,18641,1,0,0:0:0:0:
306,143,18978,2,0,L|246:149,1,60,0|0,0:0|0:0,0:0:0:0:
191,196,19315,6,0,B|112:182|112:182|73:190,1,120,2|0,0:0|0:0,0:0:0:0:
63,334,19989,2,0,B|142:348|142:348|180:339,1,120,0|0,0:0|0:0,0:0:0:0:
199,191,20663,2,0,P|258:195|318:207,1,120,2|0,0:0|0:0,0:0:0:0:
383,247,21169,1,0,0:0:0:0:
383,247,21337,2,0,L|387:306,1,60,0|0,0:0|0:0,0:0:0:0:
336,357,21674,1,0,0:0:0:0:
478,382,22012,6,0,L|487:262,1,120,2|0,0:0|0:0,0:0:0:0:
428,222,22517,1,0,0:0:0:0:
428,222,22686,2,0,L|418:102,1,120,0|0,0:0|0:0,0:0:0:0:
460,44,23191,1,0,0:0:0:0:
460,44,23360,2,0,P|407:16|348:20,1,120,2|0,0:0|0:0,0:0:0:0:
274,143,24034,2,0,B|246:145|224:139|201:126|201:126|175:135|175:135|92:129,1,180,0|0,0:0|0:0,0:0:0:0:
64,66,24708,6,0,P|59:125|47:185,1,120,2|0,0:0|0:0,0:0:0:0:
166,265,25382,2,0,P|170:324|182:384,1,120,0|0,0:0|0:0,0:0:0:0:
310,318,26056,2,0,L|429:308,1,120,2|0,0:0|0:0,0:0:0:0:
384,171,26731,2,0,P|368:196|366:225,2,60,0|0|0,0:0|0:0|0:0,0:0:0:0:
445,133,27236,1,0,0:0:0:0:
445,133,27405,6,0,P|385:128|325:116,1,120,2|0,0:0|0:0,0:0:0:0:
203,41,28079,2,0,P|143:45|83:57,1,120,0|0,0:0|0:0,0:0:0:0:
149,185,28753,1,2,0:0:0:0:
132,327,29090,1,0,0:0:0:0:
278,242,29427,1,0,0:0:0:0:
261,100,29764,1,0,0:0:0:0:
406,188,30101,6,0,P|353:216|294:220,1,120,2|0,0:0|0:0,0:0:0:0:
243,85,30776,2,0,P|190:56|131:52,1,120,0|0,0:0|0:0,0:0:0:0:
47,169,31450,2,0,B|34:242|34:242|38:287,1,120,2|0,0:0|0:0,0:0:0:0:
85,348,31955,1,0,0:0:0:0:
85,348,32124,2,0,B|173:325|262:348|262:348|351:370|440:348,1,360,0|0,0:0|0:0,0:0:0:0:
410,207,33472,6,0,L|403:266,1,60,8|0,0:0|3:0,0:0:0:0:
310,204,33809,2,0,L|303:144,1,60,8|2,0:0|0:0,0:0:0:0:
386,78,34146,6,0,B|344:93|344:93|256:86,1,132.00000402832,4|2,3:1|0:0,0:0:0:0:
105,133,34821,1,2,3:0:0:0:
105,133,35158,1,2,0:0:0:0:
224,236,35495,1,2,3:0:0:0:
224,236,35832,1,2,0:0:0:0:
256,86,36169,1,2,3:0:0:0:
256,86,36506,1,2,0:0:0:0:
213,152,36674,1,8,0:0:0:0:
235,228,36843,6,0,L|366:221,1,132.00000402832,2|2,3:2|0:0,0:0:0:0:
304,367,37517,1,2,3:0:0:0:
304,367,37854,1,2,0:0:0:0:
147,345,38191,1,2,3:0:0:0:
143,349,38528,1,2,0:0:0:0:
236,216,38865,6,0,P|229:183|229:150,1,66.0000020141602,2|8,3:0|0:0,0:0:0:0:
166,288,39203,2,0,P|166:320|159:353,1,66.0000020141602,2|4,3:2|3:0,0:0:0:0:
46,381,39540,5,4,3:1:0:0:
11,310,39708,2,0,L|7:277,2,33.0000010070801,0|0|2,0:0|0:0|0:0,0:0:0:0:
88,271,40045,2,0,L|91:238,2,33.0000010070801,2|0|2,0:0|0:0|3:0,0:0:0:0:
16,202,40382,2,0,L|12:169,2,33.0000010070801,0|0|2,0:0|0:0|0:0,0:0:0:0:
94,159,40719,6,0,P|110:159|126:161,2,33.0000010070801,2|0|2,0:0|0:0|3:0,0:0:0:0:
182,101,41056,2,0,P|193:113|203:126,2,33.0000010070801,0|0|2,0:0|0:0|0:0,0:0:0:0:
286,124,41394,2,0,P|285:140|283:156,2,33.0000010070801,2|0|2,0:0|0:0|3:0,0:0:0:0:
386,184,41731,6,0,P|387:216|380:249,1,66.0000020141602,8|2,0:0|3:2,0:0:0:0:
309,329,42068,1,10,0:0:0:0:
253,245,42236,6,0,L|385:260,1,132.00000402832,4|2,3:1|0:0,0:0:0:0:
462,191,42742,2,0,P|462:158|455:125,1,66.0000020141602,10|2,0:0|3:0,0:0:0:0:
466,40,43079,1,4,3:0:0:0:
380,22,43247,6,0,P|321:48|255:48,1,132.00000402832,10|2,0:0|3:2,0:0:0:0:
161,9,43753,1,8,0:0:0:0:
172,90,43922,2,0,L|164:155,1,66.0000020141602,10|2,0:0|3:2,0:0:0:0:
97,276,44259,6,0,L|90:211,1,66.0000020141602,10|4,0:0|3:0,0:0:0:0:
167,322,44596,2,0,P|183:322|199:324,3,33.0000010070801,10|8|10|8,3:2|0:0|3:2|0:0,0:0:0:0:
216,332,44933,6,0,P|275:335|327:308,1,120,4|0,3:1|0:0,0:0:0:0:
291,167,45607,2,0,P|232:164|180:191,1,120,0|0,0:0|0:0,0:0:0:0:
131,246,46113,1,0,3:0:0:0:
131,246,46281,2,0,B|138:171|138:171|126:127,1,120,0|0,3:0|0:0,0:0:0:0:
7,210,46955,2,0,B|0:285|0:285|11:328,1,120,0|0,0:0|0:0,0:0:0:0:
152,362,47630,6,0,P|204:334|263:337,1,120,0|0,3:0|0:0,0:0:0:0:
357,228,48304,2,0,P|409:255|468:252,1,120,0|0,0:0|0:0,0:0:0:0:
508,193,48809,1,0,3:0:0:0:
508,193,48978,2,0,P|496:134|491:74,1,120,0|0,3:0|0:0,0:0:0:0:
361,11,49652,2,0,L|356:70,1,60,0|0,0:0|3:0,0:0:0:0:
352,150,49989,1,2,0:0:0:0:
352,150,50158,1,8,0:0:0:0:
416,119,50326,6,0,B|376:112|376:112|337:119|337:119|298:112,1,120,4|0,3:1|0:0,0:0:0:0:
243,64,50832,1,0,0:0:0:0:
171,74,51000,2,0,P|143:126|146:185,1,120,0|0,0:0|0:0,0:0:0:0:
198,244,51506,1,0,3:0:0:0:
198,244,51674,2,0,L|317:234,1,120,0|0,3:0|0:0,0:0:0:0:
169,364,52349,2,0,P|163:333|164:303,1,60,0|0,0:0|3:0,0:0:0:0:
186,235,52686,2,0,P|186:204|181:174,1,60,0|0,0:0|3:0,0:0:0:0:
128,126,53023,6,0,B|203:140|203:140|245:130,1,120,0|0,3:0|0:0,0:0:0:0:
352,33,53697,2,0,B|427:19|427:19|469:28,1,120,0|0,0:0|0:0,0:0:0:0:
502,99,54203,1,0,3:0:0:0:
502,99,54371,2,0,B|494:128|502:157|502:157|509:187|502:216,1,120,0|0,3:0|0:0,0:0:0:0:
461,277,54877,1,0,0:0:0:0:
396,245,55045,2,0,L|366:247,2,30,2|0|2,0:0|0:0|3:2,0:0:0:0:
372,331,55382,2,0,L|343:329,2,30,2|0|10,0:0|0:0|0:0,0:0:0:0:
259,351,55719,6,0,P|259:318|266:285,1,66.0000020141602,4|0,3:1|0:0,0:0:0:0:
300,190,56056,2,0,P|307:124|304:58,1,132.00000402832,8|0,0:0|3:0,0:0:0:0:
239,13,56562,2,0,L|173:19,1,66.0000020141602,4|0,3:0|3:0,0:0:0:0:
80,89,56899,6,0,P|112:95|145:96,1,66.0000020141602,8|0,0:0|3:0,0:0:0:0:
224,98,57236,1,4,3:0:0:0:
253,24,57405,2,0,B|339:16|339:16|393:27,1,132.00000402832,8|0,0:0|3:0,0:0:0:0:
455,106,57910,1,2,3:2:0:0:
399,162,58079,1,2,3:2:0:0:
387,240,58247,1,2,3:2:0:0:
397,317,58416,6,0,P|364:324|331:324,1,66.0000020141602,2|0,3:2|0:0,0:0:0:0:
263,241,58753,2,0,L|394:232,1,132.00000402832,8|0,0:0|3:0,0:0:0:0:
383,153,59259,2,0,L|317:148,1,66.0000020141602,4|0,3:0|3:0,0:0:0:0:
452,37,59596,2,0,L|447:102,1,66.0000020141602,8|0,0:0|3:0,0:0:0:0:
390,157,59933,5,4,3:0:0:0:
336,63,60101,2,0,P|303:63|270:70,1,66.0000020141602,8|0,0:0|0:0,0:0:0:0:
210,121,60438,1,2,3:2:0:0:
262,251,60607,2,0,P|261:218|255:186,1,66.0000020141602,8|8,0:0|3:2,0:0:0:0:
141,237,60944,1,8,0:0:0:0:
158,314,61113,6,0,L|223:318,1,66.0000020141602,4|4,3:1|3:0,0:0:0:0:
154,226,61450,2,0,L|88:230,1,66.0000020141602,8|0,0:0|3:0,0:0:0:0:
237,333,61787,2,0,L|368:324,1,132.00000402832,0|0,3:0|3:0,0:0:0:0:
287,172,62292,2,0,P|280:204|279:237,1,66.0000020141602,8|0,0:0|0:0,0:0:0:0:
374,209,62630,5,4,3:0:0:0:
324,85,62798,2,0,P|292:75|259:72,1,66.0000020141602,8|0,0:0|3:0,0:0:0:0:
148,124,63135,1,0,3:0:0:0:
148,124,63304,1,2,3:2:0:0:
79,26,63472,1,2,3:2:0:0:
158,26,63641,1,2,3:2:0:0:
215,80,63809,6,0,P|198:143|195:209,1,132.00000402832,0|8,3:0|0:0,0:0:0:0:
203,297,64315,1,0,3:0:0:0:
279,254,64483,2,0,P|310:245|343:242,1,66.0000020141602,0|4,3:0|3:0,0:0:0:0:
343,339,64821,1,0,3:0:0:0:
263,353,64989,1,8,0:0:0:0:
203,297,65158,6,0,L|196:231,1,66.0000020141602,2|4,3:2|3:0,0:0:0:0:
258,171,65495,2,0,L|264:105,1,66.0000020141602,8|0,0:0|3:0,0:0:0:0:
342,73,65832,2,0,L|365:11,1,66.0000020141602,2|8,3:2|0:0,0:0:0:0:
448,45,66169,1,8,3:2:0:0:
395,143,66337,1,8,0:0:0:0:
392,155,66506,6,0,P|404:219|408:285,1,132.00000402832,4|0,3:1|0:0,0:0:0:0:
271,365,67180,2,0,P|275:299|287:234,1,132.00000402832,8|2,0:0|0:0,0:0:0:0:
330,82,67854,6,0,L|198:93,1,132.00000402832,0|0,3:0|3:0,0:0:0:0:
131,236,68528,2,0,L|0:224,1,132.00000402832,8|2,0:0|0:0,0:0:0:0:
86,91,69203,6,0,P|145:65|211:65,1,132.00000402832,2|0,3:2|0:0,0:0:0:0:
258,128,69708,2,0,B|266:214|266:214|255:268,1,132.00000402832,2|0,0:0|0:0,0:0:0:0:
202,316,70214,2,0,L|136:308,1,66.0000020141602,0|0,0:0|3:0,0:0:0:0:
72,354,70551,5,0,3:0:0:0:
155,144,70888,1,2,0:0:0:0:
12,214,71225,1,10,0:0:0:0:
144,302,71562,1,2,3:2:0:0:
168,133,71899,6,0,P|232:121|298:117,1,132.00000402832,0|2,3:0|3:2,0:0:0:0:
367,259,72573,2,0,P|301:255|236:243,1,132.00000402832,10|2,0:0|0:0,0:0:0:0:
363,36,73247,6,0,L|374:167,1,132.00000402832,2|2,3:2|0:0,0:0:0:0:
242,254,73922,2,0,L|253:122,1,132.00000402832,10|2,0:0|3:2,0:0:0:0:
131,21,74596,6,0,B|86:11|86:11|0:19,1,132.00000402832,2|2,0:0|0:0,0:0:0:0:
33,97,75101,1,2,0:0:0:0:
33,97,75270,2,0,P|21:161|17:227,1,132.00000402832,2|2,3:2|3:2,0:0:0:0:
56,296,75776,1,8,0:0:0:0:
127,262,75944,6,0,B|170:254|170:254|213:262|213:262|255:254,1,132.00000402832,2|10,0:0|0:0,0:0:0:0:
326,292,76450,1,2,0:0:0:0:
384,239,76618,2,0,P|391:206|391:173,1,66.0000020141602,10|8,0:0|0:0,0:0:0:0:
363,99,76955,2,0,L|330:94,3,33.0000010070801,10|8|8|8,3:2|0:0|0:0|0:0,0:0:0:0:
307,62,77292,6,0,P|242:73|176:77,1,132.00000402832,4|0,3:1|3:0,0:0:0:0:
53,179,77967,2,0,P|118:182|183:194,1,132.00000402832,0|2,3:0|3:2,0:0:0:0:
287,314,78641,1,0,0:0:0:0:
444,296,78978,1,2,3:2:0:0:
425,138,79315,2,0,B|415:183|415:183|423:269,1,132.00000402832,2|2,3:2|3:2,0:0:0:0:
467,341,79821,1,0,3:0:0:0:
467,341,79989,6,0,P|408:315|342:315,1,132.00000402832,0|0,3:0|3:0,0:0:0:0:
290,254,80495,2,0,P|231:280|165:280,1,132.00000402832,2|0,0:0|0:0,0:0:0:0:
76,339,81000,2,0,P|69:306|69:273,1,66.0000020141602,2|0,3:2|3:0,0:0:0:0:
130,184,81337,6,0,P|141:119|145:53,1,132.00000402832,0|2,3:0|3:2,0:0:0:0:
74,11,81843,1,2,3:2:0:0:
7,97,82012,2,0,L|18:185,1,66.0000020141602,8|2,0:0|0:0,0:0:0:0:
83,283,82349,2,0,L|181:270,1,99.0000030212403,10|0,0:0|0:0,0:0:0:0:
214,291,82686,6,0,L|344:308,1,132.00000402832,10|4,3:2|3:0,0:0:0:0:
369,231,83191,2,0,P|367:198|360:165,1,66.0000020141602,10|0,3:2|3:0,0:0:0:0:
285,142,83528,1,4,3:0:0:0:
285,142,83697,2,0,P|286:110|295:78,1,66.0000020141602,10|0,3:2|3:0,0:0:0:0:
399,17,84034,6,0,L|464:23,1,66.0000020141602,0|8,3:0|0:0,0:0:0:0:
449,101,84371,2,0,L|512:118,1,66.0000020141602,8|4,0:0|3:0,0:0:0:0:
361,166,84708,6,0,L|295:172,1,66.0000020141602,8|0,0:0|3:0,0:0:0:0:
311,250,85045,2,0,L|247:267,1,66.0000020141602,2|8,0:0|0:0,0:0:0:0:
172,340,85382,6,0,L|139:335,3,33.0000010070801,4|0|0|0,3:0|3:0|3:0|3:0,0:0:0:0:
102,352,85719,2,0,L|69:356,3,33.0000010070801,4|0|0|0,3:0|3:0|3:0|3:0,0:0:0:0:
37,332,86056,2,0,P|34:315|35:299,3,33.0000010070801,4|0|0|0,3:0|3:0|3:0|3:0,0:0:0:0:
62,268,86394,5,8,3:2:0:0:
71,250,86478,1,8,0:0:0:0:
75,230,86562,1,8,0:0:0:0:
73,210,86646,1,8,0:0:0:0:
62,191,86731,6,0,B|59:145|59:145|66:120,2,71.9999978027344,4|0|0,3:2|0:0|0:0,0:0:0:0:
154,145,87236,2,0,B|163:99|163:99|176:77,2,71.9999978027344,4|0|0,3:2|0:0|0:0,0:0:0:0:
253,115,87742,6,0,B|324:101|324:101|375:111,1,116.999994644165,4|0,3:2|0:0,0:0:0:0:
410,100,88079,6,0,L|403:171,1,71.9999978027344,4|4,3:1|3:0,0:0:0:0:
435,332,88416,2,0,L|429:261,1,71.9999978027344,10|0,0:0|0:0,0:0:0:0:
306,309,88753,2,0,B|261:329|261:329|167:311,1,143.999995605469,2|10,3:2|0:0,0:0:0:0:
116,241,89259,1,0,0:0:0:0:
185,129,89427,6,0,P|220:131|255:139,1,71.9999978027344,2|4,3:2|3:0,0:0:0:0:
244,244,89764,2,0,P|174:261|102:258,1,143.999995605469,10|2,0:0|3:2,0:0:0:0:
29,130,90270,1,0,0:0:0:0:
101,173,90438,1,10,0:0:0:0:
27,215,90607,1,0,0:0:0:0:
22,115,90776,6,0,L|164:138,1,143.999995605469,2|10,3:2|0:0,0:0:0:0:
248,154,91281,1,0,0:0:0:0:
389,91,91450,2,0,L|318:103,1,71.9999978027344,2|4,3:2|3:0,0:0:0:0:
380,255,91787,2,0,P|377:219|369:184,1,71.9999978027344,10|0,0:0|3:0,0:0:0:0:
232,143,92124,6,0,P|214:212|217:284,1,143.999995605469,2|10,0:0|0:0,0:0:0:0:
283,339,92630,1,0,0:0:0:0:
371,275,92798,2,0,L|442:267,1,71.9999978027344,2|4,3:2|3:0,0:0:0:0:
333,178,93135,1,10,0:0:0:0:
236,277,93304,6,0,L|379:292,1,143.999995605469,6|4,0:0|3:0,0:0:0:0:
417,178,93809,2,0,P|381:180|346:188,1,71.9999978027344,8|0,0:0|0:0,0:0:0:0:
390,307,94146,2,0,P|425:314|460:317,1,71.9999978027344,2|4,3:2|3:0,0:0:0:0:
428,186,94483,1,8,0:0:0:0:
302,257,94652,6,0,B|266:265|231:257|231:257|195:248|160:257,1,143.999995605469,6|4,0:0|3:0,0:0:0:0:
76,301,95158,2,0,L|67:372,1,71.9999978027344,8|0,0:0|0:0,0:0:0:0:
83,209,95495,2,0,P|79:137|97:67,1,143.999995605469,2|8,3:2|0:0,0:0:0:0:
151,0,96000,1,0,3:0:0:0:
252,83,96169,6,0,P|285:71|321:69,1,71.9999978027344,14|4,3:2|3:0,0:0:0:0:
308,155,96506,2,0,P|343:152|378:159,1,71.9999978027344,8|0,0:0|3:0,0:0:0:0:
343,56,96843,2,0,P|378:62|410:79,1,71.9999978027344,8|4,0:0|3:0,0:0:0:0:
299,158,97180,1,8,0:0:0:0:
211,45,97349,6,0,P|280:27|352:29,1,143.999995605469,6|0,3:2|3:0,0:0:0:0:
175,136,97854,2,0,L|103:129,1,71.9999978027344,8|2,0:0|3:2,0:0:0:0:
40,69,98191,1,8,0:0:0:0:
26,85,98276,1,8,0:0:0:0:
20,105,98360,1,8,0:0:0:0:
18,126,98444,1,8,0:0:0:0:
21,147,98528,2,0,L|27:182,3,35.9999989013672,4|4|4|4,3:0|3:0|3:0|3:0,0:0:0:0:
41,199,98865,6,0,L|34:270,1,71.9999978027344,4|4,3:1|3:0,0:0:0:0:
156,151,99203,2,0,L|149:79,1,71.9999978027344,10|0,0:0|0:0,0:0:0:0:
123,246,99540,2,0,L|266:232,1,143.999995605469,2|10,3:2|0:0,0:0:0:0:
330,175,100045,1,0,0:0:0:0:
234,118,100214,6,0,P|198:123|164:134,1,71.9999978027344,2|4,3:2|3:0,0:0:0:0:
119,261,100551,2,0,P|188:278|260:276,1,143.999995605469,10|2,0:0|3:2,0:0:0:0:
355,206,101056,1,0,0:0:0:0:
378,289,101225,1,10,0:0:0:0:
363,198,101394,1,0,0:0:0:0:
386,298,101562,6,0,B|341:318|341:318|247:300,1,143.999995605469,2|10,3:2|0:0,0:0:0:0:
173,345,102068,1,0,0:0:0:0:
77,244,102236,2,0,P|113:248|147:262,1,71.9999978027344,2|4,3:2|3:0,0:0:0:0:
159,176,102573,2,0,P|189:194|214:220,1,71.9999978027344,10|0,0:0|3:0,0:0:0:0:
165,355,102910,5,2,0:0:0:0:
248,332,103079,1,4,3:0:0:0:
143,273,103247,2,0,L|57:264,1,71.9999978027344,10|0,0:0|0:0,0:0:0:0:
123,111,103585,2,0,L|130:182,1,71.9999978027344,2|4,3:2|3:0,0:0:0:0:
49,51,103922,1,10,0:0:0:0:
175,16,104090,6,0,B|220:36|220:36|314:18,1,143.999995605469,6|4,0:0|3:0,0:0:0:0:
400,146,104596,2,0,P|406:181|407:217,1,71.9999978027344,10|0,0:0|0:0,0:0:0:0:
271,185,104933,2,0,P|271:149|278:113,1,71.9999978027344,2|4,3:2|3:0,0:0:0:0:
413,131,105270,1,10,0:0:0:0:
479,250,105438,6,0,L|335:239,1,143.999995605469,6|4,0:0|3:0,0:0:0:0:
266,349,105944,2,0,L|194:354,1,71.9999978027344,10|0,0:0|0:0,0:0:0:0:
161,201,106281,2,0,L|232:206,1,71.9999978027344,2|4,3:2|3:0,0:0:0:0:
63,216,106618,2,0,P|56:180|56:144,1,71.9999978027344,10|0,0:0|3:0,0:0:0:0:
65,124,106871,1,0,0:0:0:0:
75,105,106955,6,0,L|146:100,1,71.9999978027344,14|4,3:2|3:0,0:0:0:0:
70,227,107292,2,0,L|65:298,1,71.9999978027344,8|0,0:0|3:0,0:0:0:0:
0,93,107630,2,0,L|70:81,1,71.9999978027344,8|4,0:0|3:0,0:0:0:0:
80,219,107967,1,8,0:0:0:0:
225,123,108135,6,0,L|82:100,1,143.999995605469,6|4,3:2|3:0,0:0:0:0:
177,277,108641,2,0,P|176:241|170:205,1,71.9999978027344,8|2,0:0|3:2,0:0:0:0:
66,113,108978,2,0,P|59:148|59:184,1,71.9999978027344,0|4,0:0|3:0,0:0:0:0:
93,23,109315,2,0,L|21:28,1,71.9999978027344,8|0,0:0|3:0,0:0:0:0:
173,110,109652,6,0,L|244:104,1,71.9999978027344,6|0,3:2|3:0,0:0:0:0:
178,198,109989,2,0,L|248:211,1,71.9999978027344,8|0,0:0|3:0,0:0:0:0:
138,276,110326,2,0,L|192:323,1,71.9999978027344,8|4,0:0|3:0,0:0:0:0:
54,302,110663,2,0,L|59:373,1,71.9999978027344,8|4,0:0|3:0,0:0:0:0:
11,222,111000,5,6,3:2:0:0:
42,96,111169,1,10,0:0:0:0:
244,103,111506,6,0,L|239:65,2,38.9999982147218,0|0|6,3:0|3:0|3:2,0:0:0:0:
259,216,111843,2,0,L|104:239,1,155.999992858887,10|2,0:0|0:0,0:0:0:0:
138,100,112349,1,4,3:1:0:0:
256,192,112433,12,0,116394,0:0:0:0:
