osu file format v14

[General]
AudioFilename: audio.mp3
AudioLeadIn: 0
PreviewTime: 87995
Countdown: 0
SampleSet: Soft
StackLeniency: 0.4
Mode: 0
LetterboxInBreaks: 0
WidescreenStoryboard: 0

[Editor]
Bookmarks: 22289,34423,45210,55996,66783,116671
DistanceSpacing: 0.2
BeatDivisor: 4
GridSize: 32
TimelineZoom: 2.899999

[Metadata]
Title:Sakura no Zenya
TitleUnicode:サクラノ前夜
Artist:Kano
ArtistUnicode:鹿乃
Creator:[XV]
Version:Kisses' Insane
Source:
Tags:[_L_u_k_a_s_], Akitoshi, Anxient, Kencho, LGV894, Kisses, Lulkas, utaite, すきなの, sukinano, the night before the cherry blossoms, Crowie, Victorica, Miriko, -Laura-, Corinn
BeatmapID:1261280
BeatmapSetID:594067

[Difficulty]
HPDrainRate:5
CircleSize:4
OverallDifficulty:8.3
ApproachRate:9.2
SliderMultiplier:1.8
SliderTickRate:1

[Events]
//Background and Video events
0,0,"k+k.jpg",0,0
//Break Periods
//Storyboard Layer 0 (Background)
//Storyboard Layer 1 (Fail)
//Storyboard Layer 2 (Pass)
//Storyboard Layer 3 (Foreground)
//Storyboard Sound Samples

[TimingPoints]
439,337.078651685393,4,2,1,40,1,0
439,-166.666666666667,4,2,1,40,0,0
8360,-166.666666666667,4,2,1,5,0,0
8528,-166.666666666667,4,2,1,40,0,0
32798,-166.666666666667,4,2,0,35,0,0
33135,-200,4,2,0,5,0,0
33472,-200,4,2,0,50,0,0
34146,-100,4,2,0,60,0,0
43585,-100,4,2,0,70,0,0
44596,-100,4,2,0,40,0,0
44933,-133.333333333333,4,2,0,50,0,0
55719,-114.942528735632,4,2,0,60,0,0
66506,-133.333333333333,4,2,0,50,0,0
74596,-111.111111111111,4,2,0,50,0,0
76955,-133.333333333333,4,2,0,40,0,0
77292,-133.333333333333,4,2,0,55,0,0
82349,-90.9090909090909,4,2,0,55,0,0
82686,-105.263157894737,4,2,0,60,0,0
85379,-105.263157894737,4,2,0,70,0,0
85467,-105.263157894737,4,2,0,40,0,0
85719,-105.263157894737,4,2,0,70,0,0
85804,-105.263157894737,4,2,0,40,0,0
86056,-105.263157894737,4,2,0,70,0,0
86141,-105.263157894737,4,2,0,40,0,0
86394,-105.263157894737,4,2,0,30,0,0
86478,-105.263157894737,4,2,0,40,0,0
86562,-105.263157894737,4,2,0,60,0,0
86646,-105.263157894737,4,2,0,70,0,0
86731,-105.263157894737,4,2,0,75,0,0
87742,-166.666666666667,4,2,0,75,0,0
88079,-90.9090909090909,4,2,0,70,0,1
96169,-90.9090909090909,4,2,0,75,0,1
97517,-90.9090909090909,4,2,0,70,0,1
98191,-90.9090909090909,4,2,0,50,0,1
98528,-90.9090909090909,4,2,0,65,0,1
98613,-90.9090909090909,4,2,0,70,0,1
98697,-90.9090909090909,4,2,0,75,0,1
98781,-90.9090909090909,4,2,0,80,0,1
98865,-90.9090909090909,4,2,0,70,0,1
106955,-90.9090909090909,4,2,0,75,0,1
108304,-90.9090909090909,4,2,0,70,0,1
109652,-90.9090909090909,4,2,0,60,0,1
109989,-90.9090909090909,4,2,0,70,0,1
110326,-90.9090909090909,4,2,0,85,0,1
110663,-90.9090909090909,4,2,0,100,0,1
111000,-90.9090909090909,4,2,0,90,0,1
111506,-90.9090909090909,4,2,0,80,0,1
112180,-125,4,2,0,70,0,1
112349,-100,4,2,0,70,0,0
112433,-100,4,2,0,40,0,0
112686,-100,4,2,0,38,0,0
113023,-100,4,2,0,36,0,0
113360,-100,4,2,0,34,0,0
113697,-100,4,2,0,32,0,0
114034,-100,4,2,0,30,0,0
114371,-100,4,2,0,28,0,0
114708,-100,4,2,0,26,0,0
115045,-100,4,2,0,24,0,0
115382,-100,4,2,0,22,0,0
115719,-100,4,2,0,20,0,0
116056,-100,4,2,0,18,0,0
116394,-100,4,2,0,5,0,0

[Colours]
Combo1 : 166,203,215
Combo2 : 255,125,138
Combo3 : 108,134,193
Combo4 : 99,89,213

[HitObjects]
237,139,439,5,2,0:0:0:0:
240,117,776,1,0,0:0:0:0:
243,95,1113,1,2,0:0:0:0:
162,227,1450,5,2,0:0:0:0:
159,205,1787,1,0,0:0:0:0:
156,183,2124,1,2,0:0:0:0:
218,303,2461,6,0,B|309:262|330:382|417:333,1,215.999993408203,2|2,0:0|0:0,0:0:0:0:
421,311,3472,1,0,0:0:0:0:
424,289,3809,1,2,0:0:0:0:
340,189,4146,5,2,0:0:0:0:
342,209,4484,1,0,0:0:0:0:
345,230,4821,1,2,0:0:0:0:
235,321,5158,5,2,0:0:0:0:
256,315,5326,1,0,0:0:0:0:
277,309,5495,1,0,0:0:0:0:
171,255,5832,6,0,P|125:229|73:235,2,107.999996704102,2|0|2,0:0|0:0|0:0,0:0:0:0:
265,370,6843,2,0,P|317:375|363:349,2,107.999996704102,2|0|2,0:0|0:0|0:0,0:0:0:0:
222,178,7854,2,0,P|292:168|396:158,1,161.999995056153,2|0,0:0|0:0,0:0:0:0:
388,156,8528,6,0,P|414:119|399:53,2,107.999996704102,2|0|2,0:0|0:0|0:0,0:0:0:0:
306,325,9540,2,0,P|294:273|322:228,2,107.999996704102,2|0|2,0:0|0:0|0:0,0:0:0:0:
424,296,10551,1,2,0:0:0:0:
402,291,10719,1,0,0:0:0:0:
380,287,10888,1,0,0:0:0:0:
276,192,11225,6,0,L|168:202,1,107.999996704102,2|0,0:0|0:0,0:0:0:0:
84,352,11899,2,0,P|58:319|64:245,1,107.999996704102,2|0,0:0|0:0,0:0:0:0:
90,176,12405,1,0,0:0:0:0:
24,97,12573,6,0,L|99:85,1,53.9999983520508,2|0,0:0|0:0,0:0:0:0:
203,38,12910,2,0,L|149:29,1,53.9999983520508,2|0,0:0|0:0,0:0:0:0:
220,201,13247,2,0,P|256:170|261:108,1,107.999996704102,2|0,0:0|0:0,0:0:0:0:
271,256,13922,6,0,L|135:242,1,107.999996704102,2|0,0:0|0:0,0:0:0:0:
347,379,14596,2,0,P|396:354|452:360,1,107.999996704102,2|0,0:0|0:0,0:0:0:0:
445,144,15270,6,0,P|414:182|422:251,1,107.999996704102,2|0,0:0|0:0,0:0:0:0:
494,209,15776,1,0,0:0:0:0:
490,86,15944,2,0,P|437:93|384:102,1,107.999996704102,2|0,0:0|0:0,0:0:0:0:
446,300,16618,6,0,P|407:270|335:280,2,107.999996704102,2|0|2,0:0|0:0|0:0,0:0:0:0:
267,347,17630,2,0,P|240:349|209:358,1,53.9999983520508,2|0,0:0|0:0,0:0:0:0:
98,204,17967,6,0,L|117:310,1,107.999996704102,2|0,0:0|0:0,0:0:0:0:
234,65,18641,2,0,L|215:171,1,107.999996704102,2|0,0:0|0:0,0:0:0:0:
131,120,19146,1,0,0:0:0:0:
178,237,19315,6,0,P|223:210|293:222,1,107.999996704102,2|0,0:0|0:0,0:0:0:0:
468,305,19989,2,0,P|422:332|369:328,1,107.999996704102,2|0,0:0|0:0,0:0:0:0:
138,342,20663,6,0,L|253:316,1,107.999996704102,2|0,0:0|0:0,0:0:0:0:
312,257,21169,1,0,0:0:0:0:
245,183,21337,2,0,P|240:153|235:129,2,53.9999983520508,2|0|2,0:0|0:0|0:0,0:0:0:0:
420,92,22012,6,0,P|365:100|320:67,1,107.999996704102,2|0,0:0|0:0,0:0:0:0:
237,29,22517,1,0,0:0:0:0:
169,108,22686,2,0,L|183:226,1,107.999996704102,2|0,0:0|0:0,0:0:0:0:
230,295,23191,1,0,0:0:0:0:
109,257,23360,6,0,P|73:300|80:368,1,107.999996704102,2|0,0:0|0:0,0:0:0:0:
215,187,24034,2,0,P|208:129|175:91,1,107.999996704102,2|0,0:0|0:0,0:0:0:0:
12,185,24540,1,0,0:0:0:0:
12,185,24708,6,0,L|134:172,2,107.999996704102,2|0|2,0:0|0:0|0:0,0:0:0:0:
195,8,25719,1,2,0:0:0:0:
305,122,26056,6,0,L|292:181,1,53.9999983520508,2|0,0:0|0:0,0:0:0:0:
178,256,26394,2,0,P|207:240|240:236,1,53.9999983520508,2|0,0:0|0:0,0:0:0:0:
407,303,26731,2,0,P|347:308|298:272,1,107.999996704102,2|0,0:0|0:0,0:0:0:0:
348,110,27236,1,0,0:0:0:0:
348,110,27405,6,0,L|367:224,1,107.999996704102,2|0,0:0|0:0,0:0:0:0:
189,20,28079,2,0,P|176:76|170:126,1,107.999996704102,2|0,0:0|0:0,0:0:0:0:
221,332,28753,6,0,P|172:310|116:317,2,107.999996704102,2|0|0,0:0|0:0|0:0,0:0:0:0:
349,271,29764,1,2,0:0:0:0:
244,66,30101,6,0,P|253:115|261:191,1,107.999996704102,2|0,0:0|0:0,0:0:0:0:
401,12,30776,2,0,P|390:64|382:118,1,107.999996704102,2|0,0:0|0:0,0:0:0:0:
480,322,31450,2,0,P|473:268|461:215,1,107.999996704102,2|0,0:0|0:0,0:0:0:0:
349,217,31955,1,2,0:0:0:0:
349,217,32124,1,2,0:0:0:0:
256,192,32208,12,0,33135,0:0:0:0:
209,31,33472,5,0,1:0:0:0:
255,243,33641,1,0,3:0:0:0:
209,31,33809,1,0,1:0:0:0:
288,154,33978,1,0,1:0:0:0:
288,154,34062,1,0,1:0:0:0:
288,154,34146,6,0,L|470:137,1,180,4|2,3:1|0:0,0:0:0:0:
391,47,34652,1,2,0:0:0:0:
255,243,34821,2,0,P|199:198|214:80,1,180,2|2,3:0|0:0,0:0:0:0:
97,50,35326,1,2,0:0:0:0:
97,50,35495,6,0,P|184:73|257:24,1,180,2|2,3:0|0:0,0:0:0:0:
437,181,36000,1,2,0:0:0:0:
437,181,36169,2,0,P|358:194|301:114,1,180,2|2,3:0|0:0,0:0:0:0:
390,71,36674,2,0,L|384:116,1,45,0|0,1:0|0:0,0:0:0:0:
298,306,36843,6,0,P|395:290|489:279,1,180,2|2,3:2|0:0,0:0:0:0:
360,201,37349,1,2,0:0:0:0:
360,201,37517,2,0,P|315:199|273:215,1,90,2|0,3:0|0:0,0:0:0:0:
214,380,37854,2,0,L|203:291,1,90,0|0,3:0|0:0,3:0:0:0:
135,242,38107,1,0,3:3:0:0:
122,252,38191,6,0,L|111:341,1,90,0|0,3:0|0:0,0:0:0:0:
40,190,38528,2,0,P|19:151|18:101,1,90,2|2,0:0|0:0,0:0:0:0:
27,285,38865,1,2,3:0:0:0:
111,123,39034,1,0,1:0:0:0:
183,200,39203,1,2,3:2:0:0:
117,13,39371,1,4,3:0:0:0:
285,88,39540,6,0,L|185:77,1,90,4|0,3:1|0:0,0:0:0:0:
1,28,39877,2,0,P|41:9|86:10,1,90,2|2,0:0|0:0,0:0:0:0:
135,172,40214,2,0,P|93:188|50:180,1,90,2|0,3:0|0:0,0:0:0:0:
187,352,40551,2,0,L|201:262,1,90,2|2,0:0|0:0,0:0:0:0:
275,112,40888,6,0,L|288:200,1,90,2|0,3:0|0:0,0:0:0:0:
332,39,41225,2,0,P|295:20|244:24,1,90,2|2,0:0|0:0,0:0:0:0:
241,28,41478,1,0,0:0:0:0:
236,35,41562,1,2,3:0:0:0:
168,116,41731,1,0,1:0:0:0:
88,53,41899,1,2,3:2:0:0:
129,232,42068,1,2,1:2:0:0:
0,35,42236,6,0,P|91:24|187:10,1,180,4|2,3:1|0:0,0:0:0:0:
260,151,42742,1,2,1:2:0:0:
346,35,42910,1,2,3:0:0:0:
189,91,43079,1,4,3:0:0:0:
388,216,43247,6,0,P|320:269|226:241,1,180,6|2,1:2|3:2,0:0:0:0:
299,171,43753,1,0,1:0:0:0:
351,355,43922,2,0,L|456:338,1,90,2|2,1:2|3:2,0:0:0:0:
499,214,44259,2,0,P|461:192|411:193,1,90,0|4,1:2|0:3,0:0:0:0:
290,0,44596,1,0,1:0:0:0:
292,34,44680,1,0,1:0:0:0:
295,69,44764,1,0,1:0:0:0:
299,104,44848,1,0,1:0:0:0:
303,139,44933,6,0,P|363:103|435:120,1,135.000005149842,4|0,0:0|0:0,0:0:0:0:
223,213,45607,2,0,P|157:223|102:188,1,135.000005149842
78,294,46113,1,0,3:0:0:0:
12,168,46281,6,0,L|0:101,1,67.5000025749208,2|0,3:2|0:0,0:0:0:0:
109,0,46618,2,0,P|98:29|102:75,1,67.5000025749208,2|0,0:0|0:0,0:0:0:0:
178,131,46955,2,0,P|234:96|318:115,1,135.000005149842,2|0,0:0|0:0,0:0:0:0:
451,278,47630,6,0,L|319:251,2,135.000005149842,0|0|0,3:0|0:0|0:0,0:0:0:0:
493,148,48472,1,0,0:0:0:0:
493,148,48641,2,0,P|466:165|418:172,1,67.5000025749208,2|0,0:0|3:0,0:0:0:0:
250,201,48978,6,0,P|290:250|271:331,1,135.000005149842,2|0,3:2|0:0,0:0:0:0:
151,213,49483,1,0,0:0:0:0:
151,213,49652,2,0,P|153:180|168:148,1,67.5000025749208,2|0,0:0|3:0,0:0:0:0:
205,295,49989,1,2,0:0:0:0:
59,212,50158,1,0,1:0:0:0:
156,359,50326,6,0,P|210:326|281:335,1,135.000005149842,4|0,3:1|0:0,0:0:0:0:
363,266,50832,1,2,0:0:0:0:
434,354,51000,2,0,L|283:372,1,135.000005149842,2|0,0:0|0:0,0:0:0:0:
324,248,51506,1,2,0:0:0:0:
428,171,51674,6,0,P|474:224|457:291,1,135.000005149842,2|0,0:0|0:0,0:0:0:0:
488,118,52180,1,2,0:0:0:0:
488,118,52349,2,0,L|354:137,1,135.000005149842,2|0,0:0|0:0,0:0:0:0:
291,64,52854,1,2,0:0:0:0:
398,244,53023,5,2,0:0:0:0:
267,209,53360,1,0,0:0:0:0:
138,251,53697,1,2,0:0:0:0:
76,130,54034,1,0,0:0:0:0:
85,314,54371,6,0,P|143:280|226:291,1,135.000005149842,2|0,3:2|0:0,0:0:0:0:
273,189,54877,1,2,0:0:0:0:
372,241,55045,2,0,P|366:261|361:282,2,33.7500012874604,2|2|2,0:0|0:0|0:0,0:0:0:0:
458,147,55382,2,0,P|462:165|465:182,2,33.7500012874604,2|2|2,0:0|0:0|0:0,0:0:0:0:
411,352,55719,6,0,P|357:308|267:334,1,156.60000131424,4|0,3:1|1:0,0:0:0:0:
352,108,56394,2,0,P|429:123|484:67,1,156.60000131424,2|0,3:2|3:0,0:0:0:0:
405,44,56899,1,0,1:0:0:0:
485,198,57068,6,0,L|467:285,1,78.3000006571198,2|0,3:2|0:0,0:0:0:0:
363,376,57405,2,0,P|361:335|346:300,1,78.3000006571198,2|0,1:2|0:0,0:0:0:0:
367,213,57742,1,0,3:0:0:0:
272,356,57910,1,2,3:2:0:0:
224,253,58079,1,2,3:2:0:0:
127,319,58247,1,2,3:2:0:0:
116,322,58332,1,2,0:0:0:0:
105,326,58416,6,0,P|77:280|90:213,1,117.45000098568,2|0,3:2|0:0,0:0:0:0:
101,196,58753,2,0,L|8:180,1,78.3000006571198,0|0,1:0|0:0,0:0:0:0:
161,122,59090,2,0,P|197:102|248:107,1,78.3000006571198,2|0,3:2|0:0,0:0:0:0:
392,47,59427,2,0,P|353:46|319:26,1,78.3000006571198,2|0,3:2|0:0,0:0:0:0:
287,208,59764,6,0,L|445:184,1,156.60000131424,2|0,3:2|1:0,0:0:0:0:
385,285,60270,1,2,0:0:0:0:
471,327,60438,1,2,3:2:0:0:
354,166,60607,1,0,1:2:0:0:
285,353,60776,1,0,1:2:0:0:
225,194,60944,1,0,1:2:0:0:
78,325,61113,6,0,L|172:308,1,78.3000006571198,6|0,3:2|0:0,0:0:0:0:
318,174,61450,2,0,P|316:218|297:250,1,78.3000006571198,2|0,1:2|3:0,0:0:0:0:
312,373,61787,2,0,P|369:331|450:353,1,156.60000131424,2|0,3:2|0:0,0:0:0:0:
461,143,62292,1,0,1:0:0:0:
461,143,62461,6,0,L|476:240,1,78.3000006571198,2|0,0:0|3:0,0:0:0:0:
471,363,62798,1,0,1:0:0:0:
378,245,62967,1,2,3:2:0:0:
217,369,63135,2,0,L|384:341,1,156.60000131424,2|0,3:2|3:2,0:0:0:0:
282,230,63641,1,2,3:2:0:0:
282,230,63809,6,0,P|236:205|165:213,1,117.45000098568,2|0,3:2|0:0,0:0:0:0:
153,224,64146,2,0,L|167:140,1,78.3000006571198,2|0,1:2|3:0,0:0:0:0:
25,249,64483,2,0,L|42:387,1,117.45000098568,2|0,3:2|0:0,0:0:0:0:
55,384,64821,2,0,P|94:369|130:368,1,78.3000006571198,2|0,3:2|1:0,0:0:0:0:
360,284,65158,6,0,P|301:326|222:304,2,156.60000131424,2|0|2,3:2|1:0|3:2,0:0:0:0:
282,230,66000,1,0,1:0:0:0:
453,370,66169,1,0,1:2:0:0:
484,199,66337,1,0,1:0:0:0:
236,360,66506,6,0,L|387:333,2,135.000005149842,4|0|0,3:1|0:0|1:0,0:0:0:0:
64,167,67517,2,0,L|83:246,1,67.5000025749208,2|0,0:0|0:0,0:0:0:0:
34,376,67854,6,0,P|20:346|21:309,1,67.5000025749208,2|0,3:2|3:0,0:0:0:0:
171,196,68191,2,2,P|185:166|183:129,1,67.5000025749208,2|0,3:2|3:0,0:0:0:0:
316,278,68528,2,0,L|184:306,1,135.000005149842,2|2,1:2|0:0,0:0:0:0:
380,335,69034,1,2,0:0:0:0:
380,335,69203,6,0,P|346:286|368:207,1,135.000005149842,2|0,3:2|0:0,0:0:0:0:
492,281,69708,2,0,L|426:269,1,67.5000025749208,2|0,0:0|1:0,0:0:0:0:
419,144,70045,1,2,0:0:0:0:
419,144,70214,2,0,P|451:143|491:120,1,67.5000025749208,2|0,0:0|3:0,0:0:0:0:
423,48,70551,6,0,L|288:71,2,135.000005149842,2|2|0,3:2|0:0|1:0,0:0:0:0:
429,220,71394,1,2,3:2:0:0:
358,154,71562,1,0,1:0:0:0:
482,127,71731,1,2,0:0:0:0:
475,282,71899,6,0,P|419:246|354:256,1,135.000005149842,0|2,3:0|3:2,0:0:0:0:
81,364,72573,2,0,L|222:344,1,135.000005149842,2|0,1:2|3:0,0:0:0:0:
108,170,73247,6,0,P|70:124|88:41,1,135.000005149842,2|0,3:2|3:0,0:0:0:0:
270,0,73922,2,0,L|259:66,1,67.5000025749208,2|0,1:2|0:0,0:0:0:0:
332,135,74259,2,0,P|343:168|342:203,1,67.5000025749208,2|0,3:2|1:0,0:0:0:0:
240,334,74596,6,0,L|409:311,1,161.999995056153,2|0,0:0|0:0,0:0:0:0:
480,151,75101,1,2,0:0:0:0:
480,151,75270,2,0,P|398:160|345:108,1,161.999995056153,2|0,0:0|0:0,0:0:0:0:
192,75,75776,1,2,0:0:0:0:
192,75,75944,6,0,L|206:171,1,80.9999975280763,2|0,0:0|0:0,0:0:0:0:
60,278,76281,2,0,P|102:279|148:249,1,80.9999975280763,2|2,1:2|0:0,0:0:0:0:
0,188,76618,1,2,1:2:0:0:
0,188,76787,1,0,1:0:0:0:
145,362,76955,1,2,1:2:0:0:
171,355,77040,1,0,1:0:0:0:
197,349,77124,1,0,1:0:0:0:
223,344,77208,1,0,1:0:0:0:
249,338,77292,6,0,L|395:359,1,135.000005149842,4|0,3:1|3:0,0:0:0:0:
488,145,77967,2,0,P|426:131|359:175,1,135.000005149842,2|0,3:2|3:0,0:0:0:0:
236,58,78472,1,2,0:0:0:0:
236,58,78641,6,0,L|378:41,2,135.000005149842,2|0|0,3:2|3:0|3:0,0:0:0:0:
52,181,79652,1,0,3:0:0:0:
111,274,79821,1,0,3:0:0:0:
111,274,79905,1,0,3:0:0:0:
111,274,79989,6,0,P|180:286|240:244,1,135.000005149842,2|0,3:2|0:0,0:0:0:0:
336,171,80495,2,0,L|346:245,1,67.5000025749208,2|0,0:0|3:0,0:0:0:0:
380,339,80832,1,2,0:0:0:0:
380,339,81000,2,0,P|414:320|463:315,1,67.5000025749208,2|0,3:2|3:0,0:0:0:0:
270,347,81337,6,0,P|206:363|141:311,1,135.000005149842,2|0,3:2|3:2,0:0:0:0:
118,142,81843,1,0,3:2:0:0:
220,274,82012,1,0,1:0:0:0:
12,339,82180,1,0,3:0:0:0:
186,195,82349,6,0,L|38:171,1,148.50000453186,6|0,1:2|0:0,0:0:0:0:
24,161,82686,6,0,P|8:123|12:80,1,85.4999977169037,2|0,1:2|0:0,0:0:0:0:
88,11,83023,1,0,3:0:0:0:
107,229,83191,6,0,P|101:188|116:147,1,85.4999977169037,2|0,1:2|0:0,0:0:0:0:
207,100,83528,1,0,3:0:0:0:
180,305,83697,6,0,P|185:264|210:228,1,85.4999977169037,2|0,1:2|0:0,0:0:0:0:
309,206,84034,1,0,3:0:0:0:
309,206,84203,1,0,3:0:0:0:
367,287,84371,6,0,L|452:275,1,85.4999977169037,2|0,1:2|3:0,0:0:0:0:
268,337,84708,2,0,B|199:306|179:390|101:359,1,170.999995433807,0|0,1:0|3:3,0:0:0:0:
121,259,85214,1,0,1:0:0:0:
58,174,85382,5,0,1:0:0:0:
75,160,85467,1,0,1:0:0:0:
95,151,85551,1,0,1:0:0:0:
119,146,85635,1,0,1:0:0:0:
144,149,85719,1,0,1:0:0:0:
170,162,85804,1,0,1:0:0:0:
191,181,85888,1,0,1:0:0:0:
210,201,85972,1,0,1:0:0:0:
243,221,86056,5,0,1:0:0:0:
276,223,86141,1,0,1:0:0:0:
312,210,86225,1,0,1:0:0:0:
341,179,86309,1,0,1:0:0:0:
345,131,86394,1,0,1:0:0:0:
322,89,86478,1,0,1:0:0:0:
282,66,86562,5,0,1:0:0:0:
286,95,86646,1,0,1:0:0:0:
289,124,86731,1,4,1:2:0:0:
397,101,86899,1,0,3:0:0:0:
505,77,87068,1,0,3:0:0:0:
256,231,87236,5,4,1:2:0:0:
364,208,87405,1,0,3:0:0:0:
472,184,87573,1,0,3:0:0:0:
321,24,87742,5,4,1:2:0:0:
321,24,88079,5,6,0:2:0:0:
373,230,88247,1,0,3:0:0:0:
213,144,88416,2,0,L|326:130,1,99.0000030212403,2|0,1:2|0:0,0:0:0:0:
503,46,88753,2,0,P|465:28|405:23,1,99.0000030212403,2|0,0:2|0:0,0:0:0:0:
497,224,89090,1,0,1:0:0:0:
497,224,89259,1,0,3:3:0:0:
304,36,89427,5,2,3:2:0:0:
267,194,89596,1,0,3:0:0:0:
50,30,89764,2,0,P|93:10|143:6,1,99.0000030212403,2|0,1:2|0:0,0:0:0:0:
242,98,90101,1,2,3:2:0:0:
381,0,90270,1,0,3:0:0:0:
467,197,90438,1,2,1:2:0:0:
510,64,90607,1,0,3:0:0:0:
367,271,90776,6,0,P|347:238|343:176,1,99.0000030212403,2|0,3:2|0:0,0:0:0:0:
244,325,91113,1,2,1:2:0:0:
244,325,91281,1,0,3:0:0:0:
483,278,91450,1,2,3:2:0:0:
415,375,91618,1,0,3:0:0:0:
254,191,91787,2,0,L|410:172,1,148.50000453186,2|0,1:2|0:0,0:0:0:0:
482,117,92124,6,0,P|430:78|346:93,1,148.50000453186,2|0,0:0|0:0,0:0:0:0:
216,2,92461,2,0,L|314:11,1,99.0000030212403,2|0,1:2|0:0,0:0:0:0:
254,191,92798,1,2,3:2:0:0:
477,19,92967,1,0,3:0:0:0:
512,192,93135,1,2,1:2:0:0:
261,83,93304,6,0,P|167:123|147:216,1,198.000006042481,4|0,0:0|0:0,0:0:0:0:
0,348,93809,2,0,P|46:328|100:323,1,99.0000030212403,0|0,1:0|0:0,0:0:0:0:
282,384,94146,1,2,3:2:0:0:
339,207,94315,1,0,3:0:0:0:
427,314,94483,1,0,1:0:0:0:
236,189,94652,6,0,L|456:164,1,198.000006042481,4|0,0:0|0:0,0:0:0:0:
505,10,95158,2,0,P|456:8|400:35,1,99.0000030212403,0|0,1:0|0:0,0:0:0:0:
158,65,95495,2,0,P|207:63|253:82,1,99.0000030212403,2|0,3:2|0:0,0:0:0:0:
418,264,95832,2,0,L|432:167,1,99.0000030212403,2|0,1:2|3:0,0:0:0:0:
188,179,96169,5,4,1:2:0:0:
224,384,96337,1,0,3:0:0:0:
208,92,96506,5,0,1:0:0:0:
168,322,96674,1,0,3:0:0:0:
163,15,96843,5,0,1:0:0:0:
245,242,97012,1,0,3:0:0:0:
308,110,97180,1,0,1:0:0:0:
93,54,97349,6,0,L|295:33,1,198.000006042481,4|0,0:2|0:0,0:0:0:0:
481,54,97854,1,0,1:0:0:0:
356,191,98023,1,0,3:2:0:0:
356,191,98107,1,0,3:0:0:0:
339,216,98191,5,0,1:0:0:0:
330,249,98276,1,0,1:0:0:0:
333,283,98360,1,0,1:0:0:0:
348,319,98444,1,0,1:0:0:0:
381,340,98528,2,0,L|438:329,1,49.5000015106202,4|4,1:3|3:0,0:0:0:0:
258,384,98697,2,0,L|195:372,1,49.5000015106202,4|4,1:3|3:0,0:0:0:0:
63,268,98865,6,0,P|122:233|201:243,1,148.50000453186,6|0,0:0|0:0,0:0:0:0:
146,321,99203,2,0,L|-14:298,1,148.50000453186,2|0,1:2|0:0,0:0:0:0:
88,222,99540,2,0,P|48:193|0:187,1,99.0000030212403,2|0,3:2|0:0,0:0:0:0:
178,87,99877,1,2,1:2:0:0:
178,87,100045,1,0,3:0:0:0:
255,287,100214,5,2,3:2:0:0:
298,161,100382,1,0,3:0:0:0:
103,330,100551,2,0,P|51:327|11:301,1,99.0000030212403,2|0,1:2|0:0,0:0:0:0:
204,384,100888,5,2,3:2:0:0:
187,202,101056,1,0,3:0:0:0:
376,302,101225,1,2,1:2:0:0:
401,192,101394,1,0,3:0:0:0:
118,266,101562,6,0,P|96:228|103:163,1,99.0000030212403,2|0,3:2|0:0,0:0:0:0:
329,72,101899,1,2,1:2:0:0:
329,72,102068,1,0,3:0:0:0:
135,0,102236,1,2,3:2:0:0:
162,127,102405,1,0,3:0:0:0:
399,8,102573,2,0,P|426:52|426:105,1,99.0000030212403,2|0,2:0|0:0,0:0:0:0:
262,266,102910,5,2,3:2:0:0:
456,315,103079,1,0,3:0:0:0:
375,189,103247,1,2,1:2:0:0:
324,364,103416,1,0,3:0:0:0:
173,248,103585,2,0,L|281:231,2,99.0000030212403,2|0|0,0:2|3:0|1:2,0:0:0:0:
219,83,104090,6,0,P|114:64|41:130,1,198.000006042481,6|0,0:0|0:0,0:0:0:0:
152,17,104596,2,0,L|267:-1,1,99.0000030212403,2|0,1:2|0:2,0:0:0:0:
270,190,104933,1,2,3:2:0:0:
412,15,105101,1,0,3:0:0:0:
482,113,105270,1,2,1:2:0:0:
238,71,105438,6,0,L|30:44,1,198.000006042481,6|0,0:0|0:0,0:0:0:0:
3,186,105944,2,0,P|46:163|100:162,1,99.0000030212403,2|0,1:2|0:0,0:0:0:0:
331,108,106281,2,0,P|341:60|325:15,1,99.0000030212403,2|0,3:2|0:0,0:0:0:0:
237,166,106618,2,0,L|248:284,1,99.0000030212403,2|0,1:2|3:0,0:0:0:0:
302,327,106871,1,0,3:3:0:0:
302,327,106955,5,6,1:2:0:0:
76,258,107124,1,0,3:0:0:0:
349,238,107292,5,0,1:0:0:0:
112,346,107461,1,0,3:0:0:0:
410,319,107630,5,0,1:0:0:0:
232,229,107798,1,0,3:0:0:0:
197,384,107967,1,0,1:0:0:0:
0,161,108135,6,0,P|78:111|186:135,1,198.000006042481,6|0,0:2|0:0,0:0:0:0:
270,29,108641,1,0,1:0:0:0:
383,147,108809,1,0,3:2:0:0:
358,142,108894,1,0,3:0:0:0:
333,136,108978,1,0,3:0:0:0:
359,234,109146,1,0,3:0:0:0:
406,65,109315,2,0,L|508:51,1,99.0000030212403,0|0,1:0|0:0,0:0:0:0:
463,181,109652,5,6,1:2:0:0:
322,53,109821,1,0,3:0:0:0:
269,186,109989,1,0,1:0:0:0:
417,87,110158,1,0,3:0:0:0:
301,300,110326,5,0,1:0:0:0:
208,74,110495,1,0,3:0:0:0:
65,242,110663,1,0,1:0:0:0:
185,38,110832,1,0,3:0:0:0:
318,172,111000,5,2,1:2:0:0:
27,91,111169,1,2,1:2:0:0:
27,91,111506,5,0,3:0:0:0:
30,110,111590,1,0,3:0:0:0:
33,129,111674,1,0,3:2:0:0:
206,33,111843,1,0,1:2:0:0:
317,202,112180,6,0,L|322:166,2,36,2|2|6,0:0|0:0|0:2,0:0:0:0:
256,192,112433,12,0,116394,0:0:0:0:
