osu file format v14

[General]
AudioFilename: audio.mp3
AudioLeadIn: 0
PreviewTime: 80190
Countdown: 0
SampleSet: Soft
StackLeniency: 0.3
Mode: 0
LetterboxInBreaks: 0
WidescreenStoryboard: 1

[Editor]
DistanceSpacing: 1
BeatDivisor: 2
GridSize: 4
TimelineZoom: 1.9

[Metadata]
Title:Q & A
TitleUnicode:「Q」&「A」
Artist:Kano
ArtistUnicode:鹿乃
Creator:Reillia
Version:Easy
Source:
Tags:Shizuku- Kowari [C_u_r_i] Curi グシミヤギ ヒデユキ Gushimiyagi Hideyuki rye 3rd album じん jin Japanese Pop
BeatmapID:2243872
BeatmapSetID:1071523

[Difficulty]
HPDrainRate:2
CircleSize:3
OverallDifficulty:2
ApproachRate:3
SliderMultiplier:0.899999999999999
SliderTickRate:1

[Events]
//Background and Video events
0,0,"cache_0baa389c-ca11-47b1-c7b4-1708d38f32f3.jpg",0,0
//Break Periods
2,22753,31721
//Storyboard Layer 0 (Background)
//Storyboard Layer 1 (Fail)
//Storyboard Layer 2 (Pass)
//Storyboard Layer 3 (Foreground)
//Storyboard Layer 4 (Overlay)
//Storyboard Sound Samples

[TimingPoints]
12,331.491712707182,4,2,1,45,1,0
1337,-100,4,2,1,45,0,0
11282,-100,4,2,1,40,0,0
11945,-100,4,2,1,60,0,0
13023,-100,4,2,1,5,0,0
13105,-100,4,2,1,60,0,0
15674,-100,4,2,1,5,0,0
15757,-100,4,2,1,60,0,0
17498,-100,4,2,1,5,0,0
17581,-100,4,2,1,60,0,0
19155,-100,4,2,1,5,0,0
19238,-100,4,2,1,60,0,0
20978,-100,4,2,1,5,0,0
21061,-100,4,2,1,60,0,0
22553,-100,4,2,1,60,0,0
22636,-100,4,2,2,40,0,0
37387,-100,4,2,2,5,0,0
37470,-100,4,2,2,40,0,0
43437,-100,4,2,1,50,0,0
43686,-100,4,2,1,5,0,0
43768,-100,4,2,1,60,0,0
47995,-100,4,2,1,5,0,0
48078,-100,4,2,1,60,0,0
49652,-100,4,2,1,5,0,0
49735,-100,4,2,1,60,0,0
57277,-100,4,2,1,5,0,0
57360,-100,4,2,1,60,0,0
58603,-100,4,2,1,5,0,0
58686,-100,4,2,1,60,0,0
60260,-100,4,2,1,5,0,0
60343,-100,4,2,1,60,0,0
61255,-100,4,2,1,5,0,0
61337,-100,4,2,1,60,0,0
65232,-100,4,2,1,5,0,0
65315,-100,4,2,1,60,0,0
67884,-100,4,2,1,5,0,0
67967,-100,4,2,1,60,0,0
71862,-100,4,2,1,5,0,0
71945,-100,4,2,1,60,0,0
74349,-100,4,2,1,5,0,0
74431,-100,4,2,1,60,0,0
75011,-100,4,2,1,5,0,0
75094,-100,4,2,1,60,0,0
75426,-100,4,2,1,70,0,0
77166,-100,4,2,1,5,0,0
77249,-100,4,2,1,70,0,0
80398,-100,4,2,1,70,0,0
80647,-100,4,2,1,5,0,0
80730,-100,4,2,1,80,0,1
80978,-100,4,2,1,5,0,1
81061,-100,4,2,1,80,0,1
81807,-100,4,2,1,5,0,1
81890,-100,4,2,1,80,0,1
82967,-100,4,2,1,5,0,1
83050,-100,4,2,1,80,0,1
83630,-100,4,2,1,5,0,1
83713,-100,4,2,1,80,0,1
86282,-100,4,2,1,5,0,1
86365,-100,4,2,1,80,0,1
91586,-100,4,2,1,5,0,1
91669,-100,4,2,1,80,0,1
92912,-100,4,2,1,5,0,1
92995,-100,4,2,1,80,0,1
93575,-100,4,2,1,5,0,1
93658,-100,4,2,1,80,0,1
95564,-100,4,2,1,5,0,1
95647,-100,4,2,1,80,0,1
96227,-100,4,2,1,5,0,1
96310,-100,4,2,1,80,0,1
98216,-100,4,2,1,5,0,1
98299,-100,4,2,1,80,0,1
100868,-100,4,2,1,5,0,1
100951,-100,4,2,1,80,0,1
101531,-100,4,2,1,5,0,1
101614,-100,4,2,1,80,0,1
102098,331.491712707182,4,2,1,70,1,0

[Colours]
Combo1 : 255,220,115
Combo2 : 106,255,255
Combo3 : 108,174,255
Combo4 : 250,156,170

[HitObjects]
14,249,11945,6,0,P|90:260|120:266,1,89.9999999999999,6|8,0:0|0:0,0:0:0:0:
178,311,12608,1,8,0:0:0:0:
303,360,13105,2,0,P|320:305|280:237,1,135,8|8,0:0|0:0,0:0:0:0:
211,188,13934,2,0,P|212:137|247:105,1,89.9999999999999,2|8,0:0|0:0,0:0:0:0:
315,65,14597,6,0,P|359:70|404:76,1,89.9999999999999,2|8,0:0|0:0,0:0:0:0:
481,122,15260,1,8,0:0:0:0:
495,256,15757,2,0,P|446:289|353:270,1,135,8|8,0:0|0:0,0:0:0:0:
303,226,16586,2,0,P|265:205|195:214,1,89.9999999999999,2|8,0:0|0:0,0:0:0:0:
142,251,17249,6,0,P|150:308|155:348,1,89.9999999999999,2|8,0:0|0:0,0:0:0:0:
236,377,17912,1,8,0:0:0:0:
347,300,18409,2,0,P|337:229|325:143,1,135,8|8,0:0|0:0,0:0:0:0:
389,100,19238,2,0,P|348:76|304:79,1,89.9999999999999,2|8,0:0|0:0,0:0:0:0:
239,137,19901,6,0,P|202:143|149:153,1,89.9999999999999,2|8,0:0|0:0,0:0:0:0:
76,101,20564,1,8,0:0:0:0:
14,220,21061,2,0,P|30:280|50:360,1,135,8|8,0:0|0:0,0:0:0:0:
135,374,21890,2,0,P|160:331|154:283,1,89.9999999999999,8|8,0:0|0:0,0:0:0:0:
107,217,22553,1,6,0:0:0:0:
430,99,33161,6,0,P|388:47|236:62,1,225,6|0,0:0|0:0,0:0:0:0:
171,171,34487,2,0,P|108:175|50:117,2,135,2|2|0,0:0|0:0|0:0,0:0:0:0:
255,136,35813,6,0,B|288:274|223:207|255:358,1,225,2|0,0:0|0:0,0:0:0:0:
391,384,37139,2,0,P|427:332|415:258,1,135,6|2,0:0|0:0,0:0:0:0:
462,136,38133,1,0,0:0:0:0:
404,66,38465,6,0,P|324:75|168:94,1,225,2|0,0:0|0:0,0:0:0:0:
152,224,39791,2,0,P|227:214|317:205,2,135,6|0|0,0:0|0:0|0:0,0:0:0:0:
81,279,41116,6,0,P|39:234|105:55,1,270,2|6,0:0|0:0,0:0:0:0:
180,92,42442,2,0,B|276:77|276:77|308:47|308:47|413:32,1,225,6|2,0:0|0:0,0:0:0:0:
436,30,43437,1,10,0:0:0:0:
481,107,43768,6,0,B|494:220|447:164|467:288,1,180,6|2,0:0|0:0,0:0:0:0:
499,367,44763,1,8,0:0:0:0:
410,352,45094,2,0,P|372:333|315:342,1,89.9999999999999,0|8,0:0|0:0,0:0:0:0:
238,359,45757,2,0,P|200:378|143:369,1,89.9999999999999,2|8,0:0|0:0,0:0:0:0:
79,322,46420,6,0,P|88:241|100:132,1,180,2|2,0:0|0:0,0:0:0:0:
49,67,47415,1,8,0:0:0:0:
119,11,47746,2,0,P|184:28|271:46,2,135,0|0|8,0:0|0:0|0:0,0:0:0:0:
49,67,49072,6,0,P|9:153|82:236,1,180,6|2,0:0|0:0,0:0:0:0:
132,252,50067,1,8,0:0:0:0:
214,217,50398,2,0,P|288:205|361:193,1,135,0|0,0:0|0:0,0:0:0:0:
465,129,51393,1,8,0:0:0:0:
501,211,51724,6,0,P|487:284|483:317,1,89.9999999999999,6|8,0:0|0:0,0:0:0:0:
420,362,52387,2,0,P|388:352|369:347,1,45,2|2,0:0|0:0,0:0:0:0:
298,305,52884,2,0,P|221:308|182:357,1,135,2|8,0:0|0:0,0:0:0:0:
100,380,53713,2,0,P|54:370|6:360,1,89.9999999999999,2|8,0:0|0:0,0:0:0:0:
4,271,54376,6,0,P|92:251|193:228,1,180,6|2,0:0|0:0,0:0:0:0:
246,170,55371,1,8,0:0:0:0:
333,190,55702,2,0,P|400:203|435:210,1,89.9999999999999,0|8,0:0|0:0,0:0:0:0:
483,272,56365,2,0,P|512:212|508:190,1,89.9999999999999,2|8,0:0|0:0,0:0:0:0:
452,120,57028,6,0,P|381:106|260:80,1,180,6|2,0:0|0:0,0:0:0:0:
208,23,58023,1,8,0:0:0:0:
144,87,58354,2,0,P|87:91|27:37,2,135,0|0|8,0:0|0:0|0:0,0:0:0:0:
208,23,59680,6,0,L|185:214,1,180,6|2,0:0|0:0,0:0:0:0:
135,276,60674,1,8,0:0:0:0:
191,346,61006,2,0,P|261:357|318:307,1,135,0|0,0:0|0:0,0:0:0:0:
368,199,62000,1,8,0:0:0:0:
326,118,62332,6,0,P|337:57|342:30,1,89.9999999999999,6|8,0:0|0:0,0:0:0:0:
432,34,62995,2,0,P|421:95|416:122,1,89.9999999999999,2|8,0:0|0:0,0:0:0:0:
368,199,63658,2,0,P|306:149|199:158,1,180,0|2,0:0|0:0,0:0:0:0:
152,222,64652,1,8,0:0:0:0:
65,195,64984,6,0,P|76:102|87:10,2,180,6|2|2,0:0|0:0|0:0,0:0:0:0:
19,272,66641,1,2,0:0:0:0:
75,342,66973,2,0,P|135:330|173:323,1,89.9999999999999,2|2,0:0|0:0,0:0:0:0:
235,270,67636,6,0,P|285:329|407:319,1,180,6|2,0:0|0:0,0:0:0:0:
441,266,68630,1,2,0:0:0:0:
450,176,68962,2,0,P|400:117|278:127,1,180,2|2,0:0|0:0,0:0:0:0:
240,177,69956,1,2,0:0:0:0:
158,215,70288,6,0,P|152:162|136:14,2,180,6|2|2,0:0|0:0|0:0,0:0:0:0:
116,295,71945,1,12,0:0:0:0:
41,244,72277,2,0,P|33:178|28:140,1,89.9999999999999,2|8,0:0|0:0,0:0:0:0:
62,70,72940,6,0,P|124:118|199:99,1,135,6|6,0:0|0:0,0:0:0:0:
338,35,74100,2,0,P|344:91|354:158,1,89.9999999999999,6|2,0:0|0:0,0:0:0:0:
401,197,74763,2,0,P|395:253|385:320,1,89.9999999999999,6|2,0:0|0:0,0:0:0:0:
326,349,75426,6,0,P|268:355|214:281,1,135,6|8,0:0|0:0,0:0:0:0:
233,215,76255,2,0,P|179:225|43:250,1,180,2|2,0:0|0:0,0:0:0:0:
1,175,77249,1,8,0:0:0:0:
54,102,77581,1,2,0:0:0:0:
179,51,78078,6,0,P|221:98|304:86,1,135,6|8,0:0|0:0,0:0:0:0:
360,41,78907,2,0,P|417:54|452:61,1,89.9999999999999,8|8,0:0|0:0,0:0:0:0:
508,127,79570,2,0,P|450:116|369:207,1,180,8|6,0:0|0:0,0:0:0:0:
378,238,80398,1,4,0:0:0:0:
411,321,80730,6,0,P|345:331|247:348,1,135,6|8,0:0|0:0,0:0:0:0:
194,375,81558,1,2,0:0:0:0:
75,309,82056,2,0,P|83:249|87:208,1,89.9999999999999,2|2,0:0|0:0,0:0:0:0:
26,151,82719,2,0,P|18:91|14:50,1,89.9999999999999,0|0,0:0|0:0,0:0:0:0:
93,17,83382,6,0,P|136:60|219:50,1,135,6|8,0:0|0:0,0:0:0:0:
285,14,84210,1,2,0:0:0:0:
405,74,84708,2,0,L|500:55,2,89.9999999999999,6|2|6,0:0|0:0|0:0,0:0:0:0:
337,133,85702,1,2,0:0:0:0:
403,193,86034,6,0,P|452:256|439:319,1,135,6|8,0:0|0:0,0:0:0:0:
383,371,86862,1,2,0:0:0:0:
254,330,87360,2,0,P|190:321|145:315,1,89.9999999999999,2|2,0:0|0:0,0:0:0:0:
80,349,88023,2,0,P|71:309|106:251,1,89.9999999999999,0|2,0:0|0:0,0:0:0:0:
172,231,88686,6,0,P|204:187|190:108,1,135,6|8,0:0|0:0,0:0:0:0:
129,46,89514,1,2,0:0:0:0:
259,10,90011,2,0,B|361:3|320:75|433:63,1,180,2|2,0:0|0:0,0:0:0:0:
503,21,91006,1,0,0:0:0:0:
497,110,91337,6,0,P|482:191|468:267,1,135,6|8,0:0|0:0,0:0:0:0:
424,319,92166,1,2,0:0:0:0:
292,348,92663,2,0,P|252:337|205:326,1,89.9999999999999,2|2,0:0|0:0,0:0:0:0:
121,360,93326,2,0,P|110:326|125:275,1,89.9999999999999,0|2,0:0|0:0,0:0:0:0:
174,200,93989,6,0,P|245:187|328:171,1,135,6|8,0:0|0:0,0:0:0:0:
386,132,94818,1,2,0:0:0:0:
505,177,95315,2,0,P|519:149|499:81,2,89.9999999999999,6|2|6,0:0|0:0|0:0,0:0:0:0:
447,246,96310,1,2,0:0:0:0:
492,323,96641,6,0,P|424:332|359:341,1,135,6|8,0:0|0:0,0:0:0:0:
296,275,97470,1,2,0:0:0:0:
200,370,97967,2,0,P|125:354|76:344,1,89.9999999999999,2|2,0:0|0:0,0:0:0:0:
26,378,98630,2,0,P|4:336|18:275,1,89.9999999999999,0|2,0:0|0:0,0:0:0:0:
66,226,99293,6,0,P|101:166|74:79,1,135,6|8,0:0|0:0,0:0:0:0:
16,58,100122,2,0,L|167:35,1,135,2|6,0:0|0:0,0:0:0:0:
220,92,100951,2,0,P|296:101|344:106,1,89.9999999999999,2|2,0:0|0:0,0:0:0:0:
387,57,101614,1,2,0:0:0:0:
497,127,102098,1,6,0:0:0:0:
