osu file format v14

[General]
AudioFilename: audio.mp3
AudioLeadIn: 0
PreviewTime: 55972
Countdown: 0
SampleSet: None
StackLeniency: 0.2
Mode: 0
LetterboxInBreaks: 0
WidescreenStoryboard: 0

[Editor]
Bookmarks: -6,13,34,55,76,97,118,138,159,180,201,222,243,263,284,305,326,347,368,388,409,430,451,472,493,513,534,555,576,597,618,638,659,680,701,722,743,763,784,805,826,847,868,888,909,930,951,972,993,1013,1034,1055,1076,1097,1118,1138,1159,1180,1201,1222,1243,1263,1284,1305,1326,1347,1368,1388,1409,1430,1451,1472,1492,1513,1534,1555,1576,1597,1617,1638,1659,1680,1701,1722,1742,1763,1784,1805,1826,1847,1867,1888,1909,1930,1951,1972,1992,2013,2034,2055,2076,2097,2117,2138,2159,2180,2201,2222,2242,2263,2284,2305,2326,2347,2367,2388,2409,2430,2451,2472,2492,2513,2534,2555,2576,2597,2617,2638,2659,2680,2701,2722,2742,2763,2784,2805,2826,2847,2867,2888,2909,2930,2951,2972,2992,3013,3034,3055,3076,3097,3117,3138,3159,3180,3201,3222,3242,3263,3284,3305,3326,3347,3367,3388,3409,3430,3451,3472,3492,3513,3534,3555,3576,3597,3617,3638,3659,3680,3701,3722,3742,3763,3784,3805,3826,3847,3867,3888,3909,3930,3951,3972,3992,4013,4034,4055,4076,4097,4117,4138,4159,4180,4201,4222,4242,4263,4284,4305,4326,4347,4367,4388,4409,4430,4451,4472,4492,4513,4534,4555,4576,4597,4617,4638,4659,4680,4701,4722,4742,4763,4784,4805,4826,4847,4867,4888,4909,4930,4951,4972,4992,5013,5034,5055,5076,5097,5117,5138,5159,5180,5201,5222,5242,5263,5284,5305,5326,5347,5367,5388,5409,5430,5451,5472,5492,5513,5534,5555,5576,5597,5617,5638,5659,5680,5701,5722,5742,5763,5784,5805,5826,5847,5867,5888,5909,5930,5951,5972,5992,6013,6034,6055,6076,6097,6117,6138,6159,6180,6201,6222,6242,6263,6284,6305,6326,6347,6367,6388,6409,6430,6451,6472,6492,6513,6534,6555,6576,6597,6617,6638,6659,6680,6701,6722,6742,6763,6784,6805,6826,6847,6867,6888,6909,6930,6951,6972,6992,7013,7034,7055,7076,7097,7117,7138,7159,7180,7201,7222,7242,7263,7284,7305,7326,7347,7367,7388,7409,7430,7451,7472,7492,7513,7534,7555,7576,7597,7617,7638,7659,7680,7701,7722,7742,7763,7784,7805,7826,7847,7867,7888,7909,7930,7951,7972,7992,8013,8034,8055,8076,8097,8117,8138,8159,8180,8201,8222,8242,8263,8284,8305,8326,8347,8367,8388,8409,8430,8451,8472,8492,8513,8534,8555,8576,8597,8617,8638,8659,8680,8701,8722,8742,8763,8784,8805,8826,8847,8867,8888,8909,8930,8951,8972,8992,9013,9034,9055,9076,9097,9117,9138,9159,9180,9201,9222,9242,9263,9284,9305,9326,9347,9367,9388,9409,9430,9451,9472,9492,9513,9534,9555,9576,9597,9617,9638,9659,9680,9701,9722,9742,9763,9784,9805,9826,9847,9867,9888,9909,9930,9951,9972,9992,10013,10034,10055,10076,10097,10117,10138,10159,10180,10201,10222,10242,10263,10284,10305,10326,10347,10367,10388,10409,10430,10451,10472,10492,10513,10534,10555,10576,10597,10617,10638,10659,10680,10701,10722
DistanceSpacing: 1
BeatDivisor: 16
GridSize: 4
TimelineZoom: 2.6

[Metadata]
Title:Prima Stella
TitleUnicode:プリマステラ
Artist:Kano
ArtistUnicode:鹿乃
Creator:KuranteMelodii
Version:This Story is About Kano Trapped in a Birdcage Trying to Get Some Freedom
Source:
Tags:nowhere samfree ゆうゆ Yuuyu [-AKiTOSHi-] Akitoshi Underforest 7ka -Nanaka- [_-Scarlet-_] Scarlet Del05 SnowNiNo_
BeatmapID:1219934
BeatmapSetID:443014

[Difficulty]
HPDrainRate:8
CircleSize:4.3
OverallDifficulty:9
ApproachRate:9.3
SliderMultiplier:1.8
SliderTickRate:1

[Events]
//Background and Video events
0,0,"wow.png",0,0
Video,-120,"primastella.avi"
//Break Periods
//Storyboard Layer 0 (Background)
//Storyboard Layer 1 (Fail)
//Storyboard Layer 2 (Pass)
//Storyboard Layer 3 (Foreground)
//Storyboard Sound Samples

[TimingPoints]
1368,333.333333333333,4,2,0,40,1,0
1368,-133.333333333333,4,2,0,40,0,0
3201,-133.333333333333,4,2,0,5,0,0
3367,-133.333333333333,4,2,0,40,0,0
3867,-133.333333333333,4,2,0,5,0,0
4034,-133.333333333333,4,2,0,40,0,0
6034,-200,4,2,0,50,0,0
6701,-100,4,2,0,50,0,0
8034,-100,4,2,0,55,0,0
9367,-100,4,2,0,60,0,0
10701,-100,4,2,0,70,0,0
11701,-100,4,2,0,40,0,0
12034,-100,4,2,0,70,0,1
12117,-100,4,2,0,70,0,0
12284,-100,4,2,0,20,0,0
12367,-100,4,2,0,70,0,0
13617,-100,4,2,0,20,0,0
13701,-100,4,2,0,70,0,0
14951,-100,4,2,0,20,0,0
15034,-100,4,2,0,70,0,0
16284,-100,4,2,0,20,0,0
16367,-100,4,2,0,70,0,0
18951,-100,4,2,0,20,0,0
19034,-100,4,2,0,70,0,0
20284,-100,4,2,0,20,0,0
20367,-100,4,2,0,70,0,0
22701,-133.333333333333,4,2,0,70,0,0
22784,-133.333333333333,4,2,0,40,0,0
23034,-133.333333333333,4,2,0,30,0,0
23367,-133.333333333333,4,2,0,20,0,0
23867,-200,4,2,0,10,0,0
24034,-166.666666666667,4,2,0,30,0,0
34034,-166.666666666667,4,2,0,10,0,0
34201,-166.666666666667,4,2,0,40,0,0
34701,-100,4,2,0,50,0,0
45367,-200,4,2,0,50,0,0
50701,-100,4,2,0,60,0,0
54034,-100,4,2,0,65,0,0
54701,-100,4,2,0,70,0,0
56034,-100,4,2,0,80,0,1
56284,-100,4,2,0,20,0,1
56367,-100,4,2,0,80,0,1
57617,-100,4,2,0,20,0,1
57701,-100,4,2,0,80,0,1
58951,-100,4,2,0,20,0,1
59034,-100,4,2,0,80,0,1
60284,-100,4,2,0,20,0,1
60367,-100,4,2,0,80,0,1
61617,-100,4,2,0,20,0,1
61701,-100,4,2,0,80,0,1
62951,-100,4,2,0,20,0,1
63034,-100,4,2,0,80,0,1
63284,-100,4,2,0,20,0,1
63367,-100,4,2,0,80,0,1
66617,-100,4,2,0,80,0,0
66701,-100,4,2,0,80,0,1
66951,-100,4,2,0,20,0,1
67034,-100,4,2,0,80,0,1
68284,-100,4,2,0,20,0,1
68367,-100,4,2,0,80,0,1
69617,-100,4,2,0,20,0,1
69701,-100,4,2,0,80,0,1
70951,-100,4,2,0,20,0,1
71034,-100,4,2,0,80,0,1
77367,-100,4,2,0,70,0,0
77617,-100,4,2,0,20,0,0
77701,-100,4,2,0,70,0,0
78951,-100,4,2,0,20,0,0
79034,-100,4,2,0,70,0,0
82701,-200,4,2,0,70,0,0
84034,-100,4,2,0,70,0,0
85534,-100,4,2,0,50,0,0
86034,-100,4,2,0,60,0,0
86701,-100,4,2,0,65,0,0
88034,-100,4,2,0,70,0,1
88117,-100,4,2,0,70,0,0
88284,-100,4,2,0,20,0,0
88367,-100,4,2,0,70,0,0
89617,-100,4,2,0,20,0,0
89701,-100,4,2,0,70,0,0
90951,-100,4,2,0,20,0,0
91034,-100,4,2,0,70,0,0
98701,-133.333333333333,4,2,0,50,0,0
109367,-100,4,2,0,60,0,0
120034,-125,4,2,0,50,0,0
121034,-200,4,2,0,50,0,0
122701,-133.333333333333,4,2,0,50,0,0
123701,-200,4,2,0,50,0,0
128034,-200,4,2,0,60,0,0
128701,-200,4,2,0,65,0,0
129367,-200,4,2,0,70,0,0
129701,-166.666666666667,4,2,0,50,0,0
129951,-166.666666666667,4,2,0,10,0,0
130034,-142.857142857143,4,2,0,60,0,0
130284,-142.857142857143,4,2,0,10,0,0
130367,-111.111111111111,4,2,0,70,0,0
130617,-111.111111111111,4,2,0,10,0,0
130701,-100,4,2,0,80,0,1
130951,-100,4,2,0,20,0,1
131034,-100,4,2,0,80,0,1
132284,-100,4,2,0,20,0,1
132367,-100,4,2,0,80,0,1
133617,-100,4,2,0,20,0,1
133701,-100,4,2,0,80,0,1
134951,-100,4,2,0,20,0,1
135034,-100,4,2,0,80,0,1
137617,-100,4,2,0,20,0,1
137701,-100,4,2,0,80,0,1
137951,-100,4,2,0,20,0,1
138034,-100,4,2,0,80,0,1
141284,-100,4,2,0,80,0,0
141367,-100,4,2,0,80,0,1
141617,-100,4,2,0,20,0,1
141701,-100,4,2,0,80,0,1
142951,-100,4,2,0,20,0,1
143034,-100,4,2,0,80,0,1
144284,-100,4,2,0,20,0,1
144367,-100,4,2,0,80,0,1
145617,-100,4,2,0,20,0,1
145701,-100,4,2,0,80,0,1
152034,-100,4,2,0,70,0,0
152284,-100,4,2,0,20,0,0
152367,-100,4,2,0,70,0,0
153617,-100,4,2,0,20,0,0
153701,-100,4,2,0,70,0,0
157367,-200,4,2,0,70,0,0
160034,-100,4,2,0,60,0,0
168034,-100,4,2,0,70,0,0
168701,-100,4,2,0,74,0,0
169367,-100,4,2,0,77,0,0
170701,-100,4,2,0,80,0,1
174951,-100,4,2,0,20,0,1
175034,-100,4,2,0,80,0,1
180701,-100,4,2,0,80,0,0
181367,-100,4,2,0,80,0,1
187701,-111.111111111111,4,2,0,80,0,1
188367,-100,4,2,0,80,0,1
189367,-100,4,2,0,60,0,0
193367,-133.333333333333,4,2,0,50,0,0
193701,-100,4,2,0,40,0,0
194034,-100,4,2,0,30,0,0
194367,-100,4,2,0,20,0,0
194701,-100,4,2,0,5,0,0
196034,-166.666666666667,4,2,0,40,0,0
206701,-133.333333333333,4,2,0,70,0,0
212034,-100,4,2,0,70,0,0
213367,-90.9090909090909,4,2,0,74,0,0
214034,-83.3333333333333,4,2,0,74,0,0
214701,-76.9230769230769,4,2,0,77,0,0
216367,-100,4,2,0,77,0,0
217367,-100,4,2,0,80,0,1
217617,-100,4,2,0,20,0,1
217701,-100,4,2,0,80,0,1
218951,-100,4,2,0,20,0,1
219034,-100,4,2,0,80,0,1
220284,-100,4,2,0,20,0,1
220367,-100,4,2,0,80,0,1
221617,-100,4,2,0,20,0,1
221701,-100,4,2,0,80,0,1
222951,-100,4,2,0,20,0,1
223034,-100,4,2,0,80,0,1
224284,-100,4,2,0,20,0,1
224367,-100,4,2,0,80,0,1
224617,-100,4,2,0,20,0,1
224701,-100,4,2,0,80,0,1
227951,-100,4,2,0,80,0,0
228034,-100,4,2,0,80,0,1
228284,-100,4,2,0,20,0,1
228367,-100,4,2,0,80,0,1
229617,-100,4,2,0,20,0,1
229701,-100,4,2,0,80,0,1
230951,-100,4,2,0,20,0,1
231034,-100,4,2,0,80,0,1
232284,-100,4,2,0,20,0,1
232367,-100,4,2,0,80,0,1
238701,-100,4,2,0,70,0,0
240284,-100,4,2,0,20,0,0
240367,-100,4,2,0,70,0,0
241617,-100,4,2,0,20,0,0
241701,-100,4,2,0,70,0,0
244034,-200,4,2,0,70,0,0
246867,-200,4,2,0,50,0,0
247367,-200,4,2,0,60,0,0
248034,-200,4,2,0,70,0,0
249367,-333.333333333333,4,2,0,40,0,0
249451,-333.333333333333,4,2,0,5,0,0
249701,-333.333333333333,4,2,0,40,0,0
249951,-333.333333333333,4,2,0,5,0,0
250367,-333.333333333333,4,2,0,40,0,0
250784,-333.333333333333,4,2,0,5,0,0
251367,-333.333333333333,4,2,0,40,0,0
252117,-333.333333333333,4,2,0,5,0,0
252367,-333.333333333333,4,2,0,40,0,0
252617,-333.333333333333,4,2,0,5,0,0
253034,-333.333333333333,4,2,0,40,0,0
253451,-333.333333333333,4,2,0,5,0,0
254034,-333.333333333333,4,2,0,40,0,0
254701,-1000,4,2,0,20,0,0
254784,-1000,4,2,0,5,0,0
256034,-1000,4,2,0,20,0,0
260701,-200,4,2,0,15,0,0
261701,-200,4,2,0,10,0,0
262701,-200,4,2,0,5,0,0

[Colours]
Combo1 : 45,255,45
Combo2 : 0,64,128
Combo3 : 106,106,255
Combo4 : 168,12,243
Combo5 : 255,47,255
Combo6 : 0,128,0

[HitObjects]
79,355,1256,6,0,L|120:360,2,30,0|0|2,0:0|0:0|0:0,0:0:0:0:
238,246,1701,2,0,L|251:313,1,67.5000025749208,0|2,0:0|0:0,0:0:0:0:
152,288,2034,2,0,L|164:136,1,135.000005149842,2|2,0:0|0:0,0:0:0:0:
100,92,2534,2,0,L|64:100,1,33.7500012874604,0|0,0:0|0:0,0:0:0:0:
162,153,2701,6,0,B|200:172|200:172|244:140|244:140|284:172|360:148,1,202.500007724762,2|0,0:0|0:0,0:0:0:0:
382,71,3367,2,0,B|417:81|464:152|408:216|408:216|424:248,1,202.500007724762,2|0,0:0|0:0,0:0:0:0:
472,384,4034,6,0,L|458:317,1,67.5000025749208,2|0,0:0|0:0,0:0:0:0:
304,328,4367,2,0,L|392:340,1,67.5000025749208,0|2,0:0|0:0,0:0:0:0:
472,244,4701,2,0,P|412:220|336:268,1,135.000005149842,2|2,0:0|0:0,0:0:0:0:
304,328,5201,2,0,L|360:336,1,33.7500012874604,0|0,0:0|0:0,0:0:0:0:
260,264,5367,6,0,L|194:279,1,67.5000025749208,2|0,0:0|0:0,0:0:0:0:
120,344,5701,2,0,L|54:359,1,67.5000025749208
115,241,6034,6,0,P|159:250|194:278,1,90,4|0,0:3|0:0,0:0:0:0:
343,171,6534,1,0,1:0:0:0:
343,171,6617,1,0,1:0:0:0:
343,171,6701,5,4,0:0:0:0:
371,289,6867,1,0,0:0:0:0:
248,327,7034,2,0,L|213:227,1,90
343,171,7367,5,0,1:0:0:0:
389,304,7534,1,0,0:0:0:0:
255,347,7701,2,0,L|203:254,1,90
343,171,8034,5,4,0:0:0:0:
408,320,8201,1,0,0:0:0:0:
275,364,8367,2,0,L|207:282,1,90
343,171,8701,5,0,1:0:0:0:
437,325,8867,1,0,0:0:0:0:
288,380,9034,2,0,L|207:310,1,90
343,171,9367,5,4,0:0:0:0:
288,380,9534,1,0,0:0:0:0:
428,136,9701,5,0,1:0:0:0:
373,345,9868,1,0,0:0:0:0:
356,88,10034,5,0,1:0:0:0:
301,297,10201,1,0,0:0:0:0:
276,120,10367,5,0,1:0:0:0:
221,329,10534,1,0,0:0:0:0:
208,64,10701,5,0,1:0:0:0:
221,329,10868,1,0,1:0:0:0:
276,120,11034,1,0,1:0:0:0:
25,267,11201,1,0,1:0:0:0:
100,56,11367,5,8,1:0:0:0:
221,329,11534,1,8,1:0:0:0:
140,176,11701,2,0,L|152:128,3,45
164,100,12034,6,0,P|272:116|316:152,1,135,6|0,1:2|0:0,0:0:0:0:
328,192,12367,2,0,P|332:144|372:112,1,90,8|0,0:0|3:3,0:0:0:0:
396,100,12617,1,0,0:0:0:0:
436,96,12701,1,0,1:2:0:0:
464,220,12867,1,0,1:2:0:0:
354,307,13034,2,0,L|247:279,1,90,8|0,0:0|0:0,0:0:0:0:
148,216,13367,6,0,P|156:152|120:84,1,135,0|0,1:0|0:0,0:0:0:0:
41,60,13701,2,0,L|133:92,1,90,8|0,0:0|3:3,0:0:0:0:
165,75,13951,1,0,0:0:0:0:
204,56,14034,1,2,1:2:0:0:
392,164,14201,1,10,0:2:0:0:
236,180,14367,1,0,1:0:0:0:
344,96,14534,1,0,1:0:0:0:
344,96,14617,1,0,0:0:0:0:
344,96,14701,6,0,P|312:156|336:232,1,135,2|0,1:2|0:0,0:0:0:0:
402,259,15034,2,0,P|368:229|325:218,1,90,8|0,0:0|3:3,0:0:0:0:
288,240,15284,1,0,0:0:0:0:
256,272,15368,1,0,1:0:0:0:
140,316,15534,1,0,1:0:0:0:
96,200,15701,2,0,P|144:196|180:228,1,90,10|2,0:0|0:0,0:0:0:0:
224,384,16034,6,0,L|208:228,1,135,2|0,1:2|0:0,0:0:0:0:
248,180,16367,2,0,L|220:88,1,90,10|0,0:0|3:3,0:0:0:0:
188,72,16617,1,0,0:0:0:0:
152,52,16701,1,2,1:2:0:0:
96,200,16867,1,0,1:0:0:0:
248,180,17034,1,10,0:0:0:0:
336,80,17201,1,0,1:0:0:0:
336,80,17284,1,0,0:0:0:0:
336,80,17367,5,2,1:2:0:0:
360,260,17534,1,2,0:0:0:0:
248,180,17701,1,10,0:2:0:0:
412,144,17867,1,2,3:2:0:0:
412,144,17951,1,0,0:0:0:0:
412,144,18034,1,0,1:0:0:0:
248,180,18201,1,0,1:0:0:0:
359,259,18367,2,0,P|372:301|362:344,1,90,10|0,0:0|0:0,0:0:0:0:
240,296,18701,6,0,L|72:274,1,135,2|0,1:2|0:0,0:0:0:0:
64,200,19034,2,0,P|116:193|163:207,1,90,10|2,0:0|3:2,0:0:0:0:
196,216,19284,1,0,0:0:0:0:
240,212,19367,1,0,1:2:0:0:
333,195,19534,1,2,1:2:0:0:
228,80,19701,1,10,0:2:0:0:
152,202,19867,1,2,1:2:0:0:
152,202,19951,1,0,0:2:0:0:
152,202,20034,6,0,L|156:336,1,135,2|0,1:2|0:0,0:0:0:0:
244,380,20367,2,0,L|240:288,1,90,8|2,0:0|3:2,0:0:0:0:
232,244,20617,1,0,0:0:0:0:
220,200,20701,1,0,1:0:0:0:
316,116,20867,1,0,1:0:0:0:
412,244,21034,2,0,P|352:252|296:236,1,90,10|0,0:0|1:0,0:0:0:0:
184,144,21367,5,2,1:2:0:0:
184,144,21534,1,0,1:0:0:0:
112,284,21701,1,4,0:0:0:0:
40,176,21867,1,0,1:0:0:0:
0,328,22034,1,0,0:0:0:0:
118,375,22200,1,0,0:0:0:0:
150,365,22283,1,0,0:0:0:0:
175,344,22367,1,0,1:0:0:0:
194,317,22450,1,0,1:0:0:0:
222,310,22533,1,0,1:0:0:0:
255,305,22617,1,0,1:0:0:0:
288,300,22701,6,0,P|337:142|209:270,1,472.500018024445,4|0,1:2|0:0,0:0:0:0:
288,300,24034,6,0,L|400:312,1,107.999996704102,2|0,0:0|0:0,0:0:0:0:
472,357,24534,2,0,P|485:313|467:252,2,107.999996704102
395,311,25367,5,2,0:0:0:0:
404,160,25701,1,0,0:0:0:0:
395,311,26034,1,2,0:0:0:0:
404,160,26367,1,0,0:0:0:0:
344,96,26534,1,2,0:0:0:0:
316,180,26701,6,0,L|304:296,1,107.999996704102,2|0,0:0|0:0,0:0:0:0:
232,340,27201,2,0,P|263:367|342:371,2,107.999996704102
196,268,28034,5,2,0:0:0:0:
48,292,28367,1,0,0:0:0:0:
196,268,28701,1,2,0:0:0:0:
274,248,28867,1,0,0:0:0:0:
280,167,29034,1,0,0:0:0:0:
205,137,29201,1,2,0:0:0:0:
153,199,29367,6,0,P|96:204|36:172,1,107.999996704102,2|0,0:0|0:0,0:0:0:0:
68,104,29867,2,0,P|72:56|32:8,2,107.999996704102,0|0|0,0:0|0:0|0:0,0:0:0:0:
50,184,30701,5,2,0:0:0:0:
120,328,31034,1,0,0:0:0:0:
50,184,31367,1,2,0:0:0:0:
120,328,31701,1,0,0:0:0:0:
188,372,31867,1,2,0:0:0:0:
192,292,32034,6,0,P|196:252|244:200,1,107.999996704102,2|0,0:0|0:0,0:0:0:0:
312,230,32534,2,0,P|376:250|436:238,1,107.999996704102,0|0,0:0|0:0,0:0:0:0:
415,245,33201,6,0,B|404:202|428:166|428:166|356:146|322:57|404:10,1,269.999991760254,2|0,0:0|0:0,0:0:0:0:
436,82,34201,1,0,0:0:0:0:
310,170,34367,1,0,0:0:0:0:
297,18,34534,1,0,0:0:0:0:
415,245,34701,6,0,P|415:305|311:377,1,180,4|0,0:0|0:0,0:0:0:0:
184,252,35201,1,0,0:0:0:0:
316,268,35367,1,0,0:0:0:0:
220,376,35534,1,0,0:0:0:0:
96,280,35701,2,0,P|96:228|120:188,1,90,8|0,0:0|0:0,0:0:0:0:
220,91,36034,5,2,2:0:0:0:
184,252,36201,1,2,2:0:0:0:
32,144,36367,1,2,2:0:0:0:
220,91,36534,1,2,2:0:0:0:
113,195,36701,1,2,2:0:0:0:
88,56,36867,1,2,2:0:0:0:
220,91,37034,1,0,0:0:0:0:
32,144,37201,1,8,1:0:0:0:
164,28,37367,6,0,P|204:8|264:24,1,90,0|0,1:0|0:0,0:0:0:0:
352,132,37701,1,0,0:0:0:0:
352,132,37867,2,0,P|352:80|376:48,1,90,0|0,0:0|0:0,0:0:0:0:
488,96,38201,1,0,0:0:0:0:
364,224,38367,2,0,P|304:212|280:180,1,90,8|0,0:0|0:0,0:0:0:0:
472,232,38701,5,0,0:0:0:0:
340,372,38867,1,2,0:0:0:0:
364,224,39034,1,2,0:0:0:0:
456,352,39201,1,2,0:0:0:0:
296,280,39367,1,0,0:0:0:0:
436,164,39534,1,2,0:0:0:0:
380,308,39701,1,0,1:0:0:0:
224,192,39867,1,8,0:0:0:0:
412,80,40034,6,0,P|472:88|500:108,1,90,4|0,0:0|0:0,0:0:0:0:
400,240,40367,1,0,0:0:0:0:
304,128,40534,2,0,P|288:80|296:32,1,90
436,164,40867,1,0,0:0:0:0:
284,252,41034,2,0,L|184:272,1,90,8|0,0:0|0:0,0:0:0:0:
0,156,41367,6,0,P|52:140|100:147,1,90,2|2,2:0|2:0,0:0:0:0:
196,272,41701,1,2,2:0:0:0:
56,232,41867,1,2,2:0:0:0:
224,192,42034,1,2,2:0:0:0:
152,348,42201,1,2,2:0:0:0:
135,209,42367,1,0,0:0:0:0:
328,316,42534,1,8,1:0:0:0:
308,172,42701,6,0,P|280:124|220:108,1,90,0|0,1:0|0:0,0:0:0:0:
86,143,43034,1,0,0:0:0:0:
200,32,43201,1,0,0:0:0:0:
135,209,43367,1,0,0:0:0:0:
116,64,43534,1,0,0:0:0:0:
216,244,43701,2,0,P|216:296|184:336,1,90,8|0,0:0|0:0,0:0:0:0:
64,356,44034,5,0,0:0:0:0:
144,188,44201,1,2,0:0:0:0:
195,325,44367,2,0,L|113:289,1,90,2|2,0:0|0:0,0:0:0:0:
40,192,44700,1,0,0:0:0:0:
144,96,44867,1,2,3:2:0:0:
100,88,44951,1,0,3:0:0:0:
56,80,45034,2,0,L|0:68,1,45,0|0,3:0|3:0,1:0:0:0:
144,188,45201,2,0,L|200:176,1,45,0|0,3:0|3:0,1:0:0:0:
336,56,45367,5,4,0:2:0:0:
394,145,45534,1,0,1:0:0:0:
287,151,45701,1,0,0:0:0:0:
394,145,45867,5,4,0:0:0:0:
456,236,46034,1,0,0:0:0:0:
352,240,46201,1,8,0:0:0:0:
456,236,46367,6,0,P|464:289|412:344,1,135,4|8,0:0|0:0,0:0:0:0:
396,352,46951,1,8,0:0:0:0:
380,352,47034,1,8,0:0:0:0:
308,316,47201,1,0,1:0:0:0:
232,344,47367,1,0,3:0:0:0:
156,352,47534,1,0,3:0:0:0:
80,336,47701,1,0,3:0:0:0:
80,336,48034,5,4,0:2:0:0:
66,228,48201,1,0,1:0:0:0:
165,270,48367,1,0,0:0:0:0:
66,228,48534,5,4,0:0:0:0:
48,116,48701,1,0,1:0:0:0:
148,160,48867,1,8,0:0:0:0:
48,116,49034,6,0,B|84:72|84:72|128:56|128:56|156:24,1,135,4|8,0:0|0:0,0:0:0:0:
148,16,49617,1,8,0:0:0:0:
140,0,49701,1,8,0:0:0:0:
196,96,49867,1,0,1:0:0:0:
272,132,50034,1,0,3:0:0:0:
348,92,50201,1,0,3:0:0:0:
416,40,50367,1,4,3:2:0:0:
432,32,50701,6,0,P|416:100|444:204,1,180,4|0,1:2|1:0,0:0:0:0:
472,368,51201,1,0,0:0:0:0:
364,248,51367,1,0,1:0:0:0:
344,368,51534,1,0,0:0:0:0:
446,288,51701,2,0,P|458:240|438:196,1,90,0|0,1:0|0:0,0:0:0:0:
289,179,52034,6,0,B|260:232|264:284|264:284|240:308|198:301,1,180,0|0,1:0|1:0,0:0:0:0:
39,243,52534,1,0,0:0:0:0:
202,196,52701,1,0,1:0:0:0:
98,331,52867,1,0,0:0:0:0:
55,143,53034,2,0,P|55:91|79:51,1,90,0|0,1:0|0:0,0:0:0:0:
316,32,53367,5,4,0:0:0:0:
268,248,53534,1,0,0:0:0:0:
176,132,53701,1,0,1:0:0:0:
400,96,53867,1,0,1:0:0:0:
168,316,54034,5,4,1:3:0:0:
268,105,54201,1,4,1:3:0:0:
300,352,54367,1,4,1:3:0:0:
104,216,54534,1,4,1:3:0:0:
400,96,54701,5,4,1:3:0:0:
68,328,56034,6,0,P|124:304|200:324,1,135,4|0,1:2|0:0,0:0:0:0:
252,372,56367,1,8,0:0:0:0:
340,228,56534,1,0,3:2:0:0:
340,228,56617,1,0,0:0:0:0:
340,228,56701,1,0,1:0:0:0:
380,352,56867,1,0,1:0:0:0:
252,236,57034,2,0,P|232:180|256:140,1,90,8|0,0:0|0:0,0:0:0:0:
324,56,57367,6,0,B|358:28|358:28|394:72|371:113,1,135,0|0,1:2|0:0,0:0:0:0:
324,176,57701,1,8,0:0:0:0:
220,308,57867,1,0,3:2:0:0:
220,308,57951,1,0,0:0:0:0:
220,308,58034,1,0,1:0:0:0:
364,328,58201,1,0,1:0:0:0:
252,236,58367,1,8,0:0:0:0:
288,376,58534,1,0,1:0:0:0:
429,265,58701,6,0,P|456:204|442:139,1,135,0|0,1:2|0:0,0:0:0:0:
372,112,59034,1,8,0:2:0:0:
220,64,59201,1,0,3:2:0:0:
220,64,59284,1,0,0:0:0:0:
220,64,59367,1,0,1:0:0:0:
348,36,59534,1,0,1:0:0:0:
312,180,59701,1,8,0:0:0:0:
276,4,59867,1,0,0:0:0:0:
312,180,60034,6,0,P|284:228|184:252,1,135,0|0,1:2|0:0,0:0:0:0:
140,228,60367,1,8,0:2:0:0:
292,268,60534,2,0,L|304:324,1,45,0|0,3:2|0:0,0:0:0:0:
216,380,60701,1,0,1:0:0:0:
100,300,60867,1,0,1:0:0:0:
292,268,61034,1,8,0:0:0:0:
136,368,61201,1,0,1:0:0:0:
204,180,61367,6,0,P|196:112|244:40,1,135,4|0,1:2|0:0,0:0:0:0:
296,20,61701,1,8,0:0:0:0:
332,144,61867,1,0,3:2:0:0:
136,96,62034,1,0,1:0:0:0:
296,20,62201,1,0,1:0:0:0:
204,180,62367,2,0,P|156:200|96:200,1,90,8|0,0:2|0:0,0:0:0:0:
268,232,62701,6,0,P|216:260|100:280,1,135,0|0,1:2|0:0,0:0:0:0:
68,268,63034,2,0,L|196:368,1,135,8|0,0:0|0:0,0:0:0:0:
244,348,63367,1,0,1:2:0:0:
416,280,63534,1,0,1:0:0:0:
268,232,63701,1,8,2:0:0:0:
356,364,63867,1,0,1:0:0:0:
356,364,63951,1,0,0:0:0:0:
356,364,64034,6,0,P|384:296|336:192,1,180,0|8,1:2|0:0,0:0:0:0:
200,128,64534,1,0,3:3:0:0:
268,232,64701,1,0,1:2:0:0:
356,88,64867,1,0,1:0:0:0:
340,284,65034,1,8,0:0:0:0:
200,128,65201,1,0,0:0:0:0:
200,128,65284,1,0,0:0:0:0:
200,128,65367,6,0,P|144:104|120:112,1,90,4|0,1:2|1:0,0:0:0:0:
48,140,65617,1,0,0:0:0:0:
48,140,65701,1,8,0:0:0:0:
16,284,65867,2,0,L|72:316,1,45,0|0,3:0|0:0,0:0:0:0:
168,264,66033,5,0,3:0:0:0:
210,250,66116,1,0,3:0:0:0:
239,218,66201,1,0,3:0:0:0:
263,182,66284,1,0,3:0:0:0:
280,144,66367,5,0,1:0:0:0:
304,107,66452,1,0,1:0:0:0:
346,92,66535,1,0,1:0:0:0:
388,104,66618,1,0,1:0:0:0:
415,139,66701,6,0,P|396:212|424:288,1,135,4|0,1:2|0:0,0:0:0:0:
452,332,67034,1,8,0:0:0:0:
496,204,67201,1,0,3:3:0:0:
496,204,67284,1,0,0:0:0:0:
496,204,67367,1,0,1:0:0:0:
332,360,67534,1,0,1:0:0:0:
278,228,67701,2,0,P|266:176|286:136,1,90,8|0,0:0|0:0,0:0:0:0:
368,36,68034,6,0,P|316:60|208:32,1,135,0|0,1:0|0:0,0:0:0:0:
172,16,68367,1,8,0:0:0:0:
156,164,68534,1,0,3:0:0:0:
156,164,68617,1,0,0:0:0:0:
156,164,68701,1,0,1:0:0:0:
90,50,68867,1,0,1:0:0:0:
72,200,69034,2,0,L|96:304,1,90,8|0,0:0|1:0,0:0:0:0:
232,352,69367,6,0,B|252:320|252:320|228:276|168:280,1,135,0|0,1:0|0:0,0:0:0:0:
92,288,69701,1,8,0:0:0:0:
232,352,69867,2,0,L|304:372,1,45,0|0,3:3|0:0,0:0:0:0:
412,272,70034,1,0,1:0:0:0:
280,260,70201,1,0,1:0:0:0:
388,351,70367,2,0,P|416:307|404:259,1,90,8|0,0:0|0:0,0:0:0:0:
268,116,70701,6,0,B|228:104|228:104|212:176|252:212,1,135,0|0,1:0|0:0,0:0:0:0:
280,260,71034,1,8,0:0:0:0:
396,192,71201,1,0,3:3:0:0:
436,188,71284,1,0,0:0:0:0:
476,184,71367,1,0,1:0:0:0:
348,124,71534,1,0,1:0:0:0:
364,268,71701,1,8,0:0:0:0:
404,264,71784,1,0,0:0:0:0:
444,260,71867,1,0,1:0:0:0:
268,116,72034,6,0,P|188:144|100:112,1,180,4|8,1:2|0:0,0:0:0:0:
208,24,72534,1,0,3:3:0:0:
208,24,72617,1,0,0:0:0:0:
208,24,72701,1,0,1:0:0:0:
212,184,72867,1,0,1:0:0:0:
101,113,73034,2,0,P|72:60|76:16,1,90,8|0,0:0|0:0,0:0:0:0:
208,24,73367,6,0,P|244:92|200:196,1,180,0|8,1:0|0:0,0:0:0:0:
100,256,73867,2,0,L|40:236,1,45,0|0,3:3|0:0,0:0:0:0:
20,140,74034,1,0,1:0:0:0:
144,124,74201,1,0,1:0:0:0:
220,268,74367,2,0,P|220:324|192:360,1,90,8|0,0:0|1:0,0:0:0:0:
165,367,74617,1,0,1:0:0:0:
124,364,74701,6,0,P|100:256|176:212,1,180,0|8,1:0|0:0,0:0:0:0:
276,196,75201,2,0,L|320:200,2,45,0|0|0,3:3|0:0|1:0,0:0:0:0:
144,124,75534,1,0,1:0:0:0:
220,268,75701,1,8,0:0:0:0:
284,116,75867,1,0,1:0:0:0:
143,217,76034,5,0,3:0:0:0:
216,64,76201,1,0,3:0:0:0:
300,272,76367,1,4,3:0:0:0:
144,124,76534,1,0,3:0:0:0:
284,116,76701,1,0,3:0:0:0:
310,116,76784,1,0,3:0:0:0:
336,124,76867,1,0,3:0:0:0:
358,138,76950,1,0,3:0:0:0:
376,158,77034,1,0,1:0:0:0:
390,182,77117,1,0,1:0:0:0:
396,207,77200,1,0,1:0:0:0:
396,234,77284,1,0,1:0:0:0:
392,264,77367,6,0,P|313:356|269:356,1,135,4|0,1:2|0:0,0:0:0:0:
228,312,77701,1,8,0:0:0:0:
228,312,77867,2,0,L|248:204,1,90,0|0,3:3|1:0,0:0:0:0:
288,80,78201,1,0,1:0:0:0:
156,200,78367,2,0,P|92:204|52:176,1,90,8|0,0:0|0:0,0:0:0:0:
180,80,78701,6,0,B|204:52|204:52|228:152,1,135,0|0,1:0|0:0,0:0:0:0:
244,223,79034,1,8,0:0:0:0:
244,223,79201,2,0,L|204:288,1,45,0|0,3:3|0:0,0:0:0:0:
124,356,79367,1,0,1:0:0:0:
108,244,79534,1,0,1:0:0:0:
260,348,79701,2,0,P|312:356|352:344,1,90,8|0,0:0|1:0,0:0:0:0:
380,320,79951,1,0,0:0:0:0:
404,288,80034,6,0,B|424:232|400:196|400:196|352:176,1,135,0|0,1:0|0:0,0:0:0:0:
288,156,80367,1,8,0:0:0:0:
432,128,80534,2,0,P|465:94|465:48,1,90,0|0,3:3|1:0,0:0:0:0:
380,16,80867,1,0,1:0:0:0:
288,156,81034,2,0,P|232:168|176:148,1,90,8|0,0:0|0:0,0:0:0:0:
140,88,81367,6,0,L|104:40,1,45,4|0,3:0|3:0,3:0:0:0:
96,200,81534,2,0,L|85:259,1,45,4|0,3:0|3:0,3:0:0:0:
44,88,81701,1,0,1:0:0:0:
188,272,81867,6,0,L|244:256,1,45,4|0,3:0|3:0,3:0:0:0:
60,352,82034,2,0,L|16:364,1,45,4|0,3:0|3:0,3:0:0:0:
240,352,82201,1,0,3:0:0:0:
268,344,82284,1,0,3:0:0:0:
296,332,82367,1,0,3:0:0:0:
328,324,82451,1,0,3:0:0:0:
356,316,82534,1,0,3:0:0:0:
384,308,82617,1,0,3:0:0:0:
416,300,82701,5,4,0:0:0:0:
511,294,84034,5,8,1:0:0:0:
168,256,84201,1,8,1:0:0:0:
484,188,84701,5,8,1:0:0:0:
168,256,84867,1,8,1:0:0:0:
312,280,85034,5,0,3:0:0:0:
312,280,85117,1,0,3:0:0:0:
312,280,85201,1,0,3:0:0:0:
312,280,85284,1,0,3:0:0:0:
312,280,85367,5,12,3:2:0:0:
264,112,85534,1,0,0:0:0:0:
232,312,85701,5,8,0:0:0:0:
336,88,85867,1,0,0:0:0:0:
168,256,86034,5,8,0:0:0:0:
428,220,86201,1,0,0:0:0:0:
152,180,86367,5,8,0:0:0:0:
444,144,86534,1,0,0:0:0:0:
152,100,86701,5,8,0:0:0:0:
428,220,86867,1,8,0:0:0:0:
232,312,87034,5,8,0:0:0:0:
276,40,87201,1,8,0:0:0:0:
232,312,87367,5,8,3:2:0:0:
262,344,87450,1,0,3:2:0:0:
304,359,87533,1,8,3:2:0:0:
348,352,87616,1,0,3:2:0:0:
384,325,87701,6,0,L|404:256,1,45,8|0,3:2|3:2,0:0:0:0:
482,167,87867,2,0,L|495:210,1,45,8|0,3:2|3:2,0:0:0:0:
493,323,88034,6,0,B|480:344|480:344|452:280|397:282,1,135,6|0,1:2|0:0,0:0:0:0:
389,244,88367,2,0,P|359:276|315:278,1,90,8|0,0:0|3:3,0:0:0:0:
280,265,88617,1,0,0:0:0:0:
244,256,88700,1,0,1:2:0:0:
144,360,88867,1,0,1:2:0:0:
60,276,89034,2,0,P|48:224|68:184,1,90,8|0,0:0|0:0,0:0:0:0:
159,51,89367,6,0,P|167:123|123:175,1,135,0|0,1:0|0:0,0:0:0:0:
61,191,89701,2,0,L|33:99,1,90,8|0,0:0|3:3,0:0:0:0:
48,24,89951,1,0,0:0:0:0:
48,24,90034,1,2,1:2:0:0:
223,77,90201,1,0,1:0:0:0:
61,191,90367,1,10,0:2:0:0:
232,200,90534,1,0,1:0:0:0:
232,200,90617,1,0,0:0:0:0:
232,200,90701,6,0,P|288:200|356:144,1,135,2|0,1:2|0:0,0:0:0:0:
432,132,91034,2,0,P|396:76|356:72,1,90,8|0,0:0|3:3,0:0:0:0:
296,84,91284,1,0,0:0:0:0:
296,84,91367,1,0,1:0:0:0:
372,240,91534,1,0,1:0:0:0:
432,132,91701,1,10,0:0:0:0:
232,200,91867,1,2,0:0:0:0:
372,240,92034,5,2,1:2:0:0:
372,240,92201,1,0,0:0:0:0:
296,84,92367,2,0,P|240:56|200:60,1,90,10|0,0:0|3:3,0:0:0:0:
112,112,92701,1,2,1:2:0:0:
100,141,92784,1,0,1:0:0:0:
97,172,92867,1,0,1:0:0:0:
106,202,92950,1,0,1:0:0:0:
124,228,93034,2,0,P|144:252|144:272,1,45,0|0,1:0|1:0,0:0:0:0:
56,352,93201,2,0,P|48:332|68:300,1,45,0|0,1:0|1:0,0:0:0:0:
192,152,93367,5,2,1:2:0:0:
336,320,93534,1,2,0:0:0:0:
176,352,93701,1,10,0:2:0:0:
288,164,93867,2,0,P|340:144|376:160,1,90,6|0,3:2|1:0,0:0:0:0:
408,172,94117,1,0,0:0:0:0:
440,200,94201,1,0,1:0:0:0:
336,320,94367,1,10,0:0:0:0:
288,164,94534,1,0,0:0:0:0:
359,31,94701,6,0,P|387:103|359:167,1,135,2|0,1:2|0:0,0:0:0:0:
288,164,95034,2,0,L|192:172,1,90,10|2,0:0|3:2,0:0:0:0:
156,172,95284,1,0,0:0:0:0:
116,176,95367,1,0,1:2:0:0:
16,76,95534,1,2,1:2:0:0:
200,92,95701,1,10,0:2:0:0:
124,264,95867,1,2,1:2:0:0:
124,264,95951,1,0,0:2:0:0:
124,264,96034,6,0,B|80:292|36:268|28:240|28:240|72:252,1,135,2|0,1:2|0:0,0:0:0:0:
120,344,96367,2,0,L|212:356,1,90,12|0,0:0|0:0,0:0:0:0:
312,328,96701,2,0,P|324:304|316:276,1,45,2|0,1:2|0:0,0:0:0:0:
227,225,96867,2,0,P|215:249|223:277,1,45,0|0,1:0|0:0,0:0:0:0:
404,252,97034,2,0,P|416:228|408:200,1,45,10|0,0:0|0:0,1:0:0:0:
319,149,97200,2,0,P|307:173|315:201,1,45,0|0,1:0|0:0,0:0:0:0:
420,80,97367,5,6,3:2:0:0:
404,63,97450,1,0,3:0:0:0:
385,51,97533,1,0,3:0:0:0:
365,42,97617,1,0,3:0:0:0:
343,37,97700,1,2,3:2:0:0:
320,37,97783,1,0,3:0:0:0:
298,41,97867,1,0,3:0:0:0:
277,49,97950,1,0,3:0:0:0:
259,62,98033,5,2,3:2:0:0:
243,78,98116,1,0,3:0:0:0:
233,94,98201,2,0,P|220:128|219:163,1,45,0|0,3:2|3:2,0:0:0:0:
274,221,98367,2,0,P|287:187|288:152,1,45,2|0,3:2|3:2,0:0:0:0:
149,77,98534,2,0,P|136:111|135:146,1,45,2|0,3:2|3:2,0:0:0:0:
184,232,98701,6,0,P|172:288|184:368,1,135.000005149842,4|0,1:0|1:0,0:0:0:0:
274,221,99201,1,8,0:0:0:0:
274,221,99534,1,8,0:0:0:0:
400,264,99701,2,0,L|312:288,1,67.5000025749208,0|0,1:0|0:0,0:0:0:0:
424,180,100034,6,0,P|436:140|428:108,1,67.5000025749208,0|0,1:0|0:0,0:0:0:0:
360,52,100367,1,0,1:0:0:0:
424,180,100534,1,8,0:0:0:0:
424,180,100867,1,8,0:0:0:0:
328,148,101033,1,0,1:0:0:0:
420,276,101200,1,0,1:0:0:0:
264,216,101367,6,0,P|240:168|268:84,1,135.000005149842,0|0,1:0|1:0,0:0:0:0:
136,48,101867,1,8,0:0:0:0:
136,48,102201,2,0,P|160:104|152:136,2,67.5000025749208,8|0|0,0:0|0:0|0:0,0:0:0:0:
100,168,102701,6,0,P|96:224|140:304,1,135.000005149842,0|0,1:0|1:0,0:0:0:0:
288,248,103201,1,8,0:0:0:0:
288,248,103534,1,8,0:0:0:0:
128,292,103701,1,0,0:0:0:0:
232,336,103867,1,0,1:0:0:0:
276,172,104034,6,0,P|272:116|212:72,1,135.000005149842,0|0,1:0|1:0,0:0:0:0:
24,204,104534,1,8,0:0:0:0:
24,204,104867,1,8,0:0:0:0:
104,116,105034,1,0,1:0:0:0:
104,116,105201,1,0,0:0:0:0:
168,216,105367,6,0,P|228:236|292:192,1,135.000005149842,0|0,1:0|1:0,0:0:0:0:
184,88,105867,1,8,0:0:0:0:
184,88,106201,1,8,0:0:0:0:
184,88,106284,1,0,0:0:0:0:
184,88,106367,1,0,1:0:0:0:
24,100,106534,1,0,1:0:0:0:
184,88,106701,6,0,P|248:72|312:92,1,135.000005149842,0|0,1:0|1:0,0:0:0:0:
424,176,107201,1,8,0:0:0:0:
424,176,107534,1,8,0:0:0:0:
484,120,107701,1,0,1:0:0:0:
416,76,107867,6,0,L|424:48,3,22.5000008583069,0|0|0|0,3:0|0:0|0:0|3:0,0:0:0:0:
424,176,108201,1,2,3:0:0:0:
432,276,108367,1,0,3:0:0:0:
416,76,108534,1,4,3:2:0:0:
416,76,108867,1,2,0:0:0:0:
416,76,108951,1,2,0:0:0:0:
416,76,109034,1,0,1:0:0:0:
424,176,109201,1,0,1:0:0:0:
432,276,109367,6,0,P|348:280|288:204,1,180,4|8,1:0|0:0,0:0:0:0:
424,176,109867,1,0,3:3:0:0:
344,320,110034,1,0,1:0:0:0:
288,212,110201,1,0,1:0:0:0:
492,224,110367,2,0,P|512:280|504:320,1,90,8|0,0:0|0:0,0:0:0:0:
288,212,110701,6,0,B|304:104,1,90,2|2,1:2|0:2,0:0:0:0:
212,24,111034,1,10,0:2:0:0:
300,124,111201,1,2,3:2:0:0:
300,124,111284,1,0,0:0:0:0:
300,124,111367,1,2,1:2:0:0:
388,44,111534,1,2,1:2:0:0:
208,120,111701,2,0,P|212:172|252:200,1,90,8|0,0:0|1:0,0:0:0:0:
263,208,111951,1,0,1:0:0:0:
288,212,112034,6,0,B|420:192|420:192|372:164,1,180,0|8,1:0|0:0,0:0:0:0:
336,324,112534,1,0,3:3:0:0:
460,180,112701,1,0,1:0:0:0:
288,212,112867,1,0,1:0:0:0:
424,332,113034,2,0,P|456:296|456:232,1,90,8|0,0:0|0:0,0:0:0:0:
288,212,113367,5,0,1:0:0:0:
336,324,113534,1,2,0:2:0:0:
379,168,113701,1,10,0:2:0:0:
248,324,113867,1,2,3:2:0:0:
248,324,113950,1,0,0:0:0:0:
248,324,114033,1,0,1:0:0:0:
380,252,114201,1,2,1:2:0:0:
208,248,114367,1,8,0:0:0:0:
336,324,114534,2,0,L|324:264,1,45,0|0,1:0|1:0,0:0:0:0:
216,164,114701,6,0,P|152:184|140:292,1,180,4|8,1:2|0:0,0:0:0:0:
216,164,115201,1,0,3:3:0:0:
44,200,115367,1,0,1:0:0:0:
208,248,115534,1,0,1:0:0:0:
136,100,115701,2,0,P|72:92|40:100,1,90,8|0,0:0|0:0,0:0:0:0:
216,164,116034,5,2,1:2:0:0:
300,56,116201,1,2,0:2:0:0:
136,100,116367,1,10,0:2:0:0:
304,144,116534,1,2,3:2:0:0:
304,144,116617,1,0,0:0:0:0:
304,144,116701,1,2,1:2:0:0:
208,36,116867,1,2,1:2:0:0:
280,220,117034,2,0,P|292:272|288:312,1,90,8|0,0:0|1:0,0:0:0:0:
271,326,117284,1,0,1:0:0:0:
248,336,117367,6,0,B|180:332|180:332|128:312|128:312|48:300,1,180,0|8,1:0|0:0,0:0:0:0:
152,192,117867,1,0,3:3:0:0:
176,360,118034,1,0,1:0:0:0:
72,228,118201,1,0,1:0:0:0:
252,280,118367,2,0,P|268:224|244:164,1,90,8|0,0:0|0:0,0:0:0:0:
152,48,118701,5,0,1:0:0:0:
152,192,118867,1,2,1:2:0:0:
240,40,119034,1,10,0:2:0:0:
261,193,119201,1,2,1:2:0:0:
261,193,119284,1,0,0:0:0:0:
261,193,119367,1,0,0:0:0:0:
96,120,119534,1,2,3:2:0:0:
76,160,119617,1,0,3:0:0:0:
76,204,119701,2,0,P|88:244|96:256,1,45,0|0,3:0|3:0,1:2:0:0:
176,360,119867,2,0,P|164:320|156:308,1,45,0|0,3:0|3:0,1:2:0:0:
152,184,120034,5,4,0:2:0:0:
320,144,120201,2,0,P|340:92|335:47,1,72,0|0,1:0|0:0,0:0:0:0:
156,16,120534,5,4,0:0:0:0:
244,168,120701,2,0,L|231:261,1,72,0|8,1:0|0:0,0:0:0:0:
200,320,121034,6,0,P|236:284|320:296,1,135,4|8,0:0|0:0,0:0:0:0:
332,304,121617,1,8,0:0:0:0:
344,324,121701,1,8,0:0:0:0:
414,353,121867,1,0,1:0:0:0:
480,312,122034,1,0,3:0:0:0:
488,236,122201,1,0,3:0:0:0:
440,176,122367,1,0,3:0:0:0:
440,176,122701,5,4,0:2:0:0:
372,64,122867,2,0,P|424:40|456:40,1,67.5000025749208,0|0,1:0|0:0,0:0:0:0:
316,136,123201,5,4,0:0:0:0:
248,24,123367,2,0,P|300:0|332:0,1,67.5000025749208,0|8,1:0|0:0,0:0:0:0:
192,96,123701,6,0,P|140:96|60:140,1,135,4|8,0:0|0:0,0:0:0:0:
56,152,124284,1,8,0:0:0:0:
52,172,124367,1,8,0:0:0:0:
108,232,124534,1,0,1:0:0:0:
132,308,124701,1,0,3:0:0:0:
204,344,124867,1,0,3:0:0:0:
284,312,125034,1,4,3:2:0:0:
284,312,125367,5,4,0:2:0:0:
284,312,126701,5,2,0:0:0:0:
284,312,128034,5,4,0:0:0:0:
260,110,128201,1,0,0:0:0:0:
188,268,128367,1,0,1:0:0:0:
379,200,128534,1,0,1:0:0:0:
184,156,128701,5,4,1:3:0:0:
208,344,128867,1,4,1:3:0:0:
440,264,129034,1,4,1:3:0:0:
320,64,129200,1,4,1:3:0:0:
356,340,129367,5,4,1:3:0:0:
74,106,129701,6,0,P|57:142|66:181,1,80.9999975280763,2|0,0:0|0:0,0:0:0:0:
136,236,130034,6,0,P|157:194|149:149,1,94.499997116089,2|0,0:0|0:0,0:0:0:0:
65,180,130367,6,0,P|45:236|67:297,1,121.499996292114,2|0,0:0|0:0,0:0:0:0:
127,359,130701,6,0,P|154:299|136:236,1,135,4|0,1:2|0:0,0:0:0:0:
66,181,131034,1,8,0:0:0:0:
192,84,131201,1,0,3:2:0:0:
192,84,131284,1,0,0:0:0:0:
192,84,131367,1,0,1:0:0:0:
135,235,131534,1,0,1:0:0:0:
104,88,131701,2,0,L|120:-4,1,90,8|0,0:0|0:0,0:0:0:0:
264,132,132034,6,0,B|256:208|256:208|212:268,1,135,0|0,1:2|0:0,0:0:0:0:
164,320,132367,1,8,0:0:0:0:
308,272,132534,2,0,L|356:264,2,45,0|0|0,3:2|0:0|1:0,0:0:0:0:
133,236,132867,1,0,1:0:0:0:
260,367,133034,1,8,0:0:0:0:
200,176,133201,1,0,1:0:0:0:
200,176,133284,1,0,0:0:0:0:
200,176,133367,6,0,P|192:108|260:56,1,135,0|0,1:2|0:0,0:0:0:0:
308,40,133701,1,8,0:2:0:0:
292,192,133867,1,0,3:2:0:0:
292,192,133951,1,0,0:0:0:0:
292,192,134034,1,0,1:0:0:0:
136,96,134201,1,0,1:0:0:0:
308,40,134367,1,8,0:0:0:0:
200,176,134534,1,0,0:0:0:0:
356,124,134701,6,0,P|420:132|476:200,1,135,0|0,1:2|0:0,0:0:0:0:
484,256,135034,1,8,0:2:0:0:
319,231,135201,2,0,P|299:203|299:175,1,45,0|0,3:2|0:0,0:0:0:0:
292,76,135367,1,0,1:0:0:0:
468,179,135534,1,0,1:0:0:0:
319,231,135701,1,8,0:0:0:0:
444,88,135867,1,0,1:0:0:0:
444,88,135951,1,0,0:0:0:0:
444,88,136034,6,0,B|484:128|468:180|468:180|496:244,1,135,4|0,1:2|0:0,0:0:0:0:
512,280,136367,1,8,0:0:0:0:
319,231,136534,2,0,L|271:227,2,45,0|0|0,3:2|0:0|1:0,0:0:0:0:
396,152,136867,1,0,1:0:0:0:
368,296,137034,2,0,P|312:312|256:284,1,90,8|0,0:2|0:0,0:0:0:0:
168,264,137367,6,0,B|56:248|56:248|76:288,1,135,0|0,1:2|0:0,0:0:0:0:
119,336,137701,2,0,B|140:360|140:360|180:304|167:263,1,135,8|0,0:0|0:0,0:0:0:0:
144,188,138034,1,0,1:2:0:0:
16,144,138201,1,0,1:0:0:0:
65,267,138367,1,8,2:0:0:0:
232,208,138534,1,0,1:0:0:0:
232,208,138617,1,0,0:0:0:0:
232,208,138701,6,0,P|252:144|172:76,1,180,0|8,1:2|0:0,0:0:0:0:
16,144,139201,1,0,3:3:0:0:
144,188,139367,1,0,1:2:0:0:
80,76,139534,1,0,1:0:0:0:
65,267,139701,1,8,0:0:0:0:
232,208,139867,1,0,0:0:0:0:
232,208,139951,1,0,0:0:0:0:
232,208,140034,6,0,P|256:268|248:312,1,90,4|0,1:2|1:0,0:0:0:0:
208,360,140284,1,0,0:0:0:0:
208,360,140367,1,8,0:0:0:0:
368,196,140534,2,0,L|436:177,1,45,0|0,3:0|0:0,0:0:0:0:
446,306,140701,5,0,3:0:0:0:
402,310,140784,1,0,3:0:0:0:
358,299,140867,1,0,3:0:0:0:
321,274,140951,1,0,3:0:0:0:
294,239,141034,5,0,1:0:0:0:
280,196,141117,1,0,1:0:0:0:
282,151,141201,1,0,1:0:0:0:
298,109,141284,1,0,1:0:0:0:
328,76,141367,6,0,P|392:68|456:108,1,135,4|0,1:2|0:0,0:0:0:0:
484,172,141701,1,8,0:0:0:0:
332,161,141867,1,0,3:0:0:0:
332,161,141951,1,0,0:0:0:0:
332,161,142034,1,0,1:0:0:0:
484,172,142201,1,0,1:0:0:0:
384,16,142367,1,8,0:0:0:0:
500,40,142534,1,0,0:0:0:0:
332,160,142701,6,0,P|256:168|196:104,1,135,0|0,1:0|0:0,0:0:0:0:
192,60,143034,1,8,0:0:0:0:
320,76,143201,1,0,3:3:0:0:
320,76,143284,1,0,0:0:0:0:
320,76,143367,1,0,1:0:0:0:
260,208,143534,1,0,1:0:0:0:
192,60,143701,1,8,0:0:0:0:
332,160,143867,1,0,1:0:0:0:
332,160,143951,1,0,0:0:0:0:
332,160,144034,6,0,P|344:232|304:284,1,135,0|0,1:0|0:0,0:0:0:0:
256,336,144367,1,8,0:0:0:0:
220,227,144534,2,0,P|244:211|272:207,1,45,0|0,3:3|0:0,0:0:0:0:
392,288,144701,1,0,1:0:0:0:
256,336,144867,1,0,1:0:0:0:
259,207,145034,1,8,0:0:0:0:
340,360,145201,1,0,0:0:0:0:
259,207,145367,6,0,P|264:136|316:80,1,135,0|0,1:0|0:0,0:0:0:0:
368,48,145701,1,8,0:0:0:0:
420,188,145867,1,0,3:3:0:0:
420,188,145951,1,0,0:0:0:0:
420,188,146034,1,0,1:0:0:0:
304,88,146201,1,0,1:0:0:0:
472,120,146367,1,8,0:0:0:0:
348,232,146534,2,0,P|344:264|352:296,1,45,0|0,1:0|0:0,0:0:0:0:
404,356,146701,6,0,P|332:328|224:368,1,180,4|8,1:2|0:0,0:0:0:0:
131,274,147201,2,0,L|69:254,2,45,0|0|0,3:3|0:0|1:0,0:0:0:0:
260,256,147534,1,0,1:0:0:0:
120,348,147701,1,8,0:0:0:0:
216,184,147867,1,0,0:0:0:0:
120,348,148034,6,0,P|80:268|124:192,1,180,0|8,1:0|0:0,0:0:0:0:
224,68,148534,2,0,L|228:16,2,45,0|0|0,3:3|0:0|1:0,0:0:0:0:
216,184,148867,1,0,1:0:0:0:
116,64,149034,1,8,0:0:0:0:
216,184,149201,1,0,1:0:0:0:
216,184,149284,1,0,0:0:0:0:
216,184,149367,6,0,P|276:204|384:160,1,180,0|8,1:0|0:0,0:0:0:0:
297,82,149867,1,0,3:3:0:0:
297,82,149951,1,0,0:0:0:0:
297,82,150034,1,0,1:0:0:0:
280,232,150201,1,0,1:0:0:0:
380,72,150367,1,8,0:0:0:0:
428,236,150534,1,0,1:0:0:0:
297,82,150701,5,0,3:0:0:0:
464,96,150867,1,0,3:0:0:0:
352,264,151034,1,4,3:0:0:0:
380,72,151201,1,0,3:0:0:0:
280,172,151367,1,0,3:0:0:0:
259,167,151450,1,0,3:0:0:0:
239,157,151533,1,0,3:0:0:0:
223,142,151617,1,0,3:0:0:0:
212,124,151701,1,0,1:0:0:0:
205,104,151783,1,0,1:0:0:0:
204,82,151867,1,0,1:0:0:0:
208,61,151950,1,0,1:0:0:0:
218,42,152034,6,0,P|280:8|352:44,1,135,4|0,1:2|0:0,0:0:0:0:
404,76,152367,1,8,0:0:0:0:
488,192,152534,2,0,P|424:204|396:184,1,90,0|0,3:3|1:0,0:0:0:0:
320,128,152867,1,0,1:0:0:0:
476,102,153034,2,0,L|487:191,1,90,8|0,0:0|0:0,0:0:0:0:
456,316,153367,6,0,B|408:328|408:328|368:320|368:320|296:336,1,135,0|0,1:0|0:0,0:0:0:0:
252,356,153701,1,8,0:0:0:0:
128,280,153867,1,0,3:3:0:0:
148,272,153951,1,0,0:0:0:0:
168,264,154034,1,0,1:0:0:0:
296,256,154201,1,0,1:0:0:0:
148,360,154367,2,0,P|84:352|56:304,1,90,8|0,0:0|1:0,0:0:0:0:
52,295,154617,1,0,0:0:0:0:
48,252,154701,6,0,P|48:196|96:132,1,135,0|0,1:0|0:0,0:0:0:0:
164,104,155034,1,8,0:0:0:0:
240,192,155201,2,0,L|260:236,2,45,0|0|0,3:3|0:0|1:0,0:0:0:0:
164,104,155534,1,0,1:0:0:0:
260,48,155701,2,0,P|312:36|356:52,1,90,8|0,0:0|0:0,0:0:0:0:
380,176,156034,6,0,L|392:124,1,45,4|0,3:0|3:0,3:0:0:0:
480,40,156201,2,0,L|469:83,1,45,4|0,3:0|3:0,3:0:0:0:
472,180,156367,1,0,1:0:0:0:
380,260,156534,6,0,L|336:249,1,45,4|0,3:0|3:0,3:0:0:0:
444,324,156701,2,0,L|487:334,1,45,4|0,3:0|3:0,3:0:0:0:
316,328,156867,1,0,3:0:0:0:
294,322,156951,1,0,3:0:0:0:
273,317,157033,1,0,3:0:0:0:
252,312,157117,1,0,3:0:0:0:
231,307,157200,1,0,3:0:0:0:
210,302,157283,1,0,3:0:0:0:
189,297,157367,5,4,0:0:0:0:
38,361,158701,5,8,1:0:0:0:
88,114,158867,1,8,1:0:0:0:
160,366,159367,5,8,1:0:0:0:
88,114,159534,1,8,1:0:0:0:
224,204,159701,5,0,3:0:0:0:
224,204,159784,1,0,3:0:0:0:
224,204,159867,1,0,3:0:0:0:
224,204,159951,1,0,3:0:0:0:
224,204,160034,5,12,1:0:0:0:
496,240,160201,1,0,0:0:0:0:
344,112,160367,1,0,1:0:0:0:
272,356,160534,1,12,1:0:0:0:
460,120,160701,1,0,0:0:0:0:
240,104,160867,1,0,1:0:0:0:
436,304,161034,1,12,1:0:0:0:
208,216,161201,1,0,1:0:0:0:
208,216,161284,1,0,1:0:0:0:
208,216,161367,5,0,1:0:0:0:
436,304,161534,1,12,1:0:0:0:
284,176,161701,1,0,1:0:0:0:
272,356,161867,1,0,1:0:0:0:
452,188,162034,1,8,1:0:0:0:
208,216,162201,1,0,1:0:0:0:
440,48,162367,1,8,1:0:0:0:
224,8,162534,1,0,1:0:0:0:
288,272,162701,5,12,1:0:0:0:
288,272,163034,1,0,1:0:0:0:
240,104,163201,1,12,1:0:0:0:
452,188,163367,1,0,0:0:0:0:
288,272,163534,1,0,1:0:0:0:
352,32,163701,1,12,1:0:0:0:
384,256,163867,1,0,1:0:0:0:
384,256,163951,1,0,1:0:0:0:
384,256,164034,5,0,1:0:0:0:
148,152,164201,1,12,1:0:0:0:
352,32,164367,1,0,1:0:0:0:
288,272,164534,1,0,1:0:0:0:
168,72,164701,1,8,1:0:0:0:
288,164,164867,1,0,1:0:0:0:
288,164,164951,1,0,0:0:0:0:
288,164,165034,2,0,L|360:176,1,45,8|0,1:0|0:0,0:0:0:0:
92,96,165200,2,0,L|47:88,1,45,0|0,1:0|0:0,0:0:0:0:
352,32,165367,5,12,1:0:0:0:
148,152,165534,1,0,0:0:0:0:
288,272,165701,1,0,1:0:0:0:
72,164,165867,1,12,1:0:0:0:
228,24,166034,1,0,0:0:0:0:
292,248,166201,1,0,1:0:0:0:
80,236,166367,1,12,1:0:0:0:
228,24,166534,1,0,1:0:0:0:
228,24,166617,1,0,1:0:0:0:
228,24,166701,5,0,1:0:0:0:
80,236,166867,1,12,1:0:0:0:
100,12,167034,1,0,1:0:0:0:
272,96,167201,1,0,1:0:0:0:
36,112,167367,1,12,1:0:0:0:
228,24,167534,1,0,1:0:0:0:
232,236,167701,1,12,1:0:0:0:
116,108,167867,1,0,1:0:0:0:
320,272,168034,5,12,1:0:0:0:
80,184,168201,1,0,0:0:0:0:
356,204,168367,5,8,1:0:0:0:
100,328,168534,1,0,0:0:0:0:
400,272,168701,5,8,1:0:0:0:
38,251,168867,1,0,0:0:0:0:
417,345,169034,5,8,1:0:0:0:
23,325,169201,1,0,0:0:0:0:
338,52,169367,5,8,1:0:0:0:
100,328,169534,1,8,1:0:0:0:
8,19,169701,5,8,1:0:0:0:
164,371,169867,1,8,1:0:0:0:
225,133,170034,5,8,1:0:0:0:
242,91,170117,1,0,0:0:0:0:
281,70,170200,1,8,1:0:0:0:
326,70,170284,1,0,0:0:0:0:
368,88,170367,5,0,3:0:0:0:
381,130,170450,1,0,3:0:0:0:
417,156,170533,1,0,3:0:0:0:
461,158,170617,1,0,3:0:0:0:
498,134,170701,6,0,P|468:192|464:316,1,180,4|8,1:2|0:0,0:0:0:0:
336,184,171201,1,0,3:2:0:0:
384,376,171367,1,0,1:0:0:0:
512,224,171534,1,0,1:0:0:0:
304,308,171701,2,0,L|200:314,1,90,8|0,0:0|0:0,0:0:0:0:
32,176,172034,5,0,1:2:0:0:
68,372,172201,1,0,0:0:0:0:
200,228,172367,1,8,0:0:0:0:
16,296,172534,1,0,3:2:0:0:
16,296,172617,1,0,0:0:0:0:
16,296,172701,1,0,1:0:0:0:
160,372,172867,1,0,1:0:0:0:
32,176,173034,1,8,0:0:0:0:
200,228,173201,1,0,1:0:0:0:
200,228,173284,1,0,0:0:0:0:
200,228,173367,6,0,B|264:252|328:220|328:220|300:224|272:208,1,180,0|8,1:2|0:2,0:0:0:0:
144,136,173867,1,0,3:2:0:0:
144,136,173951,1,0,0:0:0:0:
144,136,174034,1,0,1:0:0:0:
214,313,174201,1,0,1:0:0:0:
260,132,174367,2,0,L|240:32,1,90,8|0,0:0|1:0,0:0:0:0:
281,212,174701,6,0,P|349:228|389:180,1,135,0|0,1:2|0:0,0:0:0:0:
416,108,175034,2,0,L|328:80,1,90,8|0,0:2|3:2,0:0:0:0:
292,104,175284,1,0,0:0:0:0:
260,132,175367,1,0,1:0:0:0:
368,284,175534,1,0,1:0:0:0:
416,108,175701,1,8,0:0:0:0:
260,132,175867,1,0,1:0:0:0:
260,132,175951,1,0,0:0:0:0:
260,132,176034,6,0,P|192:152|88:104,1,180,0|8,1:2|0:0,0:0:0:0:
188,32,176534,2,0,L|220:0,2,45,0|0|0,3:2|0:0|1:0,0:0:0:0:
176,244,176867,1,0,1:0:0:0:
96,112,177034,1,8,0:2:0:0:
260,132,177201,1,0,0:0:0:0:
31,182,177367,6,0,P|3:127|55:24,1,180,0|8,1:2|0:0,0:0:0:0:
176,244,177867,1,0,3:3:0:0:
176,244,177951,1,0,0:0:0:0:
176,244,178034,1,0,1:2:0:0:
96,112,178201,1,0,1:0:0:0:
260,132,178367,1,8,2:0:0:0:
80,280,178534,1,0,1:0:0:0:
80,280,178617,1,0,0:0:0:0:
80,280,178701,6,0,P|168:288|248:332,1,180,0|8,1:2|0:0,0:0:0:0:
428,232,179201,1,0,3:3:0:0:
428,232,179284,1,0,0:0:0:0:
428,232,179367,1,0,1:2:0:0:
336,384,179534,1,0,1:0:0:0:
276,180,179701,1,8,0:0:0:0:
428,232,179867,1,0,0:0:0:0:
247,331,180034,6,0,P|215:271|215:235,1,90,0|0,1:2|1:0,0:0:0:0:
332,56,180367,2,0,P|364:116|364:152,1,90,12|0,0:0|3:3,0:0:0:0:
213,250,180701,1,0,3:0:0:0:
188,269,180784,1,0,3:0:0:0:
158,277,180867,1,0,3:0:0:0:
126,274,180951,1,0,3:0:0:0:
99,260,181034,5,0,1:0:0:0:
95,230,181117,1,0,1:0:0:0:
92,200,181200,1,0,1:0:0:0:
88,170,181284,1,0,1:0:0:0:
85,140,181367,6,0,P|136:80|224:104,1,180,4|8,1:2|0:0,0:0:0:0:
380,128,181867,1,0,3:3:0:0:
204,184,182034,1,0,1:0:0:0:
280,44,182201,1,0,1:0:0:0:
374,210,182367,2,0,P|390:262|386:306,1,90,8|0,0:0|0:0,0:0:0:0:
292,376,182701,6,0,B|240:316|264:248|264:248|320:276,1,180,0|8,1:0|0:0,0:0:0:0:
472,296,183201,1,0,3:3:0:0:
472,296,183284,1,0,0:0:0:0:
472,296,183367,1,0,1:0:0:0:
292,376,183534,1,0,1:0:0:0:
308,192,183701,2,0,L|324:88,1,90,8|0,0:0|1:0,0:0:0:0:
354,81,183951,1,0,0:0:0:0:
388,60,184034,6,0,B|440:32|440:32|424:168,1,180,0|8,1:0|0:0,0:0:0:0:
296,264,184534,1,0,3:3:0:0:
296,264,184617,1,0,0:0:0:0:
296,264,184701,1,0,1:0:0:0:
425,152,184867,1,0,1:0:0:0:
472,296,185034,1,8,0:0:0:0:
296,172,185201,1,0,0:0:0:0:
388,60,185367,5,0,1:0:0:0:
512,120,185534,1,0,0:0:0:0:
380,272,185701,1,8,0:0:0:0:
296,172,185867,1,0,3:3:0:0:
296,172,185951,1,0,0:0:0:0:
296,172,186034,1,0,1:0:0:0:
496,216,186201,1,0,1:0:0:0:
304,340,186367,1,8,0:0:0:0:
261,353,186450,1,0,1:0:0:0:
217,347,186533,1,0,1:0:0:0:
181,321,186617,1,0,1:0:0:0:
160,282,186701,6,0,B|144:240|168:208|168:208|136:176|136:176|160:132|152:96,1,180,4|8,1:2|0:0,0:0:0:0:
107,45,187201,6,0,P|194:42|244:112,1,180,4|8,0:0|0:0,0:0:0:0:
198,188,187701,6,0,B|237:208|278:208|314:168|314:168|334:208|322:248|270:264,1,242.999992584229,4|0,0:0|1:0,0:0:0:0:
172,324,188367,6,0,L|72:336,1,90,0|0,0:0|1:0,0:0:0:0:
280,261,188701,1,0,1:0:0:0:
352,252,188867,1,0,3:0:0:0:
424,240,189034,1,0,3:0:0:0:
496,228,189201,1,0,1:0:0:0:
496,228,189284,1,0,1:0:0:0:
496,228,189367,5,6,1:2:0:0:
352,252,189534,1,0,0:0:0:0:
464,304,189701,5,2,0:0:0:0:
320,328,189868,1,0,0:0:0:0:
424,240,190034,5,2,0:0:0:0:
280,264,190201,1,0,0:0:0:0:
448,164,190367,5,2,0:0:0:0:
304,188,190534,1,0,0:0:0:0:
304,188,190617,1,0,0:0:0:0:
304,188,190701,5,2,0:0:0:0:
280,44,190868,1,0,0:0:0:0:
280,264,191034,5,2,0:0:0:0:
256,120,191201,1,0,0:0:0:0:
232,196,191367,5,2,0:0:0:0:
208,52,191534,1,0,0:0:0:0:
204,272,191701,5,2,0:0:0:0:
180,128,191868,1,0,0:0:0:0:
88,220,192034,5,2,0:0:0:0:
232,196,192201,1,0,0:0:0:0:
136,288,192367,5,2,0:0:0:0:
280,264,192534,1,0,0:0:0:0:
280,264,192617,1,0,0:0:0:0:
280,264,192701,5,2,0:0:0:0:
184,352,192867,1,0,0:0:0:0:
232,196,193034,5,2,0:0:0:0:
136,288,193201,1,0,0:0:0:0:
328,328,193367,6,0,B|348:312|356:280|356:280|360:328|372:364|440:384|488:368|516:316|488:255|488:255|428:240|400:168|400:144|416:88|488:88|512:144|500:176|452:168,1,607.500023174287,2|0,0:0|0:0,0:0:0:0:
334,238,196034,6,0,B|292:224|292:224|336:200|384:216|400:256|400:256|368:296|380:348|380:348|352:335|329:340,1,323.999990112305,4|0,0:0|0:0,0:0:0:0:
196,272,197367,2,0,P|152:264|136:323,1,107.999996704102,2|0,0:0|0:0,0:0:0:0:
196,272,197867,1,0,0:3:0:0:
196,272,197951,1,0,0:3:0:0:
196,272,198034,2,0,P|212:212|196:184,2,71.9999978027344,0|8|8,0:3|0:3|0:3,0:0:0:0:
280,128,198701,6,0,B|300:108|328:120|328:120|348:168|416:172|416:172|440:232|392:312|324:276,1,323.999990112305,4|0,0:0|0:0,0:0:0:0:
216,204,200034,2,0,P|160:200|116:236,1,107.999996704102,2|0,0:0|0:0,0:0:0:0:
184,296,200534,1,0,0:3:0:0:
184,296,200701,2,0,L|296:308,1,107.999996704102,8|0,3:0|0:0,0:0:0:0:
476,324,201367,6,0,B|448:280|364:256|364:256|396:304|369:351,1,215.999993408203,4|2,0:0|0:0,0:0:0:0:
168,264,202701,2,0,B|196:220|280:196|280:196|248:244|275:291,1,215.999993408203,0|2,1:0|0:0,0:0:0:0:
440,212,203867,1,0,1:0:0:0:
440,212,204034,6,0,B|392:164|322:185|322:185|268:168|272:108,1,215.999993408203,0|2,1:0|2:0,0:0:0:0:
412,112,205034,2,0,L|472:120,1,53.9999983520508,0|0,0:0|1:0,0:0:0:0:
440,212,205367,6,0,L|428:288,1,53.9999983520508,0|2,1:0|0:0,0:0:0:0:
352,356,205701,2,0,L|340:280,1,53.9999983520508,2|2,0:0|0:0,0:0:0:0:
280,244,206034,1,10,0:0:0:0:
200,212,206201,1,10,0:0:0:0:
128,260,206367,2,0,L|133:335,1,53.9999983520508,2|2,0:0|0:0,0:0:0:0:
200,128,206701,6,0,P|208:84|188:52,1,67.5000025749208,6|0,0:0|0:0,0:0:0:0:
104,124,206951,1,0,0:0:0:0:
104,124,207034,2,0,P|96:168|116:200,1,67.5000025749208,2|0,0:0|0:0,0:0:0:0:
200,212,207284,1,0,0:0:0:0:
200,212,207367,2,0,L|276:200,1,67.5000025749208,2|0,0:0|0:0,0:0:0:0:
368,184,207617,2,0,L|416:176,1,33.7500012874604,0|0,0:0|0:0,0:0:0:0:
300,116,207867,1,0,0:0:0:0:
300,116,207951,1,0,0:0:0:0:
300,116,208034,6,0,P|252:108|212:128,1,67.5000025749208,2|0,0:0|0:0,0:0:0:0:
368,184,208284,1,0,0:0:0:0:
368,184,208367,2,0,P|416:192|456:172,1,67.5000025749208,2|0,0:0|0:0,0:0:0:0:
512,156,208617,1,0,0:0:0:0:
512,156,208701,2,0,L|504:252,1,67.5000025749208,2|0,0:0|0:0,0:0:0:0:
464,304,208951,2,0,L|472:348,1,33.7500012874604,0|0,0:0|0:0,0:0:0:0:
368,248,209201,1,0,0:0:0:0:
368,248,209284,1,0,0:0:0:0:
368,248,209367,6,0,P|320:232|276:248,1,67.5000025749208,2|0,0:0|0:0,0:0:0:0:
240,328,209617,1,0,0:0:0:0:
240,328,209701,2,0,L|212:248,1,67.5000025749208,2|0,0:0|0:0,0:0:0:0:
144,172,209951,1,0,0:0:0:0:
144,172,210034,2,0,P|132:220|144:252,1,67.5000025749208,2|0,0:0|0:0,0:0:0:0:
220,140,210284,1,0,0:0:0:0:
220,140,210367,2,0,P|232:92|220:60,1,67.5000025749208,0|0,0:0|0:0,0:0:0:0:
96,28,210617,1,0,0:0:0:0:
96,28,210701,6,0,L|192:20,1,67.5000025749208,2|0,0:0|0:0,0:0:0:0:
304,92,210951,1,0,0:0:0:0:
304,92,211035,2,0,L|400:100,1,67.5000025749208,2|0,0:0|0:0,0:0:0:0:
496,164,211284,1,0,0:0:0:0:
496,164,211368,2,0,L|400:172,1,67.5000025749208,2|0,0:0|0:0,0:0:0:0:
300,240,211617,1,0,0:0:0:0:
300,240,211701,2,0,L|396:248,1,67.5000025749208,2|0,0:0|0:0,0:0:0:0:
484,352,212034,6,0,P|496:312|476:256,1,90,2|0,0:0|0:0,0:0:0:0:
299,154,212367,2,0,P|287:194|307:250,1,90,2|0,0:0|0:0,0:0:0:0:
400,356,212701,6,0,P|384:324|344:304,1,45,2|0,0:0|0:0,0:0:0:0:
296,340,212867,2,0,P|274:311|231:298,1,45
192,328,213034,2,0,P|166:303|121:298,1,45,2|0,0:0|0:0,0:0:0:0:
88,348,213200,2,0,P|58:328|13:330,1,45
12,152,213367,6,0,L|0:200,1,49.5000015106202,2|0,0:0|0:0,0:0:0:0:
92,164,213534,2,0,L|88:216,1,49.5000015106202
172,164,213701,2,0,L|176:216,1,49.5000015106202,2|0,0:0|0:0,0:0:0:0:
251,147,213868,2,0,L|264:200,1,49.5000015106202
360,60,214034,6,0,P|334:90|328:128,1,53.9999983520508,2|0,0:0|0:0,0:0:0:0:
360,170,214201,2,0,P|345:207|352:248,1,53.9999983520508,0|0,0:3|0:3,0:3:0:0:
404,268,214367,2,0,P|402:307|424:344,1,53.9999983520508,2|0,0:0|0:0,0:0:0:0:
476,332,214534,2,0,P|488:369|520:392,1,53.9999983520508,0|0,0:3|0:3,0:3:0:0:
484,200,214701,6,0,L|404:196,1,58.4999973220826,2|0,0:0|0:0,0:0:0:0:
240,308,214867,2,0,L|316:300,1,58.4999973220826,2|0,0:0|0:0,0:0:0:0:
408,188,215034,6,0,L|328:184,1,58.4999973220826,2|0,0:0|0:0,0:0:0:0:
168,320,215201,2,0,L|244:312,1,58.4999973220826,2|0,0:0|0:0,0:0:0:0:
332,176,215367,6,0,L|256:172,1,58.4999973220826,2|0,0:0|0:0,0:0:0:0:
96,332,215534,2,0,L|176:324,1,58.4999973220826,2|0,0:0|0:0,0:0:0:0:
256,164,215701,6,0,L|180:160,1,58.4999973220826,2|0,0:0|0:0,0:0:0:0:
24,344,215867,2,0,L|96:336,1,58.4999973220826,2|0,0:0|0:0,0:0:0:0:
176,156,216034,5,4,0:0:0:0:
176,156,216367,2,0,P|220:120|344:136,1,180,2|0,0:0|0:3,0:0:0:0:
368,164,216784,1,0,0:3:0:0:
388,204,216867,1,0,0:3:0:0:
396,249,216950,1,0,0:3:0:0:
388,296,217034,5,0,1:0:0:0:
344,286,217117,1,0,1:0:0:0:
300,294,217200,1,0,1:0:0:0:
264,320,217284,1,0,1:0:0:0:
241,359,217367,6,0,P|248:296|192:232,1,135,4|0,1:2|0:0,0:0:0:0:
144,196,217701,1,8,0:0:0:0:
144,320,217867,1,0,3:2:0:0:
144,320,217951,1,0,0:0:0:0:
144,320,218034,1,0,1:0:0:0:
228,152,218201,1,0,1:0:0:0:
72,256,218367,2,0,P|48:304|56:348,1,90,8|0,0:0|0:0,0:0:0:0:
144,196,218701,6,0,P|136:112|84:76,1,135,0|0,1:2|0:0,0:0:0:0:
24,68,219034,1,8,0:0:0:0:
72,256,219201,1,0,3:2:0:0:
72,256,219284,1,0,0:0:0:0:
72,256,219367,1,0,1:0:0:0:
188,124,219534,1,0,1:0:0:0:
72,256,219701,2,0,P|104:304|160:320,1,90,8|0,0:0|1:0,0:0:0:0:
173,320,219951,1,0,0:0:0:0:
208,296,220034,6,0,P|288:264|360:300,1,135,0|0,1:2|0:0,0:0:0:0:
400,316,220367,1,8,0:2:0:0:
476,164,220534,1,0,3:2:0:0:
476,164,220617,1,0,0:0:0:0:
476,164,220701,1,0,1:0:0:0:
400,316,220867,1,0,1:0:0:0:
340,196,221034,1,8,0:0:0:0:
496,324,221201,1,0,0:0:0:0:
340,196,221367,6,0,P|320:148|348:64,1,135,0|0,1:2|0:0,0:0:0:0:
404,24,221701,1,8,0:2:0:0:
476,164,221867,1,0,3:2:0:0:
476,164,221951,1,0,0:0:0:0:
476,164,222034,1,0,1:0:0:0:
296,136,222201,1,0,1:0:0:0:
404,24,222367,1,8,0:0:0:0:
408,224,222534,1,0,1:0:0:0:
408,224,222617,1,0,0:0:0:0:
408,224,222701,6,0,B|420:284|388:324|388:324|332:308,1,135,4|0,1:2|0:0,0:0:0:0:
284,292,223034,1,8,0:0:0:0:
120,248,223201,1,0,3:2:0:0:
216,356,223367,1,0,1:0:0:0:
80,332,223534,1,0,1:0:0:0:
236,216,223701,2,0,P|240:156|216:100,1,90,8|0,0:2|0:0,0:0:0:0:
152,56,224034,6,0,B|136:24|136:24|256:36,1,135,0|0,1:2|0:0,0:0:0:0:
312,52,224367,2,0,B|340:88|340:88|400:64|456:92,1,135,8|0,0:0|0:0,0:0:0:0:
488,128,224701,1,0,1:2:0:0:
352,176,224867,1,0,1:0:0:0:
428,80,225034,1,8,2:0:0:0:
460,228,225201,1,0,1:0:0:0:
460,228,225284,1,0,0:0:0:0:
460,228,225367,6,0,P|400:296|308:284,1,180,0|8,1:2|0:0,0:0:0:0:
160,248,225867,1,0,3:3:0:0:
160,248,225950,1,0,0:0:0:0:
160,248,226033,1,0,1:2:0:0:
296,180,226200,1,0,1:0:0:0:
184,156,226367,1,8,0:0:0:0:
317,289,226534,1,0,0:0:0:0:
317,289,226617,1,0,0:0:0:0:
317,289,226701,5,4,1:2:0:0:
248,104,226867,1,0,1:0:0:0:
160,248,227034,1,8,0:0:0:0:
344,148,227201,1,0,3:3:0:0:
363,128,227284,1,0,0:0:0:0:
387,116,227367,5,0,3:0:0:0:
414,111,227451,1,0,3:0:0:0:
441,116,227534,1,0,3:0:0:0:
465,129,227617,1,0,3:0:0:0:
484,152,227701,5,0,1:0:0:0:
481,192,227784,1,0,1:0:0:0:
476,232,227867,1,0,1:0:0:0:
473,277,227951,1,0,1:0:0:0:
465,316,228034,6,0,P|396:347|332:319,1,135,4|0,1:2|0:0,0:0:0:0:
284,280,228367,1,8,0:0:0:0:
128,236,228534,1,0,3:3:0:0:
128,236,228617,1,0,0:0:0:0:
128,236,228701,1,0,1:0:0:0:
256,360,228867,1,0,1:0:0:0:
184,164,229034,1,8,0:0:0:0:
176,340,229200,1,0,0:0:0:0:
264,176,229367,6,0,P|276:116|220:56,1,135,0|0,1:0|0:0,0:0:0:0:
164,28,229701,1,8,0:0:0:0:
88,176,229867,1,0,3:3:0:0:
88,176,229951,1,0,0:0:0:0:
88,176,230034,1,0,1:0:0:0:
233,61,230201,1,0,1:0:0:0:
80,36,230368,1,8,0:0:0:0:
184,168,230535,1,0,1:0:0:0:
184,168,230617,1,0,0:0:0:0:
184,168,230701,6,0,P|204:232|180:312,1,135,0|0,1:0|0:0,0:0:0:0:
124,336,231034,1,8,0:0:0:0:
88,176,231201,1,0,3:3:0:0:
88,176,231284,1,0,0:0:0:0:
88,176,231367,1,0,1:0:0:0:
248,248,231534,1,0,1:0:0:0:
52,272,231701,1,8,0:0:0:0:
160,96,231867,1,0,0:0:0:0:
248,248,232034,6,0,P|224:312|144:348,1,135,0|0,1:0|0:0,0:0:0:0:
88,348,232367,1,8,0:0:0:0:
88,176,232534,1,0,3:3:0:0:
88,176,232617,1,0,0:0:0:0:
88,176,232701,1,0,1:0:0:0:
248,248,232867,1,0,1:0:0:0:
52,272,233034,1,8,0:0:0:0:
272,168,233201,1,0,1:0:0:0:
272,168,233284,1,0,0:0:0:0:
272,168,233367,6,0,P|324:168|424:248,1,180,4|8,1:2|0:0,0:0:0:0:
323,294,233867,1,0,3:3:0:0:
323,294,233951,1,0,0:0:0:0:
323,294,234034,1,0,1:0:0:0:
412,167,234201,1,0,1:0:0:0:
496,264,234367,2,0,P|504:320|492:368,1,90,8|0,0:0|0:0,0:0:0:0:
323,294,234701,6,0,P|303:218|355:126,1,180,0|8,1:0|0:0,0:0:0:0:
448,48,235201,1,0,3:3:0:0:
448,48,235284,1,0,0:0:0:0:
448,48,235367,1,0,1:0:0:0:
379,214,235534,1,0,1:0:0:0:
507,185,235701,1,8,0:0:0:0:
348,132,235867,1,0,1:0:0:0:
348,132,235951,1,0,0:0:0:0:
348,132,236034,6,0,P|284:88|184:120,1,180,0|8,1:0|0:0,0:0:0:0:
190,266,236534,1,0,3:3:0:0:
190,266,236617,1,0,0:0:0:0:
190,266,236701,1,0,1:0:0:0:
100,142,236867,1,0,1:0:0:0:
245,189,237034,1,8,0:0:0:0:
100,236,237201,1,0,1:0:0:0:
190,113,237367,5,0,3:0:0:0:
16,184,237534,1,0,3:0:0:0:
112,324,237701,1,4,3:0:0:0:
100,142,237867,1,0,3:0:0:0:
256,280,238034,1,0,3:0:0:0:
271,292,238117,1,0,3:0:0:0:
290,300,238200,1,0,3:0:0:0:
310,304,238284,1,0,3:0:0:0:
330,302,238367,1,0,1:0:0:0:
349,295,238450,1,0,1:0:0:0:
366,284,238534,1,0,1:0:0:0:
379,269,238617,1,0,1:0:0:0:
389,251,238701,6,0,L|316:128,1,135,4|0,1:2|0:0,0:0:0:0:
252,96,239034,1,8,0:0:0:0:
396,168,239201,1,0,3:3:0:0:
396,168,239284,1,0,0:0:0:0:
396,168,239367,1,0,1:0:0:0:
340,56,239534,1,0,1:0:0:0:
300,208,239701,2,0,P|260:232|192:224,1,90,8|0,0:0|0:0,0:0:0:0:
96,212,240034,6,0,B|132:188|132:188|152:244|116:308,1,135,0|0,1:0|0:0,0:0:0:0:
92,344,240367,1,8,0:0:0:0:
217,233,240534,1,0,3:3:0:0:
217,233,240617,1,0,0:0:0:0:
217,233,240701,1,0,1:0:0:0:
52,276,240867,1,0,1:0:0:0:
216,232,241034,1,8,0:0:0:0:
132,144,241201,1,0,1:0:0:0:
132,144,241284,1,0,0:0:0:0:
132,144,241367,6,0,P|160:84|256:84,1,135,0|0,1:0|0:0,0:0:0:0:
296,92,241701,1,8,0:0:0:0:
432,48,241867,1,0,3:3:0:0:
432,48,241951,1,0,0:0:0:0:
432,48,242034,1,0,1:0:0:0:
296,92,242201,1,0,1:0:0:0:
424,180,242367,2,0,P|476:188|520:168,1,90,8|0,0:0|0:0,0:0:0:0:
360,240,242701,5,4,3:0:0:0:
345,267,242784,1,0,3:0:0:0:
346,298,242867,1,4,3:0:0:0:
362,324,242951,1,0,3:0:0:0:
390,338,243034,1,0,1:0:0:0:
256,288,243201,5,4,3:0:0:0:
218,263,243284,1,0,3:0:0:0:
174,259,243367,1,4,3:0:0:0:
133,277,243451,1,0,3:0:0:0:
105,312,243534,1,0,3:0:0:0:
104,285,243617,1,0,3:0:0:0:
99,258,243701,1,0,3:0:0:0:
92,232,243784,1,0,3:0:0:0:
81,207,243867,1,0,3:0:0:0:
68,184,243950,1,0,3:0:0:0:
52,162,244034,5,4,0:0:0:0:
214,64,245367,5,8,1:0:0:0:
256,296,245534,1,8,1:0:0:0:
299,65,246034,5,8,1:0:0:0:
256,296,246201,1,8,1:0:0:0:
356,200,246367,5,0,3:0:0:0:
356,200,246451,1,0,3:0:0:0:
356,200,246534,1,0,3:0:0:0:
356,200,246617,1,0,3:0:0:0:
356,200,246701,5,12,3:2:0:0:
196,128,246867,1,0,0:0:0:0:
368,280,247034,5,8,0:0:0:0:
192,208,247201,1,0,0:0:0:0:
428,224,247367,5,8,0:0:0:0:
188,292,247534,1,0,0:0:0:0:
444,304,247701,5,8,0:0:0:0:
192,208,247867,1,0,0:0:0:0:
428,224,248034,5,8,0:0:0:0:
196,128,248201,1,8,0:0:0:0:
416,144,248368,5,8,0:0:0:0:
204,44,248535,1,8,0:0:0:0:
116,284,248701,5,8,3:2:0:0:
113,297,248784,1,0,3:2:0:0:
111,310,248867,1,8,3:2:0:0:
109,324,248951,1,0,3:2:0:0:
76,344,249034,5,8,3:2:0:0:
71,321,249117,1,0,3:2:0:0:
66,299,249200,1,8,3:2:0:0:
62,277,249284,1,0,3:2:0:0:
57,255,249367,6,0,L|64:200,1,53.9999983520508,6|0,1:2|0:0,0:0:0:0:
120,136,249867,2,0,P|148:128|196:144,1,80.9999975280763,2|2,0:0|0:0,0:0:0:0:
195,143,250701,2,0,L|231:247,1,107.999996704102,2|2,0:0|0:0,0:0:0:0:
444,304,252034,6,0,P|408:320|384:312,1,53.9999983520508,2|0,0:0|0:0,0:0:0:0:
324,288,252534,2,0,P|300:280|248:304,1,80.9999975280763,2|2,0:0|0:0,0:0:0:0:
250,300,253367,2,0,L|146:328,1,107.999996704102,2|2,0:0|0:0,0:0:0:0:
96,200,254701,6,0,P|128:184|164:188,1,72,2|2,0:0|0:0,0:0:0:0:
224,228,257367,5,2,0:0:0:0:
256,192,257534,12,0,262701,0:0:0:0:
