osu file format v14

[General]
AudioFilename: audio.mp3
AudioLeadIn: 0
PreviewTime: 55972
Countdown: 0
SampleSet: Soft
StackLeniency: 0.7
Mode: 0
LetterboxInBreaks: 0
WidescreenStoryboard: 0

[Editor]
Bookmarks: 34722,262722
DistanceSpacing: 1
BeatDivisor: 4
GridSize: 16
TimelineZoom: 2.6

[Metadata]
Title:Prima Stella
TitleUnicode:プリマステラ
Artist:Kano
ArtistUnicode:鹿乃
Creator:KuranteMelodii
Version:Akitoshi's Normal
Source:
Tags:nowhere samfree ゆうゆ Yuuyu [-AKiTOSHi-] Akitoshi Underforest 7ka -Nanaka- [_-Scarlet-_] Scarlet Del05 SnowNiNo_
BeatmapID:958507
BeatmapSetID:443014

[Difficulty]
HPDrainRate:4
CircleSize:3.3
OverallDifficulty:4
ApproachRate:5
SliderMultiplier:0.949999999999999
SliderTickRate:1

[Events]
//Background and Video events
0,0,"wow.png",0,0
Video,-120,"primastella.avi"
//Break Periods
2,24034,33388
2,98901,108167
//Storyboard Layer 0 (Background)
//Storyboard Layer 1 (Fail)
//Storyboard Layer 2 (Pass)
//Storyboard Layer 3 (Foreground)
//Storyboard Sound Samples

[TimingPoints]
1368,333.333333333333,4,2,1,30,1,0
6034,-100,4,2,1,50,0,0
12034,-100,4,2,1,60,0,0
22701,-100,4,2,1,60,0,0
45367,-100,4,2,1,50,0,0
50701,-100,4,2,1,60,0,0
56034,-100,4,2,1,70,0,1
66617,-100,4,2,1,70,0,0
66701,-100,4,2,1,70,0,1
77367,-100,4,2,1,60,0,0
86034,-100,4,2,2,60,0,0
86367,-100,4,2,1,60,0,0
120034,-100,4,2,1,50,0,0
129701,-100,4,2,1,50,0,0
130701,-100,4,2,1,70,0,1
141284,-100,4,2,1,70,0,0
141367,-100,4,2,1,70,0,1
152034,-100,4,2,1,60,0,0
194951,-100,4,2,1,5,0,0
196034,-100,4,2,1,40,0,0
206701,-100,4,2,1,50,0,0
217367,-100,4,2,1,70,0,1
227951,-100,4,2,1,70,0,0
228034,-100,4,2,1,70,0,1
238701,-100,4,2,1,60,0,0
247367,-100,4,2,2,60,0,0
247701,-100,4,2,1,60,0,0
249367,-100,4,2,0,30,0,0
254701,-100,4,2,1,20,0,0
257367,-100,4,2,1,10,0,0
262701,-100,4,2,1,5,0,0

[Colours]
Combo1 : 45,255,45
Combo2 : 0,64,128
Combo3 : 106,106,255
Combo4 : 168,12,243
Combo5 : 255,47,255
Combo6 : 0,128,0

[HitObjects]
376,190,1368,6,0,P|381:267|325:323,2,142.5,2|0|2,0:0|0:0|0:0,0:0:0:0:
293,234,2701,2,0,B|200:247|200:247|88:235,1,190,0|2,0:0|0:0,0:0:0:0:
102,44,4034,6,0,B|162:23|182:72|255:43,2,142.5,2|0|2,0:0|0:0|0:0,0:0:0:0:
26,103,5367,2,0,P|23:197|116:232,1,190,0|2,0:0|0:0,0:0:0:0:
290,241,6701,6,0,L|286:132,1,94.9999999999999,4|0,1:0|0:0,0:0:0:0:
381,142,7367,2,0,L|385:251,1,94.9999999999999,0|0,1:0|0:0,0:0:0:0:
365,330,8034,2,0,P|323:353|260:355,1,94.9999999999999,4|0,1:0|0:0,0:0:0:0:
182,345,8701,2,0,P|159:303|154:256,1,94.9999999999999,0|0,1:0|0:0,0:0:0:0:
154,161,9367,6,0,L|47:155,2,94.9999999999999,4|0|0,1:0|1:0|1:0,1:0:0:0:
248,168,10367,1,0,1:0:0:0:
343,171,10701,2,0,L|351:237,2,47.5,4|0|0,1:0|1:0|1:0,1:0:0:0:
343,123,11201,1,0,1:0:0:0:
343,75,11367,2,0,L|335:9,1,47.5,0|2,1:0|0:0,0:0:0:0:
195,47,12034,6,0,P|158:67|104:72,1,94.9999999999999,4|8,1:0|0:0,0:0:0:0:
60,156,12701,2,0,L|76:217,1,47.5,0|0,1:0|1:0,0:0:0:0:
85,247,13034,1,8,0:0:0:0:
130,330,13367,2,0,P|164:357|223:363,1,94.9999999999999,0|8,1:0|0:0,0:0:0:0:
309,364,14034,2,0,B|350:331|350:331|374:272,1,94.9999999999999,0|8,1:0|0:0,0:0:0:0:
378,245,14534,1,8,0:0:0:0:
390,199,14701,6,0,P|401:155|438:116,1,94.9999999999999,0|8,1:0|0:0,0:0:0:0:
460,27,15367,2,0,L|398:26,1,47.5,0|0,1:0|1:0,0:0:0:0:
364,27,15701,1,8,0:0:0:0:
288,84,16034,2,0,P|238:91|180:76,1,94.9999999999999,0|8,1:0|0:0,0:0:0:0:
148,72,16534,1,8,0:0:0:0:
100,64,16701,2,0,P|60:90|32:128,1,94.9999999999999,0|8,1:0|0:0,0:0:0:0:
63,219,17367,6,0,B|76:264|76:264|71:320,1,94.9999999999999,0|8,1:0|0:0,0:0:0:0:
148,368,18034,2,0,L|200:362,1,47.5,0|0,1:0|1:0,0:0:0:0:
242,357,18367,1,8,0:0:0:0:
336,344,18701,2,0,P|344:293|323:239,1,94.9999999999999,0|8,1:0|0:0,0:0:0:0:
313,208,19201,2,0,P|305:157|326:103,1,94.9999999999999,0|0,1:0|1:0,0:0:0:0:
338,73,19701,1,8,0:0:0:0:
253,30,20034,6,0,L|145:40,1,94.9999999999999,0|8,1:0|0:0,0:0:0:0:
112,52,20534,2,0,P|83:73|57:144,1,94.9999999999999,0|0,1:0|1:0,0:0:0:0:
50,172,21034,1,8,0:0:0:0:
61,266,21367,6,0,B|105:283|105:283|159:280,1,94.9999999999999,0|8,1:0|0:0,0:0:0:0:
239,241,22034,2,0,P|284:248|329:280,1,94.9999999999999,0|8,1:0|0:0,0:0:0:0:
355,310,22534,1,8,0:0:0:0:
373,353,22701,1,4,0:0:0:0:
337,135,34701,6,0,L|448:130,2,94.9999999999999,4|0|0,1:0|1:0|0:0,0:0:0:0:
243,150,35701,1,8,0:0:0:0:
153,181,36034,2,0,P|114:208|81:256,2,94.9999999999999,0|0|0,1:0|1:0|1:0,0:0:0:0:
243,150,37034,2,0,L|236:94,1,47.5,0|8,1:0|0:0,0:0:0:0:
216,59,37367,6,0,P|168:55|116:30,2,94.9999999999999,0|0|0,1:0|1:0|1:0,0:0:0:0:
311,53,38367,1,8,0:0:0:0:
393,100,38701,2,0,B|409:145|409:145|402:208,2,94.9999999999999,0|0|0,1:0|1:0|1:0,0:0:0:0:
311,53,39701,2,0,L|244:55,1,47.5,0|8,1:0|0:0,0:0:0:0:
216,59,40034,6,0,P|176:82|150:140,1,94.9999999999999,4|0,1:0|1:0,0:0:0:0:
127,215,40701,2,0,L|24:211,1,94.9999999999999,0|8,1:0|0:0,0:0:0:0:
22,305,41367,2,0,L|116:308,1,94.9999999999999,0|0,1:0|1:0,0:0:0:0:
212,309,42034,2,0,P|252:286|276:245,1,94.9999999999999,0|8,1:0|0:0,0:0:0:0:
286,198,42534,1,8,0:0:0:0:
297,151,42701,6,0,P|320:110|361:86,1,94.9999999999999,0|0,1:0|1:0,0:0:0:0:
455,86,43367,2,0,B|482:125|482:125|490:189,1,94.9999999999999,0|8,1:0|0:0,0:0:0:0:
487,267,44034,1,0,1:0:0:0:
414,328,44367,1,0,1:0:0:0:
320,311,44701,2,0,L|252:303,1,47.5,0|8,1:0|0:0,0:0:0:0:
239,271,45034,2,0,L|171:279,1,47.5,8|8,0:0|0:0,0:0:0:0:
144,284,45367,6,0,P|114:253|94:191,1,94.9999999999999,0|8,1:0|0:0,0:0:0:0:
98,157,45867,2,0,L|121:55,1,94.9999999999999,0|8,1:0|0:0,0:0:0:0:
133,18,46367,1,0,1:0:0:0:
270,56,46867,2,8,L|328:46,2,47.5,8|8|8,0:3|0:3|0:3,0:3:0:0:
234,87,47367,2,0,B|214:127|214:127|214:194,1,94.9999999999999,0|0,1:0|1:0,0:0:0:0:
220,272,48034,6,0,P|262:284|318:273,1,94.9999999999999,0|8,1:0|0:0,0:0:0:0:
350,248,48534,2,0,B|396:244|396:244|446:257,1,94.9999999999999,0|8,1:0|0:0,0:0:0:0:
488,272,49034,1,0,1:0:0:0:
498,129,49534,2,8,L|501:76,2,47.5,8|8|8,0:3|0:3|0:3,0:3:0:0:
464,162,50034,2,0,P|410:157|363:138,1,94.9999999999999,0|0,1:0|1:0,0:0:0:0:
297,83,50701,6,0,P|248:73|189:96,2,94.9999999999999,4|0|0,1:0|1:0|1:0,0:0:0:0:
253,167,51701,1,0,1:0:0:0:
209,251,52034,2,0,P|258:261|317:238,2,94.9999999999999,0|0|0,1:0|1:0|1:0,0:0:0:0:
122,210,53034,1,0,1:0:0:0:
37,253,53367,6,0,B|43:300|43:300|71:346,1,94.9999999999999,4|0,1:0|1:0,0:0:0:0:
159,364,54034,2,8,L|212:359,1,47.5,0|0,1:0|1:0,0:0:0:0:
239,325,54367,2,8,L|292:320,1,47.5,0|0,1:0|1:0,0:0:0:0:
320,286,54701,5,0,1:0:0:0:
325,95,56034,6,0,P|272:87|221:106,1,94.9999999999999,4|8,1:0|0:0,0:0:0:0:
194,125,56534,1,0,0:0:0:0:
166,164,56701,2,0,B|171:213|171:213|161:267,1,94.9999999999999,0|8,1:0|0:0,0:0:0:0:
67,257,57367,2,0,B|62:208|62:208|72:154,1,94.9999999999999,0|8,1:0|0:0,0:0:0:0:
81,116,57867,1,0,0:0:0:0:
103,73,58034,2,0,P|132:47|200:29,1,94.9999999999999,0|8,1:0|0:0,0:0:0:0:
278,44,58701,6,0,P|307:70|375:88,1,94.9999999999999,0|8,1:0|0:0,0:0:0:0:
406,90,59201,1,0,0:0:0:0:
453,87,59367,2,0,L|467:184,1,94.9999999999999,0|8,1:0|0:0,0:0:0:0:
481,275,60034,2,0,B|442:302|442:302|382:309,1,94.9999999999999,0|8,1:0|0:0,0:0:0:0:
347,314,60534,1,0,0:0:0:0:
299,312,60701,2,0,P|257:287|226:242,1,94.9999999999999,0|8,1:0|0:0,0:0:0:0:
218,156,61367,6,0,B|168:151|168:151|108:160,1,94.9999999999999,4|8,1:0|0:0,0:0:0:0:
76,160,61867,2,0,P|50:120|50:59,1,94.9999999999999,0|0,1:0|1:0,0:0:0:0:
65,30,62367,1,8,0:0:0:0:
159,43,62701,2,0,B|209:47|209:47|266:39,2,94.9999999999999,0|8|0,1:0|0:0|1:0,0:0:0:0:
65,30,63701,1,8,0:0:0:0:
53,124,64034,6,0,B|76:191|76:191|64:231|64:231|94:316,1,190,0|0,1:0|1:0,0:0:0:0:
157,371,65034,1,8,0:0:0:0:
224,303,65367,2,0,P|276:292|331:305,1,94.9999999999999,4|8,1:0|0:0,0:0:0:0:
410,314,66034,2,0,L|421:252,1,47.5,8|8,0:3|0:3,0:0:0:0:
451,233,66367,2,0,L|440:171,1,47.5,8|8,0:0|0:0,0:0:0:0:
408,152,66701,6,0,P|365:129|301:132,1,94.9999999999999,4|8,1:0|0:0,0:0:0:0:
273,138,67201,1,0,0:0:0:0:
228,154,67367,2,0,B|180:164|180:164|120:155,1,94.9999999999999,0|8,1:0|0:0,0:0:0:0:
40,171,68034,2,0,P|30:220|41:269,1,94.9999999999999,0|8,1:0|0:0,0:0:0:0:
54,308,68534,1,0,0:0:0:0:
80,347,68701,2,0,L|177:337,1,94.9999999999999,0|8,1:0|0:0,0:0:0:0:
254,286,69367,6,0,P|268:239|253:188,1,94.9999999999999,0|8,1:0|0:0,0:0:0:0:
230,156,69867,1,0,0:0:0:0:
206,114,70034,2,0,P|191:63|203:16,1,94.9999999999999,0|8,1:0|0:0,0:0:0:0:
285,64,70701,2,0,B|324:76|324:76|386:78,1,94.9999999999999,0|8,1:0|0:0,0:0:0:0:
425,76,71201,1,0,0:0:0:0:
472,71,71367,2,0,P|489:112|481:178,1,94.9999999999999,0|8,1:0|0:0,0:0:0:0:
461,252,72034,6,0,B|383:295|342:222|257:269,1,190,4|0,1:0|1:0,0:0:0:0:
186,293,73034,1,8,0:0:0:0:
95,263,73367,2,0,B|89:215|89:215|95:159,1,94.9999999999999,0|8,1:0|0:0,0:0:0:0:
104,122,73867,1,0,0:0:0:0:
121,77,74034,2,0,P|163:55|221:54,1,94.9999999999999,0|8,1:0|0:0,0:0:0:0:
301,76,74701,6,0,B|293:126|293:126|296:184,2,94.9999999999999,0|8|0,1:0|0:0|1:0,0:0:0:0:
379,22,75701,1,8,0:0:0:0:
459,73,76034,2,0,L|519:71,2,47.5,0|0|8,1:0|1:0|0:0,0:0:0:0:
425,106,76534,1,0,0:0:0:0:
391,139,76701,2,0,B|381:171|381:171|387:232,1,94.9999999999999,0|8,1:0|0:0,0:0:0:0:
388,327,77367,6,0,P|323:301|293:238,2,142.5,4|0|8,1:0|1:0|0:0,0:0:0:0:
388,232,78701,2,0,B|378:178|378:178|387:140|387:140|378:81,2,142.5,0|0|8,1:0|1:0|0:0,0:0:0:0:
293,238,80034,6,0,P|225:266|157:237,2,142.5,0|0|8,1:0|1:0|0:0,0:0:0:0:
226,169,81367,2,0,P|181:147|123:154,1,94.9999999999999,0|8,1:0|0:0,0:0:0:0:
56,198,82034,2,0,P|34:243|41:301,1,94.9999999999999,0|8,1:0|0:0,0:0:0:0:
96,360,82701,6,0,B|173:391|209:329|294:367,1,190,6|0,0:0|0:0,0:0:0:0:
471,343,84034,2,0,L|463:292,1,47.5,0|0,1:0|1:0,0:0:0:0:
362,195,84701,2,0,L|354:144,1,47.5,0|0,1:0|1:0,0:0:0:0:
307,148,85034,2,0,L|299:97,1,47.5,8|8,0:0|0:0,0:0:0:0:
265,67,85367,6,0,P|235:53|79:206,1,285,0|8,1:0|0:0,0:0:0:0:
113,278,86701,6,0,B|158:294|158:294|224:285,1,94.9999999999999,0|8,1:0|0:0,0:0:0:0:
298,269,87367,2,0,L|363:260,1,47.5,0|0,1:0|1:0,0:0:0:0:
378,228,87701,2,0,L|443:219,1,47.5,8|8,0:0|0:0,0:0:0:0:
458,187,88034,6,0,P|475:142|455:81,1,94.9999999999999,4|8,1:0|0:0,0:0:0:0:
398,29,88701,1,0,1:0:0:0:
303,29,89034,1,8,0:0:0:0:
235,96,89367,2,0,P|218:141|238:202,1,94.9999999999999,0|8,1:0|0:0,0:0:0:0:
242,279,90034,2,0,B|197:287|197:287|134:277,1,94.9999999999999,0|8,1:0|0:0,0:0:0:0:
101,269,90534,1,8,0:0:0:0:
54,258,90701,6,0,P|42:209|53:162,1,94.9999999999999,0|8,1:0|0:0,0:0:0:0:
106,89,91367,1,0,1:0:0:0:
196,58,91701,1,8,0:0:0:0:
282,97,92034,2,0,B|318:103|318:103|386:98,1,94.9999999999999,0|8,1:0|0:0,0:0:0:0:
423,92,92534,1,8,0:0:0:0:
470,87,92701,2,2,B|497:138|497:138|487:239,1,142.5,0|0,1:0|0:0,0:0:0:0:
482,269,93367,6,0,P|418:305|338:276,2,142.5,0|8|8,1:0|0:3|0:0,0:0:0:0:
407,209,94701,2,0,P|359:192|305:206,1,94.9999999999999,0|8,1:0|0:0,0:0:0:0:
274,222,95201,2,0,P|226:239|172:225,1,94.9999999999999,0|0,1:0|1:0,0:0:0:0:
138,215,95701,1,8,0:0:0:0:
62,157,96034,6,0,P|44:204|49:248,1,94.9999999999999,0|12,1:0|0:0,0:0:0:0:
91,332,96701,2,0,B|140:340|140:340|203:330,1,94.9999999999999,8|8,0:3|0:0,0:0:0:0:
231,321,97201,1,8,0:0:0:0:
276,309,97367,5,4,1:0:0:0:
256,192,97534,12,4,98701,1:0:0:0:
73,184,109367,6,0,P|117:195|181:184,1,94.9999999999999,0|0,1:0|1:0,0:0:0:0:
255,157,110034,2,0,P|299:146|363:157,1,94.9999999999999,0|8,1:0|0:0,0:0:0:0:
441,168,110701,2,0,B|449:120|449:120|439:63,2,94.9999999999999,0|0|0,1:0|1:0|1:0,0:0:0:0:
385,244,111701,2,0,L|388:311,1,47.5,8|0,0:0|1:0,0:0:0:0:
386,339,112034,6,0,P|339:351|281:331,1,94.9999999999999,0|0,1:0|1:0,0:0:0:0:
243,259,112701,2,0,P|196:247|136:261,1,94.9999999999999,0|8,1:0|0:0,0:0:0:0:
62,290,113367,2,0,B|57:334|57:334|59:398,2,94.9999999999999,0|0|0,1:0|1:0|1:0,0:0:0:0:
77,196,114367,2,0,L|74:137,1,47.5,8|0,0:0|1:0,0:0:0:0:
70,100,114701,6,0,B|105:69|105:69|158:54,1,94.9999999999999,4|0,1:0|1:0,0:0:0:0:
246,55,115367,2,0,L|291:67,1,47.5,0|0,1:0|1:0,0:0:0:0:
337,82,115701,1,8,0:0:0:0:
424,117,116034,2,0,P|437:167|415:226,1,94.9999999999999,0|0,1:0|1:0,0:0:0:0:
361,277,116701,2,0,L|367:331,1,47.5,0|0,1:0|1:0,0:0:0:0:
369,371,117034,1,8,0:0:0:0:
274,371,117367,6,0,B|226:368|226:368|175:338,1,94.9999999999999,0|0,1:0|1:0,0:0:0:0:
107,289,118034,2,0,L|50:298,2,47.5,0|0|8,1:0|1:0|0:0,0:0:0:0:
194,250,118701,2,0,P|204:208|184:141,1,94.9999999999999,0|0,1:0|1:0,0:0:0:0:
184,63,119367,2,0,L|240:57,1,47.5,0|8,1:0|0:0,0:0:0:0:
265,91,119701,2,0,L|321:85,1,47.5,8|8,0:0|0:0,0:0:0:0:
345,119,120034,6,0,P|385:137|425:184,1,94.9999999999999,0|8,1:0|0:0,0:0:0:0:
436,218,120534,2,0,B|447:257|447:257|438:324,1,94.9999999999999,0|8,1:0|0:0,0:0:0:0:
430,357,121034,1,0,1:0:0:0:
287,364,121534,2,8,L|224:367,2,47.5,8|8|8,0:3|0:3|0:3,0:3:0:0:
320,330,122034,2,0,P|338:295|337:239,1,94.9999999999999,0|0,1:0|1:0,0:0:0:0:
288,158,122701,6,0,B|238:154|238:154|188:167,1,94.9999999999999,0|8,1:0|0:0,0:0:0:0:
152,187,123201,2,0,P|107:193|48:178,1,94.9999999999999,0|8,1:0|0:0,0:0:0:0:
18,157,123701,1,0,1:0:0:0:
122,60,124201,2,8,L|115:-2,2,47.5,8|8|8,0:3|0:3|0:3,0:3:0:0:
155,93,124701,2,0,B|203:96|203:96|261:80,1,94.9999999999999,0|0,1:0|1:0,0:0:0:0:
339,57,125367,6,0,B|431:31|431:31|385:114|396:168|396:168|425:204|425:204|430:251|396:310,1,380,4|2,1:0|0:0,0:0:0:0:
311,313,127034,2,0,P|332:358|382:388,2,94.9999999999999
262,231,128034,6,0,B|214:225|214:225|155:235,1,94.9999999999999,0|0,1:0|1:0,0:0:0:0:
75,209,128701,2,8,L|67:151,1,47.5,0|0,1:0|1:0,0:0:0:0:
34,128,129034,2,8,L|42:70,1,47.5,0|0,1:0|1:0,0:0:0:0:
74,47,129367,1,0,1:0:0:0:
164,75,129701,2,0,P|214:81|264:70,2,94.9999999999999,2|2|2,0:0|0:0|0:0,0:0:0:0:
74,47,130701,6,0,B|55:90|55:90|65:155,1,94.9999999999999,4|8,1:0|0:0,0:0:0:0:
69,184,131201,1,0,0:0:0:0:
78,230,131367,2,0,P|113:259|170:269,1,94.9999999999999,0|8,1:0|0:0,0:0:0:0:
251,240,132034,2,0,B|288:231|288:231|359:241,1,94.9999999999999,0|8,1:0|0:0,0:0:0:0:
390,249,132534,1,0,0:0:0:0:
436,256,132701,2,0,P|473:228|492:176,1,94.9999999999999,0|8,1:0|0:0,0:0:0:0:
481,89,133367,6,0,B|447:70|447:70|376:62,1,94.9999999999999,0|8,1:0|0:0,0:0:0:0:
343,61,133867,1,0,0:0:0:0:
295,60,134034,2,0,P|249:85|221:130,1,94.9999999999999,0|8,1:0|0:0,0:0:0:0:
225,214,134701,2,0,B|241:256|241:256|228:324,1,94.9999999999999,0|8,1:0|0:0,0:0:0:0:
207,345,135201,1,0,0:0:0:0:
174,379,135367,2,0,P|114:377|64:357,1,94.9999999999999,0|8,1:0|0:0,0:0:0:0:
10,302,136034,6,0,L|20:202,1,94.9999999999999,0|8,1:0|0:0,0:0:0:0:
53,173,136534,2,0,L|63:73,1,94.9999999999999,0|0,1:0|1:0,0:0:0:0:
96,44,137034,1,8,0:0:0:0:
189,61,137367,2,0,P|235:61|281:39,2,94.9999999999999,0|8|0,1:0|0:0|1:0,0:0:0:0:
96,44,138367,1,8,0:0:0:0:
57,130,138701,6,0,B|36:180|60:220|60:220|35:263|70:326,1,190,0|0,1:0|1:0,0:0:0:0:
142,364,139701,1,8,0:0:0:0:
229,326,140034,2,0,B|265:315|265:315|337:322,1,94.9999999999999,4|8,1:0|0:0,0:0:0:0:
417,325,140701,2,8,L|426:264,1,47.5,8|8,0:3|0:3,0:3:0:0:
457,244,141034,2,0,L|466:183,1,47.5,8|0,0:0|0:0,0:0:0:0:
463,149,141367,6,0,P|430:128|356:118,1,94.9999999999999,4|8,1:0|0:0,0:0:0:0:
328,124,141867,1,0,0:0:0:0:
281,131,142034,2,0,P|248:152|174:162,1,94.9999999999999,0|8,1:0|0:0,0:0:0:0:
99,177,142701,2,0,B|91:225|91:225|103:282,1,94.9999999999999,0|8,1:0|0:0,0:0:0:0:
109,317,143201,1,0,0:0:0:0:
125,361,143367,2,0,P|165:365|236:350,1,94.9999999999999,0|8,1:0|0:0,0:0:0:0:
304,315,144034,6,0,B|350:307|350:307|405:318,1,94.9999999999999,0|8,1:0|0:0,0:0:0:0:
443,327,144534,1,0,0:0:0:0:
489,332,144701,2,0,P|507:288|501:231,1,94.9999999999999,0|8,1:0|0:0,0:0:0:0:
474,151,145367,2,0,L|375:127,1,94.9999999999999,0|8,1:0|0:0,0:0:0:0:
335,117,145867,1,0,0:0:0:0:
288,109,146034,2,0,P|244:127|208:172,1,94.9999999999999,0|8,1:0|0:0,0:0:0:0:
213,257,146701,6,0,P|132:213|130:116,1,190,4|0,1:0|1:0,0:0:0:0:
172,40,147701,1,8,0:0:0:0:
266,28,148034,2,0,B|301:37|301:37|365:34,1,94.9999999999999,0|8,1:0|0:0,0:0:0:0:
407,29,148534,1,0,0:0:0:0:
454,24,148701,2,0,P|481:63|481:126,1,94.9999999999999,0|8,1:0|0:0,0:0:0:0:
458,200,149367,6,0,P|419:227|356:227,2,94.9999999999999,0|8|0,1:0|0:0|1:0,0:0:0:0:
387,135,150367,1,8,0:0:0:0:
315,72,150701,2,0,L|325:14,2,47.5,0|0|8,1:0|1:0|0:0,0:0:0:0:
281,105,151201,1,0,0:0:0:0:
247,138,151367,2,0,P|218:152|139:146,1,94.9999999999999,0|8,1:0|0:0,0:0:0:0:
67,118,152034,6,0,P|67:188|131:246,2,142.5,4|0|8,1:0|1:0|0:0,0:0:0:0:
157,153,153367,2,0,B|214:184|247:136|312:168,2,142.5,0|0|8,1:0|1:0|0:0,0:0:0:0:
67,118,154701,6,0,B|85:55|85:55|110:29|173:28,2,142.5,0|0|8,1:0|1:0|0:0,0:0:0:0:
57,212,156034,2,0,P|69:255|115:294,1,94.9999999999999,0|8,1:0|0:0,0:0:0:0:
199,289,156701,2,0,P|242:277|281:231,1,94.9999999999999,0|8,1:0|0:0,0:0:0:0:
307,152,157367,6,0,B|353:129|395:166|395:166|440:205|498:182,1,190,6|0,0:0|0:0,0:0:0:0:
339,61,158701,2,0,P|301:67|282:76,1,47.5,0|0,1:0|1:0,0:0:0:0:
229,197,159367,2,0,P|235:235|244:254,1,47.5,0|0,1:0|1:0,0:0:0:0:
245,290,159701,2,0,P|239:328|230:347,1,47.5,8|8,0:0|0:0,0:0:0:0:
201,368,160034,6,0,B|151:373|151:373|114:364|114:364|52:369,2,142.5,4|0|8,1:0|1:0|0:0,0:0:0:0:
295,357,161367,1,0,1:0:0:0:
295,357,161534,2,0,P|346:324|366:281,1,94.9999999999999,8|0,0:0|0:0,0:0:0:0:
373,248,162034,1,8,0:0:0:0:
337,159,162367,1,8,0:0:0:0:
261,101,162701,6,0,L|151:97,1,94.9999999999999,0|8,1:0|0:0,0:0:0:0:
118,103,163201,2,0,P|74:123|41:179,1,94.9999999999999,0|0,1:0|1:0,0:0:0:0:
33,205,163701,1,8,0:0:0:0:
50,298,164034,2,0,B|91:318|91:318|153:310,1,94.9999999999999,0|8,1:0|0:0,0:0:0:0:
186,301,164534,2,0,P|230:292|283:299,1,94.9999999999999,0|0,1:0|1:0,0:0:0:0:
324,312,165034,1,8,0:0:0:0:
417,328,165367,6,0,L|430:226,1,94.9999999999999,4|8,1:0|0:0,0:0:0:0:
431,186,165867,2,0,P|429:133|399:85,1,94.9999999999999,0|8,1:0|0:0,0:0:0:0:
370,69,166367,1,0,1:0:0:0:
276,86,166701,1,0,1:0:0:0:
276,86,166867,2,0,B|232:91|232:91|163:77,1,94.9999999999999,8|0,0:0|1:0,0:0:0:0:
134,76,167367,2,0,P|94:93|59:144,1,94.9999999999999,8|8,0:0|0:0,0:0:0:0:
55,227,168034,6,0,B|127:291|177:208|243:268,1,190,0|0,1:0|1:0,0:0:0:0:
271,290,168867,2,0,L|261:348,2,47.5,0|0|0,1:0|1:0|1:0,0:0:0:0:
315,273,169367,2,0,B|361:264|361:264|411:270,1,94.9999999999999,0|0,1:0|1:0,0:0:0:0:
487,215,170034,2,0,P|490:160|468:111,1,94.9999999999999,0|0,1:0|1:0,0:0:0:0:
402,62,170701,6,0,P|337:46|265:98,2,142.5,4|0|8,1:0|1:0|0:0,0:0:0:0:
349,140,172034,2,0,P|316:167|252:171,1,94.9999999999999,0|8,1:0|0:0,0:0:0:0:
182,127,172701,2,0,L|134:123,1,47.5,0|0,1:0|0:0,0:0:0:0:
101,156,173034,2,0,L|53:152,1,47.5,8|0,0:0|0:0,0:0:0:0:
20,184,173367,6,0,P|13:255|38:321,2,142.5,0|0|8,1:0|1:0|0:0,0:0:0:0:
60,98,174701,2,0,P|102:69|152:54,1,94.9999999999999,0|8,1:0|0:0,0:0:0:0:
190,47,175201,1,0,0:0:0:0:
237,48,175367,2,0,P|279:77|329:92,1,94.9999999999999,0|8,1:0|0:0,0:0:0:0:
390,155,176034,6,0,B|405:199|405:199|395:265,2,94.9999999999999,0|8|0,1:0|0:0|1:0,0:0:0:0:
321,90,177034,1,8,0:0:0:0:
243,144,177367,2,0,P|193:153|141:145,1,94.9999999999999,0|8,1:0|0:0,0:0:0:0:
101,145,177867,2,0,B|67:178|67:178|52:235,1,94.9999999999999,0|0,1:0|1:0,0:0:0:0:
46,270,178367,1,8,0:0:0:0:
81,358,178701,6,0,P|123:370|184:364,1,94.9999999999999,0|8,1:0|0:0,0:0:0:0:
219,354,179201,2,0,P|261:342|322:348,1,94.9999999999999,0|0,1:0|1:0,0:0:0:0:
357,357,179701,1,8,0:0:0:0:
451,346,180034,2,0,L|456:248,1,94.9999999999999,0|12,1:0|0:0,0:0:0:0:
444,156,180701,2,0,P|429:123|409:104,1,47.5,0|8,1:0|0:0,0:0:0:0:
374,114,181034,2,0,P|340:101|312:101,1,47.5,8|8,0:0|0:0,0:0:0:0:
295,134,181367,6,0,P|241:136|189:119,1,94.9999999999999,4|8,1:0|0:0,0:0:0:0:
162,98,181867,2,0,B|116:89|116:89|58:105,1,94.9999999999999,0|0,1:0|1:0,0:0:0:0:
27,124,182367,1,8,0:0:0:0:
11,217,182701,2,0,P|9:261|28:319,1,94.9999999999999,0|8,1:0|0:0,0:0:0:0:
48,349,183201,2,0,B|94:360|94:360|151:350,1,94.9999999999999,0|0,1:0|1:0,0:0:0:0:
187,341,183701,1,8,0:0:0:0:
275,307,184034,6,0,P|341:305|413:351,2,142.5,0|0|8,1:0|1:0|0:0,0:0:0:0:
187,341,185367,2,0,P|155:304|148:253,1,94.9999999999999,0|8,1:0|0:0,0:0:0:0:
167,166,186034,2,0,P|202:134|248:126,1,94.9999999999999,0|8,1:0|0:0,0:0:0:0:
295,124,186534,1,8,0:0:0:0:
342,127,186701,6,0,B|384:145|384:145|416:190,1,94.9999999999999,4|8,1:0|0:0,0:0:0:0:
421,231,187201,2,0,P|418:278|392:316,1,94.9999999999999,0|8,1:0|0:0,0:0:0:0:
355,346,187701,1,0,1:0:0:0:
213,332,188201,2,0,L|206:382,2,47.5,0|8|0,1:0|0:0|0:0,0:0:0:0:
202,285,188701,2,0,P|189:236|152:197,1,94.9999999999999,0|8,1:0|0:0,0:0:0:0:
109,123,189367,6,0,B|126:79|126:79|167:46,1,94.9999999999999,4|0,1:0|1:0,0:0:0:0:
255,27,190034,1,0,1:0:0:0:
349,37,190367,1,0,1:0:0:0:
421,98,190701,2,0,B|440:141|440:141|434:193,1,94.9999999999999,0|0,1:0|1:0,0:0:0:0:
417,282,191367,1,0,1:0:0:0:
350,349,191701,1,0,1:0:0:0:
269,298,192034,6,0,L|171:302,1,94.9999999999999,0|0,1:0|1:0,0:0:0:0:
78,305,192701,1,0,1:0:0:0:
28,224,193034,1,0,1:0:0:0:
58,134,193367,1,0,1:0:0:0:
256,192,193534,12,0,194951,0:0:0:0:
15,183,196034,6,0,B|66:154|128:190|128:190|169:167|169:167|220:202|296:176,1,285,4|0,1:0|0:0,0:0:0:0:
373,149,197367,2,0,P|415:200|422:249,1,94.9999999999999
425,274,197867,1,0,0:0:0:0:
419,321,198034,2,0,P|377:357|287:355,1,142.5,8|8,3:0|3:0,0:0:0:0:
251,334,198701,6,0,B|190:292|120:327|120:327|44:278|64:187,1,285,4|0,1:0|0:0,0:0:0:0:
82,109,200034,2,0,P|141:82|222:118,1,142.5,0|0,0:0|1:0,0:0:0:0:
248,135,200701,2,0,P|307:162|388:126,1,142.5,8|0,0:0|1:0,0:0:0:0:
410,104,201367,6,0,B|461:111|480:157|480:157|474:259,1,190,4|0,1:0|0:0,0:0:0:0:
406,321,202367,1,0,0:0:0:0:
338,253,202701,2,0,P|293:240|154:302,1,190
69,283,203701,2,0,L|63:228,1,47.5,0|0,0:0|1:0,0:0:0:0:
65,188,204034,6,0,P|81:151|217:86,1,190,0|0,1:0|0:0,0:0:0:0:
302,85,205034,2,0,L|361:83,1,47.5,0|0,0:0|1:0,0:0:0:0:
396,85,205367,2,0,P|432:109|459:162,1,94.9999999999999,0|0,1:0|0:0,0:0:0:0:
465,200,205867,1,0,0:0:0:0:
470,247,206034,2,0,L|506:291,2,47.5,8|8|0,0:0|0:0|1:0,0:0:0:0:
376,227,206701,5,4,1:0:0:0:
285,255,207034,1,0,1:0:0:0:
227,330,207367,2,0,B|177:338|177:338|111:330,1,94.9999999999999,0|0,1:0|1:0,0:0:0:0:
45,295,208034,1,0,1:0:0:0:
28,201,208367,1,0,1:0:0:0:
105,146,208701,2,0,L|99:50,1,94.9999999999999,0|0,1:0|1:0,0:0:0:0:
187,18,209367,5,0,1:0:0:0:
279,41,209701,1,0,1:0:0:0:
294,134,210034,2,0,P|341:147|403:135,1,94.9999999999999,0|0,1:0|1:0,0:0:0:0:
474,105,210701,1,0,1:0:0:0:
507,193,211034,1,0,1:0:0:0:
476,282,211367,2,0,B|449:321|449:321|399:337,1,94.9999999999999,0|0,1:0|1:0,0:0:0:0:
308,342,212034,6,0,L|214:344,2,94.9999999999999,4|0|0,1:0|1:0|1:0,0:0:0:0:
404,336,213034,1,0,1:0:0:0:
407,241,213367,2,0,P|407:184|398:135,1,94.9999999999999,0|0,1:0|1:0,0:0:0:0:
378,104,213867,2,0,B|336:85|336:85|266:80,1,94.9999999999999
239,81,214367,1,0,1:0:0:0:
143,85,214701,6,0,B|100:136|25:138|25:138|15:228|110:265,1,285,0|0,1:0|1:0,0:0:0:0:
187,289,216034,1,4,1:0:0:0:
187,289,217367,6,0,P|240:297|291:278,1,94.9999999999999,4|8,1:0|0:0,0:0:0:0:
318,259,217867,1,0,0:0:0:0:
346,220,218034,2,0,B|341:171|341:171|351:117,1,94.9999999999999,0|8,1:0|0:0,0:0:0:0:
445,127,218700,2,0,B|450:176|450:176|440:230,1,94.9999999999999,0|8,1:0|0:0,0:0:0:0:
431,268,219200,1,0,0:0:0:0:
409,311,219367,2,0,P|380:337|312:355,1,94.9999999999999,0|8,1:0|0:0,0:0:0:0:
234,340,220034,6,0,P|205:314|137:296,1,94.9999999999999,0|8,1:0|0:0,0:0:0:0:
106,294,220534,1,0,0:0:0:0:
59,297,220700,2,0,L|45:200,1,94.9999999999999,0|8,1:0|0:0,0:0:0:0:
31,109,221367,2,0,B|70:82|70:82|130:75,1,94.9999999999999,0|8,1:0|0:0,0:0:0:0:
165,70,221867,1,0,0:0:0:0:
213,72,222034,2,0,P|255:97|286:142,1,94.9999999999999,0|8,1:0|0:0,0:0:0:0:
294,228,222700,6,0,B|344:233|344:233|404:224,1,94.9999999999999,4|8,1:0|0:0,0:0:0:0:
436,224,223200,2,0,P|462:264|462:325,1,94.9999999999999,0|0,1:0|1:0,0:0:0:0:
447,354,223700,1,8,0:0:0:0:
353,341,224034,2,0,B|303:337|303:337|246:345,2,94.9999999999999,0|8|0,1:0|0:0|1:0,0:0:0:0:
447,354,225034,1,8,0:0:0:0:
459,260,225367,6,0,B|436:193|436:193|448:153|448:153|418:68,1,190,0|0,1:0|1:0,0:0:0:0:
355,13,226367,1,8,0:0:0:0:
288,81,226700,2,0,P|236:92|181:79,1,94.9999999999999,4|8,1:0|0:0,0:0:0:0:
102,70,227367,2,0,L|91:132,1,47.5,8|8,0:3|0:3,0:0:0:0:
61,151,227700,2,0,L|72:213,1,47.5,8|8,0:0|0:0,0:0:0:0:
104,232,228034,6,0,P|147:255|211:252,1,94.9999999999999,4|8,1:0|0:0,0:0:0:0:
239,246,228534,1,0,0:0:0:0:
284,230,228700,2,0,B|332:220|332:220|392:229,1,94.9999999999999,0|8,1:0|0:0,0:0:0:0:
472,213,229367,2,0,P|482:164|471:115,1,94.9999999999999,0|8,1:0|0:0,0:0:0:0:
458,76,229867,1,0,0:0:0:0:
432,37,230034,2,0,L|335:47,1,94.9999999999999,0|8,1:0|0:0,0:0:0:0:
258,98,230700,6,0,P|244:145|259:196,1,94.9999999999999,0|8,1:0|0:0,0:0:0:0:
282,228,231200,1,0,0:0:0:0:
306,270,231367,2,0,P|321:321|309:368,1,94.9999999999999,0|8,1:0|0:0,0:0:0:0:
227,320,232034,2,0,B|188:308|188:308|126:306,1,94.9999999999999,0|8,1:0|0:0,0:0:0:0:
87,308,232534,1,0,0:0:0:0:
40,313,232700,2,0,P|23:272|31:206,1,94.9999999999999,0|8,1:0|0:0,0:0:0:0:
51,132,233367,6,0,B|129:89|170:162|255:115,1,190,4|0,1:0|1:0,0:0:0:0:
326,91,234367,1,8,0:0:0:0:
417,121,234700,2,0,B|423:169|423:169|417:225,1,94.9999999999999,0|8,1:0|0:0,0:0:0:0:
408,262,235200,1,0,0:0:0:0:
391,307,235367,2,0,P|349:329|291:330,1,94.9999999999999,0|8,1:0|0:0,0:0:0:0:
211,308,236034,6,0,B|219:258|219:258|216:200,2,94.9999999999999,0|8|0,1:0|0:0|1:0,0:0:0:0:
133,362,237034,1,8,0:0:0:0:
53,311,237367,2,0,L|-7:313,2,47.5,0|0|8,1:0|1:0|0:0,0:0:0:0:
87,278,237867,1,0,0:0:0:0:
121,245,238034,2,0,B|131:213|131:213|125:152,1,94.9999999999999,0|8,1:0|0:0,0:0:0:0:
124,57,238700,6,0,P|189:83|219:146,2,142.5,4|0|8,1:0|1:0|0:0,0:0:0:0:
125,152,240034,2,0,P|60:178|30:241,2,142.5,0|0|8,1:0|1:0|0:0,0:0:0:0:
219,145,241367,6,0,B|213:203|213:203|219:233|219:233|208:300,2,142.5,0|0|8,1:0|1:0|0:0,0:0:0:0:
243,53,242701,2,0,P|289:51|342:68,1,94.9999999999999,0|8,1:0|0:0,0:0:0:0:
386,144,243367,2,0,P|388:190|371:243,1,94.9999999999999,0|8,1:0|0:0,0:0:0:0:
318,314,244034,6,0,B|252:318|252:318|205:335|205:335|128:340,1,190,6|0,0:0|0:0,0:0:0:0:
18,186,245367,2,0,L|15:120,1,47.5,0|0,1:0|1:0,0:0:0:0:
122,43,246034,2,0,L|188:40,1,47.5,0|0,1:0|1:0,0:0:0:0:
203,74,246367,2,0,L|269:71,1,47.5,8|8,0:0|0:0,0:0:0:0:
284,105,246701,6,0,P|336:136|332:344,1,285,0|8,1:0|0:0,0:0:0:0:
245,352,248034,2,0,L|145:344,1,94.9999999999999,0|8,1:0|0:0,0:0:0:0:
57,323,248701,2,0,P|41:301|33:274,1,47.5,0|8,1:0|0:0,0:0:0:0:
26,235,249034,2,0,P|23:207|29:180,1,47.5,8|8,0:0|0:0,0:0:0:0:
40,142,249367,6,0,P|108:110|180:142,2,142.5,6|0|2,0:0|0:0|0:0,0:0:0:0:
110,205,250701,2,0,B|178:257|232:189|301:222,1,190,0|2,0:0|0:0,0:0:0:0:
385,243,251701,1,0,0:0:0:0:
474,273,252034,6,0,P|437:322|359:335,2,142.5,0|0|2,0:0|0:0|0:0,0:0:0:0:
481,178,253367,2,0,P|436:96|334:70,1,190,0|2,0:0|0:0,0:0:0:0:
254,86,254367,1,0,0:0:0:0:
202,166,254701,6,0,B|165:144|150:98|163:55|163:55|88:29|18:60|-4:133|28:198,2,380,2|2|2,0:0|0:0|0:0,0:0:0:0:
256,192,257534,12,0,262701,0:0:0:0:
