osu file format v14

[General]
AudioFilename: audio.mp3
AudioLeadIn: 0
PreviewTime: 55972
Countdown: 0
SampleSet: Soft
StackLeniency: 0.7
Mode: 0
LetterboxInBreaks: 0
WidescreenStoryboard: 1

[Editor]
DistanceSpacing: 1.5
BeatDivisor: 4
GridSize: 16
TimelineZoom: 2.699999

[Metadata]
Title:Prima Stella
TitleUnicode:プリマステラ
Artist:Kano
ArtistUnicode:鹿乃
Creator:KuranteMelodii
Version:NiNo's Insane
Source:
Tags:nowhere samfree ゆうゆ Yuuyu [-AKiTOSHi-] Akitoshi Underforest 7ka -Nanaka- [_-Scarlet-_] Scarlet Del05 SnowNiNo_
BeatmapID:967401
BeatmapSetID:443014

[Difficulty]
HPDrainRate:6
CircleSize:4
OverallDifficulty:7
ApproachRate:9
SliderMultiplier:1.8
SliderTickRate:1

[Events]
//Background and Video events
0,0,"wow.png",0,0
Video,-120,"primastella.avi"
//Break Periods
//Storyboard Layer 0 (Background)
//Storyboard Layer 1 (Fail)
//Storyboard Layer 2 (Pass)
//Storyboard Layer 3 (Foreground)
//Storyboard Sound Samples

[TimingPoints]
1368,333.333333333333,4,2,0,20,1,0
1368,-133.333333333333,4,2,0,20,0,0
6034,-200,4,2,0,70,0,0
9701,-166.666666666667,4,2,0,70,0,0
10034,-142.857142857143,4,2,0,70,0,0
10367,-125,4,2,0,70,0,0
11701,-100,4,2,0,70,0,0
22701,-200,4,2,0,70,0,0
24034,-166.666666666667,4,2,0,30,0,0
34701,-100,4,2,0,70,0,0
46367,-133.333333333333,4,2,0,70,0,0
48034,-100,4,2,0,70,0,0
49034,-133.333333333333,4,2,0,70,0,0
50701,-100,4,2,0,70,0,0
56034,-83.3333333333333,4,2,0,70,0,1
66617,-100,4,2,0,70,0,0
66701,-83.3333333333333,4,2,0,70,0,1
77367,-100,4,2,0,70,0,0
82701,-200,4,2,0,70,0,0
84034,-100,4,2,0,70,0,0
98701,-133.333333333333,4,2,0,70,0,0
109367,-100,4,2,0,70,0,0
120034,-125,4,2,0,70,0,0
121034,-200,4,2,0,70,0,0
122701,-133.333333333333,4,2,0,70,0,0
123701,-200,4,2,0,70,0,0
129701,-166.666666666667,4,2,0,70,0,0
130034,-142.857142857143,4,2,0,70,0,0
130367,-111.111111111111,4,2,0,70,0,0
130701,-83.3333333333333,4,2,0,70,0,1
141284,-100,4,2,0,70,0,0
141367,-83.3333333333333,4,2,0,70,0,1
152034,-100,4,2,0,70,0,0
157367,-200,4,2,0,70,0,0
160034,-100,4,2,0,70,0,0
186701,-133.333333333333,4,2,0,70,0,0
187201,-111.111111111111,4,2,0,70,0,0
187701,-125,4,2,0,70,0,0
188367,-100,4,2,0,70,0,0
192034,-90.9090909090909,4,2,0,70,0,0
195701,-90.9090909090909,4,2,0,5,0,0
196034,-166.666666666667,4,2,0,70,0,0
197201,-166.666666666667,4,2,0,5,0,0
197367,-166.666666666667,4,2,0,70,0,0
199867,-166.666666666667,4,2,0,5,0,0
200034,-166.666666666667,4,2,0,70,0,0
206701,-133.333333333333,4,2,0,70,0,0
212034,-100,4,2,0,70,0,0
217367,-83.3333333333333,4,2,0,70,0,1
227951,-100,4,2,0,70,0,0
228034,-100,4,2,0,70,0,1
238701,-100,4,2,0,70,0,0
244034,-200,4,2,0,70,0,0
249367,-333.333333333333,4,2,0,40,0,0
254701,-1000,4,2,0,40,0,0
254784,-1000,4,2,0,5,0,0
256034,-1000,4,2,0,40,0,0
257367,-200,4,2,0,15,0,0
262701,-200,4,2,0,5,0,0

[Colours]
Combo1 : 45,255,45
Combo2 : 0,64,128
Combo3 : 106,106,255
Combo4 : 168,12,243
Combo5 : 255,47,255
Combo6 : 0,128,0

[HitObjects]
103,112,1368,6,0,P|145:115|233:65,1,135.000005149842,0|0,0:0|0:0,0:0:0:0:
354,35,1867,2,0,L|361:183,1,135.000005149842,2|0,0:0|0:0,0:0:0:0:
360,169,2367,1,2,0:0:0:0:
310,295,2534,5,0,0:0:0:0:
310,295,2617,1,0,0:0:0:0:
310,295,2701,2,0,P|257:254|188:256,1,135.000005149842,2|0,0:0|0:0,0:0:0:0:
441,153,3367,2,0,P|388:194|319:192,1,135.000005149842,2|0,0:0|0:0,0:0:0:0:
191,254,4034,6,0,P|147:234|132:142,1,135.000005149842,2|0,0:0|0:0,0:0:0:0:
265,227,4534,2,0,P|269:275|197:334,1,135.000005149842,2|0,0:0|0:0,0:0:0:0:
205,176,5034,1,2,0:0:0:0:
205,176,5367,6,0,L|344:162,1,135.000005149842,2|0,0:0|0:0,0:0:0:0:
445,153,6034,1,4,0:3:0:0:
165,73,6534,5,0,1:0:0:0:
165,73,6617,1,0,1:0:0:0:
165,73,6701,2,0,P|173:112|158:176,1,90,4|0,0:0|0:0,0:0:0:0:
347,73,7367,2,0,P|339:112|354:176,1,90,0|0,1:0|0:0,0:0:0:0:
402,332,8034,2,0,P|370:304|309:298,1,90,4|0,0:0|0:0,0:0:0:0:
110,332,8701,2,0,P|142:304|203:298,1,90,0|0,1:0|0:0,0:0:0:0:
386,214,9367,6,0,L|383:166,1,45,4|0,0:0|0:0,0:0:0:0:
306,194,9701,6,0,L|302:138,1,53.9999983520508,0|0,1:0|0:0,0:0:0:0:
226,174,10034,6,0,L|220:103,1,62.9999980773926,0|0,1:0|0:0,0:0:0:0:
146,154,10367,6,0,L|139:60,1,72,0|0,1:0|0:0,0:0:0:0:
64,134,10701,5,0,1:0:0:0:
140,82,10867,1,0,1:0:0:0:
70,214,11034,1,0,1:0:0:0:
221,111,11201,1,0,1:0:0:0:
7,40,11367,1,8,1:0:0:0:
76,294,11534,1,8,1:0:0:0:
76,294,12034,6,0,P|125:274|210:322,1,135,6|0,1:2|0:0,0:0:0:0:
267,359,12367,2,0,L|274:250,1,90,8|0,0:0|3:3,0:0:0:0:
332,98,12701,1,0,1:2:0:0:
332,98,12867,1,0,1:2:0:0:
175,187,13034,2,0,P|223:204|269:191,1,90,8|0,0:0|0:0,0:0:0:0:
62,97,13367,6,0,L|52:243,1,135,0|0,1:0|0:0,0:0:0:0:
50,322,13701,1,8,0:0:0:0:
175,187,13867,2,0,L|179:240,1,45,0|0,3:3|0:0,0:0:0:0:
189,326,14034,1,2,1:2:0:0:
189,326,14201,1,0,1:0:0:0:
137,116,14367,2,0,P|190:106|230:128,1,90,10|0,0:2|1:0,0:0:0:0:
239,133,14617,1,0,0:0:0:0:
249,152,14701,6,0,P|287:182|379:158,1,135,2|0,1:2|0:0,0:0:0:0:
455,148,15034,2,0,P|439:188|453:244,1,90,8|0,0:0|3:3,0:0:0:0:
375,308,15367,1,0,1:0:0:0:
375,308,15534,1,0,1:0:0:0:
387,78,15701,2,0,P|345:48|295:48,1,90,10|2,0:0|0:0,0:0:0:0:
128,28,16034,6,0,L|139:174,1,135,2|0,1:2|0:0,0:0:0:0:
98,242,16367,2,0,P|159:238|198:269,1,90,10|0,0:0|3:3,0:0:0:0:
256,336,16701,1,2,1:2:0:0:
256,336,16867,1,0,1:0:0:0:
214,160,17034,2,0,L|206:61,1,90,10|0,0:0|1:0,0:0:0:0:
212,48,17284,1,0,0:0:0:0:
229,34,17367,6,0,P|271:52|339:30,1,90,2|2,1:2|0:0,0:0:0:0:
478,26,17701,1,10,0:2:0:0:
348,149,17867,2,0,L|352:210,1,45,2|0,3:2|0:0,0:0:0:0:
380,279,18034,1,0,1:0:0:0:
380,279,18201,1,0,1:0:0:0:
417,103,18367,2,0,P|373:69|328:68,1,90,10|0,0:0|0:0,0:0:0:0:
202,183,18701,6,0,P|237:145|226:49,1,135,2|0,1:2|0:0,0:0:0:0:
154,26,19034,2,0,P|120:46|51:46,1,90,10|2,0:0|3:2,0:0:0:0:
30,202,19367,1,0,1:2:0:0:
30,202,19534,1,2,1:2:0:0:
202,183,19701,2,0,L|291:196,1,90,10|2,0:2|1:2,0:0:0:0:
449,134,20034,6,0,B|434:201|434:201|460:275,1,135,2|0,1:2|0:0,0:0:0:0:
485,349,20367,2,0,P|439:330|392:344,1,90,8|2,0:0|3:2,0:0:0:0:
279,356,20701,1,0,1:0:0:0:
279,356,20867,1,0,1:0:0:0:
359,194,21034,2,0,P|361:147|329:104,1,90,10|0,0:0|1:0,0:0:0:0:
201,228,21367,6,0,P|255:225|321:291,1,135,2|0,1:2|0:0,0:0:0:0:
372,344,21701,2,0,P|419:339|454:296,1,90,4|0,0:0|1:0,0:0:0:0:
409,180,22034,1,0,0:0:0:0:
314,274,22201,1,0,0:0:0:0:
296,288,22284,1,0,0:0:0:0:
277,299,22367,1,0,1:0:0:0:
256,306,22450,1,0,1:0:0:0:
233,309,22534,1,0,1:0:0:0:
211,307,22617,1,0,1:0:0:0:
189,301,22700,5,4,1:2:0:0:
109,78,24034,5,2,0:0:0:0:
129,83,24701,1,0,0:0:0:0:
149,89,25367,1,2,0:0:0:0:
169,94,26034,1,2,0:0:0:0:
403,78,26701,5,2,0:0:0:0:
383,83,27368,1,0,0:0:0:0:
363,89,28034,1,2,0:0:0:0:
343,94,28701,1,2,0:0:0:0:
109,187,29367,5,2,0:0:0:0:
129,192,30034,1,0,0:0:0:0:
149,198,30700,1,2,0:0:0:0:
169,203,31367,1,2,0:0:0:0:
403,187,32034,5,2,0:0:0:0:
383,192,32701,1,0,0:0:0:0:
363,198,33367,1,0,0:0:0:0:
343,203,34034,1,0,0:0:0:0:
127,311,34701,6,0,L|139:215,1,90,4|0,0:0|0:0,0:0:0:0:
269,254,35034,2,0,L|257:158,1,90,0|0,0:0|0:0,0:0:0:0:
172,59,35367,1,0,0:0:0:0:
172,59,35534,2,0,P|228:63|266:35,1,90,0|8,0:0|0:0,0:0:0:0:
390,38,35867,1,0,0:0:0:0:
390,38,36034,6,0,L|402:218,1,180,2|2,2:0|2:0,0:0:0:0:
468,306,36534,1,2,2:0:0:0:
299,238,36701,1,2,2:0:0:0:
299,238,36867,2,0,P|261:257|193:245,1,90,2|0,2:0|0:0,0:0:0:0:
342,145,37201,1,8,1:0:0:0:
342,145,37367,6,0,P|385:189|372:307,1,180,0|0,1:0|0:0,0:0:0:0:
261,369,37867,1,0,0:0:0:0:
299,238,38034,1,0,0:0:0:0:
299,238,38201,2,0,L|206:229,1,90,0|8,0:0|0:0,0:0:0:0:
92,297,38534,1,0,0:0:0:0:
92,297,38701,6,0,P|120:251|89:128,1,180,0|2,0:0|0:0,0:0:0:0:
24,17,39201,1,2,0:0:0:0:
170,104,39367,1,0,0:0:0:0:
170,104,39534,2,0,P|195:151|202:200,1,90,2|0,0:0|1:0,0:0:0:0:
149,311,39867,1,8,0:0:0:0:
149,311,40034,6,0,P|192:350|322:341,1,180,4|0,0:0|0:0,0:0:0:0:
410,261,40534,2,0,P|403:308|428:364,1,90,0|0,0:0|0:0,0:0:0:0:
381,159,40867,2,0,P|363:114|313:78,1,90,0|8,0:0|0:0,0:0:0:0:
326,270,41201,1,0,0:0:0:0:
326,270,41367,6,0,B|282:286|236:255|236:255|196:222|152:239,1,180,2|2,2:0|2:0,0:0:0:0:
59,220,41867,1,2,2:0:0:0:
183,323,42034,1,2,2:0:0:0:
183,323,42201,2,0,P|236:352|280:359,1,90,2|0,2:0|0:0,0:0:0:0:
297,195,42534,1,8,1:0:0:0:
297,195,42701,6,0,P|269:145|273:102,1,90,0|0,1:0|0:0,0:0:0:0:
372,45,43034,1,0,0:0:0:0:
372,244,43201,2,0,P|336:279|276:280,1,90,0|0,0:0|0:0,0:0:0:0:
69,192,43534,2,0,P|117:179|170:208,1,90,0|8,0:0|0:0,0:0:0:0:
224,328,43867,6,0,B|200:280|224:240|224:240|248:192|224:152,1,180,0|2,0:0|0:0,0:0:0:0:
133,57,44367,1,2,0:0:0:0:
153,193,44534,2,0,P|131:238|130:293,1,90,2|0,0:0|0:0,0:0:0:0:
256,114,44867,1,2,3:2:0:0:
278,116,44950,1,0,3:0:0:0:
300,118,45033,1,0,3:0:0:0:
323,120,45117,1,0,3:0:0:0:
345,122,45200,1,0,3:0:0:0:
368,124,45283,1,0,3:0:0:0:
390,127,45367,6,0,L|486:135,1,90,4|0,0:2|1:0,0:0:0:0:
271,43,45701,1,0,0:0:0:0:
266,222,45867,2,0,P|303:197|323:150,1,90,4|0,0:0|1:0,0:0:0:0:
171,55,46201,1,8,0:0:0:0:
178,189,46367,6,0,B|167:230|187:260|187:260|208:289|196:323,1,135.000005149842,4|0,0:0|0:0,0:0:0:0:
266,222,46867,1,8,0:0:0:0:
266,222,46951,1,8,0:0:0:0:
266,222,47034,1,8,0:0:0:0:
114,307,47201,1,0,1:0:0:0:
274,351,47367,5,0,3:0:0:0:
178,189,47534,1,0,3:0:0:0:
307,370,47701,1,0,3:0:0:0:
324,113,48034,6,0,L|227:103,1,90,4|0,0:2|1:0,0:0:0:0:
404,43,48367,1,0,0:0:0:0:
358,217,48534,2,0,P|381:273|380:314,1,90,4|0,0:0|1:0,0:0:0:0:
260,361,48867,1,8,0:0:0:0:
244,155,49034,6,0,B|284:165|314:147|314:147|345:127|380:140,1,135.000005149842,4|0,0:0|0:0,0:0:0:0:
269,78,49534,1,8,0:0:0:0:
269,78,49617,1,8,0:0:0:0:
269,78,49701,1,8,0:0:0:0:
169,206,49867,1,0,1:0:0:0:
374,138,50034,5,0,3:0:0:0:
185,117,50201,1,0,3:0:0:0:
401,167,50367,1,4,3:2:0:0:
425,195,50701,6,0,L|431:294,1,90,4|0,1:2|0:0,0:0:0:0:
312,351,51034,2,0,L|318:252,1,90,0|0,1:0|0:0,0:0:0:0:
324,126,51367,2,0,B|293:138|293:138|267:114|219:117,1,90,0|0,1:0|0:0,0:0:0:0:
214,280,51701,2,0,P|238:235|233:175,1,90,0|0,1:0|0:0,0:0:0:0:
87,128,52034,6,0,P|132:154|180:151,1,90,0|0,1:0|0:0,0:0:0:0:
324,126,52367,2,0,L|332:239,1,90,0|0,1:0|0:0,0:0:0:0:
233,306,52701,2,0,B|213:280|213:280|227:245|204:210,1,90,0|0,1:0|0:0,0:0:0:0:
52,250,53034,2,0,L|156:251,1,90,0|0,1:0|0:0,0:0:0:0:
230,148,53367,6,0,P|208:105|217:54,1,90,4|0,0:0|0:0,0:0:0:0:
300,201,53701,1,0,1:0:0:0:
165,205,53867,1,0,1:0:0:0:
322,116,54034,1,0,1:0:0:0:
230,271,54201,1,0,1:0:0:0:
428,166,54367,1,0,1:0:0:0:
212,64,54534,1,0,1:0:0:0:
440,218,54701,1,0,1:0:0:0:
133,316,56034,6,0,P|154:259|133:199,1,107.999996704102,4|0,1:2|0:0,0:0:0:0:
39,89,56367,1,8,0:0:0:0:
198,33,56534,2,0,L|201:116,1,53.9999983520508,0|0,3:2|0:0,0:0:0:0:
202,168,56701,1,0,1:0:0:0:
202,168,56867,1,0,1:0:0:0:
374,136,57034,2,0,P|321:116|262:129,1,107.999996704102,8|0,0:0|0:0,0:0:0:0:
285,293,57367,6,0,P|317:242|310:186,1,107.999996704102,0|0,1:2|0:0,0:0:0:0:
208,71,57701,1,8,0:0:0:0:
104,217,57867,2,0,L|170:221,1,53.9999983520508,0|0,3:2|0:0,0:0:0:0:
239,223,58034,1,0,1:0:0:0:
239,223,58201,1,0,1:0:0:0:
402,178,58367,2,0,P|372:130|377:78,1,107.999996704102,8|0,0:0|1:0,0:0:0:0:
382,54,58617,1,0,0:0:0:0:
378,26,58701,6,0,L|255:32,1,107.999996704102,0|0,1:2|0:0,0:0:0:0:
119,90,59034,1,8,0:2:0:0:
278,121,59201,2,0,L|284:180,1,53.9999983520508,0|0,3:2|0:0,0:0:0:0:
291,254,59367,1,0,1:0:0:0:
291,254,59534,1,0,1:0:0:0:
461,211,59701,2,0,P|405:196|339:216,1,107.999996704102,8|0,0:0|0:0,0:0:0:0:
285,361,60034,6,0,L|291:246,1,107.999996704102,0|0,1:2|0:0,0:0:0:0:
173,141,60367,1,8,0:2:0:0:
209,299,60534,2,0,L|212:226,1,53.9999983520508,0|0,3:2|0:0,0:0:0:0:
261,180,60701,1,0,1:0:0:0:
261,180,60867,1,0,1:0:0:0:
398,256,61034,2,0,L|283:252,1,107.999996704102,8|0,0:0|1:0,0:0:0:0:
133,295,61367,6,0,P|154:235|141:185,1,107.999996704102,4|0,1:2|0:0,0:0:0:0:
81,96,61701,1,8,0:0:0:0:
220,161,61867,2,0,P|231:255|171:380,1,215.999993408203,0|0,3:2|1:0,0:0:0:0:
45,211,62367,2,0,P|95:185|159:202,1,107.999996704102,8|0,0:2|0:0,0:0:0:0:
290,251,62701,6,0,L|280:136,1,107.999996704102,0|0,1:2|0:0,0:0:0:0:
412,238,63034,2,0,L|402:353,1,107.999996704102,8|0,0:0|0:0,0:0:0:0:
280,143,63367,2,0,P|336:113|396:130,1,107.999996704102,0|0,1:2|1:0,0:0:0:0:
270,323,63701,2,0,P|206:320|163:276,1,107.999996704102,8|0,2:0|1:0,0:0:0:0:
68,354,63951,1,0,0:0:0:0:
68,354,64034,6,0,B|81:183|81:183|114:221,1,215.999993408203,0|8,1:2|0:0,0:0:0:0:
249,228,64534,2,0,L|171:224,1,53.9999983520508,0|0,3:3|0:0,0:0:0:0:
110,216,64701,1,0,1:2:0:0:
110,216,64867,1,0,1:0:0:0:
309,160,65034,2,0,P|334:194|328:269,1,107.999996704102,8|0,0:0|0:0,0:0:0:0:
181,91,65367,6,0,L|306:84,1,107.999996704102,4|0,1:2|1:0,0:0:0:0:
315,82,65617,1,0,0:0:0:0:
341,88,65701,2,0,P|386:126|412:184,1,107.999996704102,8|0,0:0|3:3,0:0:0:0:
333,257,66034,1,0,3:0:0:0:
281,242,66117,1,0,3:0:0:0:
229,253,66200,1,0,3:0:0:0:
189,288,66283,1,0,3:0:0:0:
171,339,66367,5,0,1:0:0:0:
145,346,66450,1,0,0:0:0:0:
119,343,66533,1,0,0:0:0:0:
95,331,66616,1,0,0:0:0:0:
78,310,66701,6,0,P|92:256|76:190,1,107.999996704102,4|0,1:2|0:0,0:0:0:0:
43,78,67034,1,8,0:0:0:0:
168,181,67201,2,0,L|171:124,1,53.9999983520508,0|0,3:3|0:0,0:0:0:0:
178,46,67367,1,0,1:0:0:0:
178,46,67534,1,0,1:0:0:0:
349,92,67701,2,0,P|281:103|223:83,1,107.999996704102,8|0,0:0|0:0,0:0:0:0:
65,128,68034,6,0,P|133:117|191:137,1,107.999996704102,0|0,1:0|0:0,0:0:0:0:
276,248,68367,1,8,0:0:0:0:
121,202,68534,2,0,L|118:264,1,53.9999983520508,0|0,3:0|0:0,0:0:0:0:
111,337,68701,1,0,1:0:0:0:
111,337,68867,1,0,1:0:0:0:
258,290,69034,2,0,P|292:330|346:343,1,107.999996704102,8|0,0:0|1:0,0:0:0:0:
371,341,69284,1,0,0:0:0:0:
396,332,69367,6,0,L|381:217,1,107.999996704102,0|0,1:0|0:0,0:0:0:0:
331,70,69701,1,8,0:0:0:0:
475,141,69867,2,0,L|413:147,1,53.9999983520508,0|0,3:3|0:0,0:0:0:0:
339,153,70034,1,0,1:0:0:0:
339,153,70201,1,0,1:0:0:0:
298,309,70367,2,0,P|303:250|273:200,1,107.999996704102,8|0,0:0|0:0,0:0:0:0:
119,266,70701,6,0,P|182:283|231:258,1,107.999996704102,0|0,1:0|0:0,0:0:0:0:
339,153,71034,1,8,0:0:0:0:
176,72,71201,2,0,L|175:130,1,53.9999983520508,0|0,3:3|0:0,0:0:0:0:
173,206,71367,1,0,1:0:0:0:
173,206,71534,1,0,1:0:0:0:
282,316,71701,2,0,L|279:180,1,107.999996704102,8|0,0:0|1:0,0:0:0:0:
296,73,71951,1,0,0:0:0:0:
296,73,72034,6,0,P|253:47|91:82,1,215.999993408203,4|8,1:2|0:0,0:0:0:0:
120,224,72534,1,0,3:3:0:0:
120,224,72617,1,0,0:0:0:0:
120,224,72701,1,0,1:0:0:0:
271,157,72867,1,0,1:0:0:0:
43,172,73034,2,0,P|31:227|55:278,1,107.999996704102,8|0,0:0|0:0,0:0:0:0:
195,345,73367,6,0,B|202:186|202:186|150:139,1,215.999993408203,0|8,1:0|0:0,0:0:0:0:
274,328,73867,2,0,B|284:103,1,215.999993408203,0|0,3:3|1:0,0:0:0:0:
154,40,74367,2,0,B|159:160,1,107.999996704102,8|0,0:0|1:0,0:0:0:0:
50,273,74701,6,0,P|119:272|159:239,1,107.999996704102,0|0,1:0|0:0,0:0:0:0:
267,121,75034,1,8,0:0:0:0:
97,63,75201,2,0,L|94:122,1,53.9999983520508,0|0,3:3|0:0,0:0:0:0:
88,197,75367,1,0,1:0:0:0:
88,197,75534,1,0,1:0:0:0:
228,259,75701,2,0,B|229:223|213:205|213:205|199:185|199:150,1,107.999996704102,8|0,0:0|1:0,0:0:0:0:
177,29,76034,5,0,3:0:0:0:
280,159,76201,1,0,3:0:0:0:
94,116,76367,1,4,3:0:0:0:
149,250,76534,1,0,3:0:0:0:
299,179,76701,5,0,3:0:0:0:
325,183,76784,1,0,3:0:0:0:
352,187,76867,1,0,3:0:0:0:
378,191,76950,1,0,3:0:0:0:
405,197,77034,1,0,1:0:0:0:
418,220,77117,1,0,1:0:0:0:
425,246,77200,1,0,1:0:0:0:
425,273,77283,1,0,1:0:0:0:
419,299,77367,6,0,P|342:289|251:350,1,180,4|8,1:2|0:0,0:0:0:0:
125,368,77867,2,0,L|133:305,1,45,0|0,3:3|0:0,0:0:0:0:
108,259,78034,2,0,P|89:216|99:161,1,90,0|0,1:0|1:0,0:0:0:0:
216,119,78367,2,0,P|210:165|174:208,1,90,8|0,0:0|0:0,0:0:0:0:
130,75,78701,6,0,P|168:35|290:61,1,180,0|8,1:0|0:0,0:0:0:0:
380,144,79201,2,0,L|324:141,1,45,0|0,3:3|0:0,0:0:0:0:
288,190,79367,2,0,P|300:239|282:283,1,90,0|0,1:0|1:0,0:0:0:0:
239,125,79701,2,0,P|253:76|290:47,1,90,8|0,0:0|1:0,0:0:0:0:
304,47,79951,1,0,0:0:0:0:
325,53,80034,6,0,P|385:73|497:29,1,180,0|8,1:0|0:0,0:0:0:0:
216,27,80534,2,0,B|203:162|203:162|238:200,1,180,0|0,3:3|1:0,0:0:0:0:
374,140,81034,2,0,P|327:129|265:143,1,90,8|0,0:0|0:0,0:0:0:0:
136,78,81367,6,0,L|126:183,1,90,4|4,3:0|3:0,0:0:0:0:
100,229,81617,1,0,3:0:0:0:
100,229,81701,1,0,1:0:0:0:
191,327,81867,1,4,3:0:0:0:
205,309,81950,1,0,3:0:0:0:
223,296,82033,1,4,3:0:0:0:
243,286,82116,1,0,3:0:0:0:
265,280,82200,1,0,3:0:0:0:
287,279,82283,1,0,3:0:0:0:
312,280,82367,1,0,3:0:0:0:
334,277,82450,1,0,3:0:0:0:
356,271,82533,1,0,3:0:0:0:
376,261,82617,1,0,3:0:0:0:
393,246,82701,5,4,0:0:0:0:
181,127,84034,5,4,0:0:0:0:
359,151,84201,1,4,0:0:0:0:
129,197,84701,5,4,0:0:0:0:
323,82,84868,1,4,0:0:0:0:
273,254,85034,1,0,3:0:0:0:
271,265,85117,1,0,3:0:0:0:
270,276,85200,1,0,3:0:0:0:
268,287,85283,1,0,3:0:0:0:
267,298,85367,5,12,3:2:0:0:
187,255,85534,1,0,0:0:0:0:
149,337,85701,1,8,0:0:0:0:
229,380,85868,1,0,0:0:0:0:
271,205,86034,5,8,0:0:0:0:
149,337,86201,1,0,0:0:0:0:
158,157,86367,1,8,0:0:0:0:
267,298,86534,1,0,0:0:0:0:
69,189,86701,5,8,0:0:0:0:
354,214,86867,1,8,0:0:0:0:
77,280,87034,1,8,0:0:0:0:
362,305,87200,1,8,0:0:0:0:
234,120,87367,5,8,3:2:0:0:
214,111,87450,1,0,3:2:0:0:
192,104,87533,1,8,3:2:0:0:
170,101,87616,1,0,3:2:0:0:
148,104,87700,1,8,3:2:0:0:
126,107,87783,1,0,3:2:0:0:
103,104,87866,1,8,3:2:0:0:
82,98,87950,1,0,3:2:0:0:
59,88,88034,6,0,P|33:135|60:233,1,135,6|0,1:2|0:0,0:0:0:0:
23,300,88367,2,0,P|77:284|121:304,1,90,8|0,0:0|3:3,0:0:0:0:
218,353,88701,1,0,1:2:0:0:
218,353,88867,1,0,1:2:0:0:
210,198,89034,2,0,B|201:150|201:150|217:97,1,90,8|0,0:0|0:0,0:0:0:0:
341,94,89367,6,0,L|350:237,1,135,0|0,1:0|0:0,0:0:0:0:
283,293,89701,2,0,P|339:285|382:313,1,90,8|0,0:0|3:3,0:0:0:0:
483,356,90034,1,2,1:2:0:0:
483,356,90201,1,0,1:0:0:0:
216,349,90367,2,0,P|196:305|203:257,1,90,10|0,0:2|1:0,0:0:0:0:
332,140,90701,6,0,P|278:140|213:75,1,135,2|0,1:2|0:0,0:0:0:0:
146,36,91034,2,0,L|134:146,1,90,8|0,0:0|3:3,0:0:0:0:
75,240,91367,1,0,1:0:0:0:
75,240,91534,1,0,1:0:0:0:
272,279,91701,2,0,P|243:250|173:238,1,90,10|2,0:0|0:0,0:0:0:0:
383,347,92034,6,0,L|390:240,1,90,2|0,1:2|0:0,0:0:0:0:
451,137,92367,1,10,0:0:0:0:
316,145,92534,2,0,L|263:142,1,45,0|0,3:3|0:0,0:0:0:0:
190,101,92701,1,2,1:2:0:0:
193,123,92784,1,0,1:0:0:0:
192,145,92867,1,0,1:0:0:0:
187,167,92950,1,0,1:0:0:0:
177,187,93034,1,0,1:0:0:0:
163,205,93117,1,0,1:0:0:0:
146,219,93200,1,0,1:0:0:0:
126,230,93284,1,0,1:0:0:0:
104,236,93367,5,2,1:2:0:0:
283,261,93534,1,2,0:0:0:0:
97,136,93701,1,10,0:2:0:0:
162,318,93867,2,0,P|196:347|302:343,1,135,6|0,3:2|0:0,0:0:0:0:
366,312,94201,1,0,1:0:0:0:
280,171,94367,2,0,L|283:282,1,90,10|0,0:0|0:0,0:0:0:0:
378,81,94701,6,0,P|322:89|257:43,1,135,2|0,1:2|0:0,0:0:0:0:
173,20,95034,2,0,L|165:109,1,90,10|2,0:0|3:2,0:0:0:0:
113,209,95367,1,0,1:2:0:0:
113,209,95534,1,2,1:2:0:0:
252,139,95701,2,0,P|305:161|361:160,1,90,10|2,0:2|1:2,0:0:0:0:
359,158,95951,1,0,0:2:0:0:
381,161,96034,6,0,P|397:203|391:260,1,90,2|0,1:2|0:0,0:0:0:0:
181,349,96367,2,0,L|286:341,1,90,12|0,0:0|0:0,0:0:0:0:
383,359,96701,1,2,1:2:0:0:
283,234,96867,1,0,1:0:0:0:
252,201,96950,1,0,0:0:0:0:
209,191,97033,5,10,0:0:0:0:
194,207,97117,1,0,0:0:0:0:
175,219,97200,1,0,1:0:0:0:
153,224,97283,1,0,0:0:0:0:
130,223,97367,1,4,0:0:0:0:
354,54,98701,6,0,P|357:93|444:144,1,135.000005149842,4|0,1:0|1:0,0:0:0:0:
473,236,99201,2,0,L|396:243,1,67.5000025749208,8|0,0:0|0:0,0:0:0:0:
457,329,99534,2,0,L|380:336,1,67.5000025749208,8|0,0:0|1:0,0:0:0:0:
288,342,99867,1,0,0:0:0:0:
288,342,100034,6,0,P|307:290|268:208,1,135.000005149842,0|0,1:0|1:0,0:0:0:0:
207,147,100534,2,0,P|252:152|329:94,1,135.000005149842,8|8,0:0|0:0,0:0:0:0:
123,125,101034,2,0,L|118:224,1,67.5000025749208,0|0,1:0|1:0,0:0:0:0:
60,274,101367,6,0,P|86:312|179:316,1,135.000005149842,0|0,1:0|1:0,0:0:0:0:
264,357,101867,2,0,L|282:213,1,135.000005149842,8|8,0:0|0:0,0:0:0:0:
311,120,102367,1,0,0:0:0:0:
311,120,102701,6,0,P|355:83|431:97,1,135.000005149842,0|0,1:0|1:0,0:0:0:0:
280,223,103201,2,0,P|223:233|164:182,1,135.000005149842,8|8,0:0|0:0,0:0:0:0:
171,106,103701,1,0,0:0:0:0:
240,152,103867,1,0,1:0:0:0:
164,186,104034,6,0,B|63:198|63:198|106:227,1,135.000005149842,0|0,1:0|1:0,0:0:0:0:
102,377,104534,2,0,P|132:346|144:241,1,135.000005149842,8|8,0:0|0:0,0:0:0:0:
63,198,105034,1,0,1:0:0:0:
250,211,105367,6,0,L|405:218,1,135.000005149842,0|0,1:0|1:0,0:0:0:0:
320,138,105867,2,0,B|427:143|427:143|455:182,1,135.000005149842,8|8,0:0|0:0,0:0:0:0:
458,196,106284,1,0,0:0:0:0:
461,229,106367,2,0,P|449:264|416:286,1,67.5000025749208,0|0,1:0|1:0,0:0:0:0:
240,345,106701,6,0,L|252:183,1,135.000005149842,0|0,1:0|1:0,0:0:0:0:
320,138,107201,2,0,P|264:101|188:103,1,135.000005149842,8|8,0:0|0:0,0:0:0:0:
110,189,107701,2,0,P|146:191|181:169,1,67.5000025749208,0|0,1:0|3:0,0:0:0:0:
43,88,108034,5,0,3:0:0:0:
37,175,108200,1,2,3:0:0:0:
31,263,108367,1,0,3:0:0:0:
25,350,108534,1,4,3:2:0:0:
152,301,108867,5,2,0:0:0:0:
152,301,108951,1,2,0:0:0:0:
152,301,109034,2,0,L|230:290,1,67.5000025749208,0|0,1:0|1:0,0:0:0:0:
345,338,109367,6,0,P|331:269|373:201,1,135,4|0,1:0|0:0,0:0:0:0:
393,154,109701,2,0,L|290:135,1,90,8|0,0:0|3:3,0:0:0:0:
228,61,110034,1,0,1:0:0:0:
245,223,110201,2,0,P|217:262|171:277,1,90,0|8,1:0|0:0,0:0:0:0:
170,141,110534,1,0,0:0:0:0:
304,137,110701,6,0,P|344:187|329:275,1,135,2|0,1:2|0:0,0:0:0:0:
359,319,111034,2,0,P|308:313|261:346,1,90,10|2,0:2|3:2,0:0:0:0:
144,367,111367,1,2,1:2:0:0:
232,264,111534,2,0,P|231:205|205:176,1,90,2|8,1:2|0:0,0:0:0:0:
101,258,111867,1,0,1:0:0:0:
151,132,112034,6,0,P|198:102|281:145,1,135,0|0,1:0|0:0,0:0:0:0:
333,106,112367,2,0,P|322:163|346:194,1,90,8|0,0:0|3:3,0:0:0:0:
449,211,112701,1,0,1:0:0:0:
408,82,112867,2,0,P|379:38|332:29,1,90,0|8,1:0|0:0,0:0:0:0:
210,49,113201,1,0,0:0:0:0:
333,106,113367,6,0,P|302:141|332:232,1,135,0|0,1:0|0:0,0:0:0:0:
358,277,113701,2,0,P|319:311|272:307,1,90,10|2,0:2|3:2,0:0:0:0:
147,305,114034,1,0,1:0:0:0:
207,184,114201,2,0,P|221:224|213:290,1,90,2|8,1:2|0:0,0:0:0:0:
81,250,114534,1,0,1:0:0:0:
261,118,114701,6,0,P|292:166|299:266,1,135,4|0,1:2|0:0,0:0:0:0:
282,311,115034,2,0,P|339:297|389:324,1,90,8|0,0:0|3:3,0:0:0:0:
472,355,115367,1,0,1:0:0:0:
472,355,115534,1,0,1:0:0:0:
446,222,115701,2,0,P|428:174|431:132,1,90,8|0,0:0|0:0,0:0:0:0:
296,115,116034,6,0,P|288:165|310:252,1,135,2|0,1:2|0:0,0:0:0:0:
347,301,116367,2,0,P|304:335|264:335,1,90,10|2,0:2|3:2,0:0:0:0:
248,332,116617,1,0,0:0:0:0:
226,323,116701,2,0,P|179:320|136:343,1,90,2|2,1:2|1:2,0:0:0:0:
18,351,117034,2,0,L|31:257,1,90,8|0,0:0|1:0,0:0:0:0:
50,251,117284,1,0,1:0:0:0:
69,240,117367,6,0,L|88:101,1,135,0|0,1:0|0:0,0:0:0:0:
131,54,117701,2,0,P|177:24|227:34,1,90,8|0,0:0|3:3,0:0:0:0:
319,93,118034,1,0,1:0:0:0:
319,93,118201,1,0,1:0:0:0:
206,193,118367,2,0,P|189:140|199:94,1,90,8|0,0:0|0:0,0:0:0:0:
319,93,118701,6,0,P|363:111|448:93,1,135,0|0,1:0|0:0,0:0:0:0:
493,45,119034,1,10,0:2:0:0:
463,176,119201,1,2,1:2:0:0:
463,176,119367,2,0,L|460:233,1,45,0|0,0:0|0:0,0:0:0:0:
413,281,119533,1,2,3:2:0:0:
392,273,119616,1,0,3:0:0:0:
369,269,119700,1,0,3:0:0:0:
347,270,119783,1,0,3:0:0:0:
325,274,119866,1,0,3:0:0:0:
304,283,119950,1,0,3:0:0:0:
284,295,120034,6,0,P|240:321|200:318,1,72,4|0,0:2|1:0,0:0:0:0:
118,283,120367,1,0,0:0:0:0:
300,212,120534,6,0,P|349:232|370:265,1,72,4|0,0:0|1:0,0:0:0:0:
220,322,120867,1,8,0:0:0:0:
227,167,121034,6,0,P|254:140|316:133,1,90,4|0,0:0|0:0,0:0:0:0:
410,158,121534,1,0,0:0:0:0:
410,158,121617,1,0,0:0:0:0:
410,158,121701,1,0,3:0:0:0:
300,212,121867,1,0,1:0:0:0:
367,62,122034,5,0,3:0:0:0:
399,263,122201,1,0,3:0:0:0:
329,44,122367,1,0,3:0:0:0:
300,212,122701,6,0,L|209:206,1,67.5000025749208,4|0,0:2|1:0,0:0:0:0:
189,115,123034,1,0,0:0:0:0:
354,147,123201,6,0,P|379:176|382:229,1,67.5000025749208,4|0,0:0|1:0,0:0:0:0:
232,207,123534,1,8,0:0:0:0:
322,77,123701,6,0,P|356:70|413:99,1,90,4|0,0:0|0:0,0:0:0:0:
472,187,124201,1,0,0:0:0:0:
472,187,124284,1,0,0:0:0:0:
472,187,124367,1,0,3:0:0:0:
354,147,124534,1,0,1:0:0:0:
483,94,124701,5,0,3:0:0:0:
381,248,124867,1,0,3:0:0:0:
464,53,125034,1,4,3:2:0:0:
147,169,125367,5,4,0:2:0:0:
256,32,126701,5,2,0:0:0:0:
256,256,127367,6,0,L|167:250,1,90,0|0,0:0|0:0,0:0:0:0:
114,130,128034,5,4,0:0:0:0:
198,160,128201,1,0,0:0:0:0:
127,52,128367,1,0,1:0:0:0:
128,210,128534,1,0,1:0:0:0:
240,97,128701,1,0,1:0:0:0:
39,144,128867,1,0,1:0:0:0:
237,226,129034,1,0,1:0:0:0:
202,32,129201,1,0,1:0:0:0:
114,255,129367,1,0,1:0:0:0:
114,255,129701,6,0,L|215:293,2,107.999996704102,2|2|2,0:0|0:0|0:0,0:0:0:0:
143,105,130701,6,0,P|187:66|245:67,1,107.999996704102,4|0,1:2|0:0,0:0:0:0:
360,142,131034,1,8,0:0:0:0:
244,276,131201,2,0,L|232:217,1,53.9999983520508,0|0,3:2|0:0,0:0:0:0:
221,142,131367,1,0,1:0:0:0:
221,142,131534,1,0,1:0:0:0:
52,215,131701,2,0,P|105:219|152:195,1,107.999996704102,8|0,0:0|0:0,0:0:0:0:
217,34,132034,6,0,L|221:151,1,107.999996704102,0|0,1:2|0:0,0:0:0:0:
244,276,132367,1,8,0:0:0:0:
355,158,132534,2,0,L|298:158,1,53.9999983520508,0|0,3:2|0:0,0:0:0:0:
220,141,132701,1,0,1:0:0:0:
220,141,132867,1,0,1:0:0:0:
206,304,133034,2,0,P|270:306|313:346,1,107.999996704102,8|0,0:0|1:0,0:0:0:0:
328,342,133284,1,0,0:0:0:0:
364,345,133367,6,0,L|369:225,1,107.999996704102,0|0,1:2|0:0,0:0:0:0:
405,90,133701,1,8,0:2:0:0:
256,153,133867,2,0,L|319:156,1,53.9999983520508,0|0,3:2|0:0,0:0:0:0:
390,168,134034,1,0,1:0:0:0:
390,168,134201,1,0,1:0:0:0:
349,328,134367,2,0,P|326:275|349:215,1,107.999996704102,8|0,0:0|0:0,0:0:0:0:
405,90,134701,6,0,L|285:85,1,107.999996704102,0|0,1:2|0:0,0:0:0:0:
148,47,135034,1,8,0:2:0:0:
256,153,135201,2,0,L|319:156,1,53.9999983520508,0|0,3:2|0:0,0:0:0:0:
390,168,135368,1,0,1:0:0:0:
390,168,135535,1,0,1:0:0:0:
188,212,135701,2,0,P|167:159|179:107,1,107.999996704102,8|0,0:0|1:0,0:0:0:0:
300,322,136034,6,0,L|188:320,1,107.999996704102,4|0,1:2|0:0,0:0:0:0:
188,212,136367,1,8,0:0:0:0:
364,264,136534,2,0,P|389:318|369:377,1,107.999996704102,0|0,3:2|1:0,0:0:0:0:
192,320,136867,1,0,1:0:0:0:
405,199,137034,2,0,P|451:249|465:308,1,107.999996704102,8|0,0:2|0:0,0:0:0:0:
328,194,137367,6,0,L|335:79,1,107.999996704102,0|0,1:2|0:0,0:0:0:0:
233,214,137701,2,0,L|240:329,1,107.999996704102,8|0,0:0|0:0,0:0:0:0:
419,298,138034,2,0,P|364:275|306:293,1,107.999996704102,0|0,1:2|1:0,0:0:0:0:
132,201,138367,2,0,P|187:224|245:206,1,107.999996704102,8|0,2:0|1:0,0:0:0:0:
405,138,138617,1,0,0:0:0:0:
405,138,138701,6,0,B|419:298|419:298|363:264,1,215.999993408203,0|8,1:2|0:0,0:0:0:0:
235,284,139201,2,0,L|311:280,1,53.9999983520508,0|0,3:3|0:0,0:0:0:0:
371,269,139367,1,0,1:2:0:0:
371,269,139534,1,0,1:0:0:0:
311,98,139701,2,0,L|322:223,1,107.999996704102,8|0,0:0|0:0,0:0:0:0:
303,345,140034,6,0,P|247:328|189:340,1,107.999996704102,4|0,1:2|1:0,0:0:0:0:
173,344,140284,1,0,0:0:0:0:
146,347,140367,2,0,P|99:305|87:252,1,107.999996704102,8|0,0:0|3:3,0:0:0:0:
52,113,140701,1,0,3:0:0:0:
87,152,140784,1,0,3:0:0:0:
137,172,140867,1,0,3:0:0:0:
190,167,140951,1,0,3:0:0:0:
235,139,141034,5,0,1:0:0:0:
258,125,141117,1,0,1:0:0:0:
285,119,141200,1,0,1:0:0:0:
311,121,141284,1,0,1:0:0:0:
336,132,141367,6,0,P|388:160|451:155,1,107.999996704102,4|0,1:2|0:0,0:0:0:0:
354,18,141701,1,8,0:0:0:0:
258,125,141867,2,0,L|262:190,1,53.9999983520508,0|0,3:0|0:0,0:0:0:0:
266,260,142034,1,0,1:0:0:0:
266,260,142201,1,0,1:0:0:0:
87,218,142367,2,0,P|150:203|200:228,1,107.999996704102,8|0,0:0|0:0,0:0:0:0:
276,367,142701,6,0,L|264:245,1,107.999996704102,0|0,1:0|0:0,0:0:0:0:
320,106,143034,1,8,0:0:0:0:
402,245,143201,2,0,L|340:250,1,53.9999983520508,0|0,3:3|0:0,0:0:0:0:
265,259,143367,1,0,1:0:0:0:
265,259,143534,1,0,1:0:0:0:
446,174,143701,2,0,P|481:218|478:281,1,107.999996704102,8|0,0:0|1:0,0:0:0:0:
474,293,143951,1,0,0:0:0:0:
456,313,144034,6,0,P|401:309|352:343,1,107.999996704102,0|0,1:0|0:0,0:0:0:0:
196,315,144367,1,8,0:0:0:0:
340,240,144534,2,0,L|328:171,1,53.9999983520508,0|0,3:3|0:0,0:0:0:0:
313,107,144701,1,0,1:0:0:0:
313,107,144867,1,0,1:0:0:0:
148,175,145034,2,0,P|216:185|257:159,1,107.999996704102,8|0,0:0|0:0,0:0:0:0:
191,6,145367,6,0,L|196:121,1,107.999996704102,0|0,1:0|0:0,0:0:0:0:
259,263,145701,1,8,0:0:0:0:
384,155,145867,2,0,L|329:159,1,53.9999983520508,0|0,3:3|0:0,0:0:0:0:
248,167,146034,1,0,1:0:0:0:
248,167,146201,1,0,1:0:0:0:
182,39,146367,2,0,P|239:62|286:60,1,107.999996704102,8|0,0:0|1:0,0:0:0:0:
398,79,146617,1,0,0:0:0:0:
398,79,146701,6,0,P|456:125|389:234,1,215.999993408203,4|8,1:2|0:0,0:0:0:0:
249,220,147201,1,0,3:3:0:0:
249,220,147284,1,0,0:0:0:0:
249,220,147367,1,0,1:0:0:0:
384,155,147534,1,0,1:0:0:0:
255,55,147701,2,0,P|261:110|307:154,1,107.999996704102,8|0,0:0|0:0,0:0:0:0:
249,220,148034,6,0,B|295:147|295:147|311:231|389:261,1,215.999993408203,0|8,1:0|0:0,0:0:0:0:
445,196,148534,2,0,B|402:191|363:168|325:78|403:29|436:25,1,215.999993408203,0|0,3:3|1:0,0:0:0:0:
455,110,149034,2,0,L|347:130,1,107.999996704102,8|0,0:0|1:0,0:0:0:0:
206,52,149367,6,0,P|230:103|203:176,1,107.999996704102,0|0,1:0|0:0,0:0:0:0:
78,231,149701,1,8,0:0:0:0:
226,288,149867,2,0,L|223:225,1,53.9999983520508,0|0,3:3|0:0,0:0:0:0:
220,152,150034,1,0,1:0:0:0:
220,152,150201,1,0,1:0:0:0:
396,176,150367,2,0,B|352:176|352:176|336:192|336:192|292:192,1,107.999996704102,8|0,0:0|1:0,0:0:0:0:
152,214,150701,5,0,3:0:0:0:
303,114,150867,1,0,3:0:0:0:
223,234,151034,1,4,3:0:0:0:
387,253,151201,1,0,3:0:0:0:
310,74,151367,5,0,3:0:0:0:
292,53,151450,1,0,3:0:0:0:
268,41,151533,1,0,3:0:0:0:
241,37,151617,1,0,3:0:0:0:
215,44,151700,1,0,1:0:0:0:
221,70,151784,1,0,1:0:0:0:
216,96,151867,1,0,1:0:0:0:
201,118,151951,1,0,1:0:0:0:
178,132,152034,6,0,P|111:117|37:190,1,180,4|8,1:2|0:0,0:0:0:0:
71,319,152534,2,0,L|89:272,1,45,0|0,3:3|0:0,0:0:0:0:
134,228,152701,2,0,P|170:269|211:277,1,90,0|0,1:0|1:0,0:0:0:0:
321,212,153034,2,0,P|269:194|229:208,1,90,8|0,0:0|0:0,0:0:0:0:
335,295,153367,6,0,P|382:271|370:147,1,180,0|8,1:0|0:0,0:0:0:0:
324,34,153867,2,0,L|309:98,1,45,0|0,3:3|0:0,0:0:0:0:
315,145,154034,2,0,P|274:173|222:173,1,90,0|0,1:0|1:0,0:0:0:0:
112,119,154367,2,0,L|100:225,1,90,8|0,0:0|1:0,1:0:0:0:
219,257,154701,6,0,P|293:254|387:176,1,180,0|8,1:0|0:0,0:0:0:0:
495,128,155201,2,0,L|501:196,1,45,0|0,3:3|0:0,0:0:0:0:
500,240,155367,2,0,P|453:239|416:263,1,90,0|0,1:0|1:0,0:0:0:0:
308,342,155701,2,0,L|317:245,1,90,8|0,0:0|0:0,0:0:0:0:
418,163,156034,6,0,L|409:66,1,90,4|4,3:0|3:0,0:0:0:0:
357,29,156284,1,0,3:0:0:0:
357,29,156367,1,0,1:0:0:0:
286,146,156534,1,4,3:0:0:0:
264,138,156617,1,0,3:0:0:0:
242,133,156700,1,4,3:0:0:0:
220,132,156784,1,0,3:0:0:0:
198,136,156867,1,0,3:0:0:0:
177,144,156950,1,0,3:0:0:0:
156,153,157034,1,0,3:0:0:0:
135,159,157117,1,0,3:0:0:0:
112,159,157200,1,0,3:0:0:0:
90,154,157284,1,0,3:0:0:0:
69,145,157367,5,4,0:0:0:0:
119,56,158701,5,4,0:0:0:0:
230,234,158867,1,4,0:0:0:0:
223,42,159367,5,4,0:0:0:0:
112,220,159533,1,4,0:0:0:0:
253,143,159701,1,0,3:0:0:0:
258,143,159784,1,0,3:0:0:0:
264,144,159867,1,0,3:0:0:0:
269,145,159951,1,0,3:0:0:0:
276,147,160034,6,0,L|374:157,1,90,12|0,1:0|0:0,0:0:0:0:
410,243,160367,1,0,1:0:0:0:
215,210,160534,6,0,P|188:157|195:112,1,90,12|0,1:0|0:0,0:0:0:0:
315,77,160867,1,0,1:0:0:0:
314,212,161034,6,0,L|336:316,1,90,12|0,1:0|1:0,0:0:0:0:
189,127,161367,1,0,1:0:0:0:
379,143,161534,6,0,L|475:147,1,90,12|0,1:0|1:0,0:0:0:0:
332,300,161867,1,0,1:0:0:0:
291,90,162034,6,0,P|292:38|323:7,1,90,8|0,1:0|1:0,0:0:0:0:
314,219,162367,2,0,P|339:264|327:306,1,90,8|0,1:0|1:0,0:0:0:0:
237,126,162701,6,0,B|291:90|291:90|310:153|373:158,1,180,12|0,1:0|1:0,0:0:0:0:
384,29,163201,2,0,B|374:77|374:77|459:86|457:190,1,180,12|0,1:0|1:0,0:0:0:0:
493,250,163701,2,0,B|455:262|411:225|411:225|360:252|321:232,1,180,12|0,1:0|1:0,0:0:0:0:
336,326,164201,2,0,P|289:320|243:189,1,180,12|0,1:0|1:0,0:0:0:0:
306,101,164701,1,8,1:0:0:0:
155,199,164867,1,0,1:0:0:0:
223,41,165034,1,8,1:0:0:0:
222,52,165117,1,0,0:0:0:0:
221,63,165200,1,0,1:0:0:0:
220,74,165284,1,0,0:0:0:0:
219,84,165367,6,0,B|234:212|234:212|262:163,1,180,12|0,1:0|1:0,0:0:0:0:
155,199,165867,2,0,P|161:247|277:280,1,180,12|0,1:0|1:0,0:0:0:0:
331,179,166367,2,0,B|271:283|271:283|340:266,1,180,12|0,1:0|1:0,0:0:0:0:
375,106,166867,2,0,B|343:81|289:101|289:101|250:58|207:64,1,180,12|0,1:0|1:0,0:0:0:0:
120,17,167367,2,0,P|108:68|122:114,1,90,12|0,1:0|1:0,0:0:0:0:
258,227,167701,2,0,P|242:176|207:143,1,90,12|0,1:0|1:0,0:0:0:0:
122,211,168034,5,12,1:0:0:0:
116,103,168201,1,0,1:0:0:0:
217,150,168367,1,8,1:0:0:0:
122,211,168534,1,0,1:0:0:0:
198,69,168701,1,8,1:0:0:0:
202,237,168867,1,0,1:0:0:0:
116,103,169034,1,8,1:0:0:0:
120,271,169200,1,0,1:0:0:0:
285,211,169367,5,8,1:0:0:0:
88,183,169534,1,8,1:0:0:0:
279,132,169701,1,8,1:0:0:0:
116,20,169867,1,8,1:0:0:0:
186,225,170034,5,8,1:0:0:0:
185,247,170117,1,0,0:0:0:0:
190,269,170200,1,8,1:0:0:0:
201,288,170284,1,0,0:0:0:0:
221,306,170367,5,0,3:0:0:0:
262,288,170450,1,0,3:0:0:0:
307,288,170533,1,0,3:0:0:0:
348,304,170617,1,0,3:0:0:0:
385,329,170701,6,0,B|417:241|353:241|385:153,1,180,4|8,1:2|0:0,0:0:0:0:
475,159,171201,2,0,B|384:154|384:154|412:116|391:57,1,180,0|0,3:2|1:0,0:0:0:0:
308,275,171701,2,0,P|292:211|327:86,1,180,8|0,0:0|1:2,0:0:0:0:
473,84,172201,5,0,0:0:0:0:
230,109,172367,2,0,B|270:109|270:109|278:101|278:101|318:101,1,90,8|0,0:0|3:2,0:0:0:0:
404,204,172701,2,0,L|394:152,1,45,0|0,1:0|0:0,0:0:0:0:
394,69,172867,1,0,1:0:0:0:
307,174,173034,1,8,0:0:0:0:
241,35,173201,1,0,1:0:0:0:
283,262,173367,6,0,P|225:212|254:105,1,180,0|8,1:2|0:2,0:0:0:0:
436,179,173867,2,0,B|307:174|307:174|353:144,1,180,0|0,3:2|1:0,0:0:0:0:
501,134,174367,2,0,P|515:183|496:230,1,90,8|0,0:0|0:0,0:0:0:0:
349,146,174701,6,0,L|362:53,1,90,0|0,1:2|0:0,0:0:0:0:
361,250,175034,2,0,L|374:343,1,90,8|0,0:2|3:2,0:0:0:0:
503,219,175367,2,0,P|462:194|410:192,1,90,0|0,1:0|1:0,0:0:0:0:
278,218,175701,2,0,L|291:311,1,90,8|0,0:0|1:0,0:0:0:0:
125,154,176034,6,0,P|205:164|279:99,1,180,0|8,1:2|0:0,0:0:0:0:
86,73,176534,2,0,P|48:101|35:150,1,90,0|0,3:2|1:0,0:0:0:0:
146,306,176867,2,0,P|130:264|94:238,2,90,0|8|0,1:0|0:2|0:0,0:0:0:0:
34,140,177367,6,0,P|100:141|206:216,1,180,0|8,1:2|0:0,0:0:0:0:
49,351,177867,2,0,L|55:246,1,90,0|0,3:3|1:2,0:0:0:0:
189,289,178201,2,0,L|195:184,1,90,0|8,1:0|2:0,0:0:0:0:
264,83,178534,1,0,1:0:0:0:
272,271,178701,6,0,P|265:337|149:365,1,180,0|8,1:2|0:0,0:0:0:0:
111,242,179201,2,0,B|158:260|189:289|189:289|179:248|187:197,1,180,0|0,3:3|1:0,0:0:0:0:
271,291,179701,2,0,P|262:241|274:177,1,90,8|0,0:0|0:0,0:0:0:0:
302,78,180034,6,0,P|263:110|199:131,1,90,0|0,1:2|1:0,0:0:0:0:
107,160,180367,2,0,P|154:177|204:221,1,90,12|0,0:0|3:3,0:0:0:0:
271,291,180701,1,0,3:0:0:0:
286,274,180784,1,0,3:0:0:0:
304,261,180867,1,0,3:0:0:0:
324,251,180951,1,0,3:0:0:0:
346,246,181034,1,0,1:0:0:0:
368,244,181117,1,0,1:0:0:0:
391,247,181201,1,0,1:0:0:0:
412,255,181284,1,0,1:0:0:0:
431,268,181367,6,0,P|459:220|420:103,1,180,4|8,1:2|0:0,0:0:0:0:
317,173,181867,2,0,B|365:189|365:189|317:205|237:189,1,180,0|0,3:3|1:0,0:0:0:0:
319,272,182367,2,0,P|379:265|419:247,1,90,8|0,0:0|0:0,0:0:0:0:
239,316,182701,6,0,B|319:272|319:272|239:228,1,180,0|8,1:0|0:0,0:0:0:0:
356,201,183201,2,0,P|400:273|352:343,1,180,0|0,3:3|1:0,0:0:0:0:
470,312,183701,2,0,P|476:271|466:221,1,90,8|0,0:0|1:0,0:0:0:0:
449,59,184034,6,0,P|436:106|317:124,1,180,0|8,1:0|0:0,0:0:0:0:
319,272,184534,2,0,P|284:237|328:125,1,180,0|0,3:3|1:0,0:0:0:0:
211,149,185034,2,0,P|201:198|210:247,1,90,8|0,0:0|0:0,0:0:0:0:
404,217,185367,6,0,B|356:201|356:201|404:185|484:201,1,180,0|8,1:0|0:0,0:0:0:0:
502,123,185867,1,0,3:3:0:0:
502,123,186034,2,0,P|446:112|312:128,1,180,0|8,1:0|0:0,0:0:0:0:
303,133,186451,1,0,1:0:0:0:
281,138,186534,1,0,1:0:0:0:
258,140,186617,1,0,1:0:0:0:
239,141,186701,6,0,P|199:157|100:141,1,135.000005149842,4|8,1:2|0:0,0:0:0:0:
258,44,187201,2,0,B|239:141|239:141|281:132|316:154,1,161.999995056153,4|8,0:0|0:0,0:0:0:0:
124,226,187701,2,0,P|167:232|279:201,1,144,4|0,0:0|0:0,0:0:0:0:
329,75,188201,1,0,1:0:0:0:
329,75,188367,6,0,P|370:107|374:164,1,90,0|0,0:0|1:0,0:0:0:0:
377,164,188617,1,0,0:0:0:0:
371,185,188701,2,0,P|383:236|417:264,1,90,0|0,1:0|3:0,0:0:0:0:
315,357,189034,2,0,P|303:306|269:278,1,90,0|0,3:0|1:0,0:0:0:0:
141,282,189367,6,0,L|125:191,1,90,6|0,1:2|0:0,0:0:0:0:
217,251,189701,2,0,L|217:158,1,90,2|0,0:0|0:0,0:0:0:0:
298,232,190034,2,0,L|314:141,1,90,2|0,0:0|0:0,0:0:0:0:
382,226,190367,2,0,L|413:139,1,90,2|0,0:0|0:0,0:0:0:0:
355,48,190701,6,0,L|253:35,1,90,2|0,0:0|0:0,0:0:0:0:
224,154,191034,2,0,L|326:141,1,90,2|0,0:0|0:0,0:0:0:0:
265,36,191367,2,0,L|163:23,1,90,2|0,0:0|0:0,0:0:0:0:
134,165,191700,2,0,L|236:152,1,90,2|0,0:0|0:0,0:0:0:0:
379,291,192034,6,0,P|349:242|351:192,1,99.0000030212403,2|0,0:0|0:0,0:0:0:0:
262,284,192367,2,0,P|260:226|287:184,1,99.0000030212403,2|0,0:0|0:0,0:0:0:0:
161,224,192701,2,0,P|188:173|232:150,1,99.0000030212403,2|0,0:0|0:0,0:0:0:0:
108,120,193034,2,0,P|156:90|206:92,1,99.0000030212403,2|0,0:0|0:0,0:0:0:0:
307,101,193367,5,2,0:0:0:0:
256,192,193451,12,0,195701,0:0:0:0:
112,192,196034,6,0,B|208:144|256:256|256:256|304:144|416:192,1,377.999988464356,4|0,0:0|0:0,0:0:0:0:
305,314,197367,2,0,P|257:334|205:314,1,107.999996704102
256,96,197867,1,0,0:3:0:0:
256,96,197951,1,0,0:3:0:0:
256,96,198034,1,0,0:3:0:0:
256,176,198256,1,8,0:3:0:0:
256,256,198479,1,8,0:3:0:0:
424,80,198701,6,0,B|352:128|304:80|304:80|256:24|208:80|208:80|160:128|88:80,1,377.999988464356,4|0,0:0|0:0,0:0:0:0:
204,176,200034,2,0,B|224:184|256:168|256:168|288:184|308:176,1,107.999996704102
256,328,200534,1,0,0:3:0:0:
256,328,200701,2,0,L|256:256,1,53.9999983520508,4|0,3:0|0:0,0:0:0:0:
256,48,201201,5,0,0:0:0:0:
204,140,201367,2,0,P|256:124|308:140,1,107.999996704102,4|0,0:0|0:0,0:0:0:0:
305,245,202034,2,0,P|254:259|204:244,1,107.999996704102,2|0,0:0|0:0,0:0:0:0:
145,69,202701,2,0,P|161:100|140:190,1,107.999996704102,2|0,2:0|0:0,0:0:0:0:
367,69,203367,2,0,P|351:100|372:190,1,107.999996704102,2|0,0:0|0:0,0:0:0:0:
405,236,203867,1,0,1:0:0:0:
405,236,204034,6,0,P|379:264|296:264,1,107.999996704102,0|0,1:0|0:0,0:0:0:0:
107,148,204701,2,0,P|133:120|216:120,1,107.999996704102,2|0,2:0|0:0,0:0:0:0:
256,176,205201,1,0,1:0:0:0:
256,176,205367,2,0,L|256:288,1,107.999996704102,0|2,1:0|0:0,0:0:0:0:
223,369,205867,1,2,0:0:0:0:
223,369,206034,2,0,L|287:369,1,53.9999983520508,10|2,0:0|0:0,0:0:0:0:
335,312,206367,1,2,0:0:0:0:
443,138,206701,6,0,P|393:121|373:94,1,67.5000025749208,6|0,0:0|0:0,0:0:0:0:
306,177,207034,2,0,P|295:125|309:94,1,67.5000025749208,2|0,0:0|0:0,0:0:0:0:
383,220,207367,2,0,P|368:244|322:263,1,67.5000025749208,2|0,0:0|0:0,0:0:0:0:
165,223,207701,2,0,P|189:209|239:216,1,67.5000025749208,0|0,0:0|0:0,0:0:0:0:
263,349,208034,6,0,L|265:280,1,67.5000025749208,2|0,0:0|0:0,0:0:0:0:
211,135,208367,2,0,P|170:138|136:152,1,67.5000025749208,2|0,0:0|0:0,0:0:0:0:
323,194,208701,2,0,P|364:191|398:177,1,67.5000025749208,2|0,0:0|0:0,0:0:0:0:
165,223,209034,2,0,P|152:256|156:298,1,67.5000025749208,0|0,0:0|0:0,0:0:0:0:
286,118,209367,6,0,P|280:82|256:48,1,67.5000025749208,2|0,0:0|0:0,0:0:0:0:
361,257,209701,2,0,L|433:263,1,67.5000025749208,2|0,0:0|0:0,0:0:0:0:
232,217,210034,2,0,L|160:223,1,67.5000025749208,2|0,0:0|0:0,0:0:0:0:
38,344,210367,2,0,P|54:299|48:264,1,67.5000025749208,0|0,0:0|0:0,0:0:0:0:
94,78,210701,6,0,L|102:162,1,67.5000025749208,2|0,0:0|0:0,0:0:0:0:
152,293,211034,2,0,P|198:297|221:325,1,67.5000025749208,2|0,0:0|0:0,0:0:0:0:
52,280,211367,2,0,P|61:241|105:205,1,67.5000025749208,2|0,0:0|0:0,0:0:0:0:
232,127,211701,2,0,P|204:156|148:165,1,67.5000025749208,2|0,0:0|0:0,0:0:0:0:
149,277,212034,6,0,P|207:266|298:354,1,180,2|2,0:0|0:0,0:0:0:0:
368,257,212534,1,0,0:0:0:0:
200,358,212701,2,0,P|159:374|93:351,1,90,2|0,0:2|0:2,0:2:0:0:
129,192,213034,2,0,P|150:234|146:284,1,90,2|0,0:0|0:2,0:2:0:0:
41,109,213367,5,2,0:2:0:0:
62,116,213450,1,0,0:2:0:0:
84,118,213533,1,0,0:2:0:0:
107,117,213617,1,0,0:2:0:0:
128,112,213700,1,2,0:2:0:0:
149,102,213783,1,0,0:2:0:0:
167,89,213867,1,0,0:2:0:0:
182,73,213950,1,0,0:2:0:0:
194,54,214033,5,2,0:2:0:0:
212,38,214117,1,0,0:2:0:0:
232,28,214200,1,0,0:2:0:0:
254,23,214284,1,0,0:2:0:0:
277,22,214367,1,2,0:2:0:0:
299,26,214450,1,0,0:2:0:0:
320,34,214534,1,0,0:2:0:0:
338,46,214617,1,0,0:2:0:0:
362,74,214701,6,0,L|355:128,1,45,2|0,0:2|0:2,1:2:0:0:
445,129,214867,2,0,L|438:75,1,45,2|0,0:2|0:2,1:2:0:0:
356,118,215034,2,0,L|349:172,1,45,2|0,0:2|0:2,1:2:0:0:
450,173,215200,2,0,L|443:119,1,45,2|0,0:2|0:2,1:2:0:0:
350,162,215367,2,0,L|343:216,1,45,2|0,0:2|0:2,1:2:0:0:
455,217,215534,2,0,L|448:163,1,45,2|0,0:2|0:2,1:2:0:0:
344,206,215701,2,0,L|337:260,1,45,2|0,0:2|0:2,1:2:0:0:
460,261,215867,2,0,L|453:207,1,45,2|0,0:2|0:2,1:2:0:0:
393,318,216034,5,4,0:2:0:0:
393,318,216367,2,0,B|349:302|349:302|393:286,1,90,2|0,0:0|0:0,0:0:0:0:
305,379,216701,1,0,0:3:0:0:
286,366,216784,1,0,0:3:0:0:
271,349,216867,1,0,0:3:0:0:
261,329,216951,1,0,0:3:0:0:
257,307,217034,1,0,1:0:0:0:
258,285,217117,1,0,1:0:0:0:
265,263,217201,1,0,1:0:0:0:
278,245,217284,1,0,1:0:0:0:
297,228,217367,6,0,P|354:225|394:177,1,107.999996704102,4|0,1:2|0:0,0:0:0:0:
454,86,217701,1,8,0:0:0:0:
307,135,217867,1,0,3:2:0:0:
307,135,217951,1,0,0:0:0:0:
307,135,218034,1,0,1:0:0:0:
462,229,218201,1,0,1:0:0:0:
291,218,218367,2,0,L|178:211,1,107.999996704102,8|0,0:0|0:0,0:0:0:0:
74,247,218701,6,0,P|91:198|67:137,1,107.999996704102,0|0,1:2|0:0,0:0:0:0:
23,44,219034,1,8,0:0:0:0:
159,115,219201,1,0,3:2:0:0:
159,115,219284,1,0,0:0:0:0:
159,115,219367,1,0,1:0:0:0:
16,195,219534,1,0,1:0:0:0:
201,212,219701,2,0,L|322:206,1,107.999996704102,8|0,0:0|1:0,0:0:0:0:
336,207,219951,1,0,0:0:0:0:
362,204,220034,6,0,P|364:152|330:89,1,107.999996704102,0|0,1:2|0:0,0:0:0:0:
247,64,220367,1,8,0:2:0:0:
431,59,220534,1,0,3:2:0:0:
431,59,220617,1,0,0:0:0:0:
431,59,220701,1,0,1:0:0:0:
283,166,220867,1,0,1:0:0:0:
425,235,221034,2,0,P|431:190|398:119,1,107.999996704102,8|0,0:0|0:0,0:0:0:0:
317,241,221367,6,0,P|334:282|395:326,1,107.999996704102,0|0,1:2|0:0,0:0:0:0:
477,368,221701,1,8,0:2:0:0:
441,192,221867,1,0,3:2:0:0:
441,192,221951,1,0,0:0:0:0:
441,192,222034,1,0,1:0:0:0:
498,322,222201,1,0,1:0:0:0:
314,369,222367,2,0,P|276:332|247:266,1,107.999996704102,8|0,0:0|1:0,0:0:0:0:
269,121,222701,6,0,P|216:115|167:71,1,107.999996704102,4|0,1:2|0:0,0:0:0:0:
336,68,223034,1,8,0:0:0:0:
244,200,223201,2,0,L|254:270,1,53.9999983520508,0|0,3:2|0:0,0:0:0:0:
267,332,223367,1,0,1:0:0:0:
267,332,223534,1,0,1:0:0:0:
307,147,223701,2,0,P|256:116|200:126,1,107.999996704102,8|0,0:2|0:0,0:0:0:0:
240,298,224034,6,0,L|245:190,1,107.999996704102,0|0,1:2|0:0,0:0:0:0:
112,234,224367,2,0,L|117:126,1,107.999996704102,8|0,0:0|0:0,0:0:0:0:
175,338,224701,2,0,P|226:374|285:356,1,107.999996704102,0|0,1:2|1:0,0:0:0:0:
425,300,225034,2,0,P|362:294|315:336,1,107.999996704102,8|0,2:0|1:0,0:0:0:0:
162,245,225284,1,0,0:0:0:0:
162,245,225367,6,0,B|226:229|290:245|290:245|226:261|204:251,1,215.999993408203,0|8,1:2|0:0,0:0:0:0:
64,242,225867,1,0,3:3:0:0:
64,242,225951,1,0,0:0:0:0:
64,242,226034,1,0,1:2:0:0:
163,324,226201,1,0,1:0:0:0:
171,167,226367,2,0,P|237:163|287:171,1,107.999996704102,8|0,0:0|0:0,0:0:0:0:
406,96,226701,6,0,P|385:157|398:210,1,107.999996704102,4|0,1:2|1:0,0:0:0:0:
399,224,226951,1,0,0:0:0:0:
388,248,227034,2,0,P|357:300|296:322,1,107.999996704102,8|0,0:0|3:3,0:0:0:0:
110,357,227367,1,0,3:0:0:0:
131,308,227450,1,0,3:0:0:0:
130,254,227533,1,0,3:0:0:0:
107,206,227617,1,0,3:0:0:0:
65,172,227700,5,0,1:0:0:0:
78,149,227784,1,0,1:0:0:0:
98,130,227867,1,0,1:0:0:0:
122,120,227951,1,0,1:0:0:0:
152,118,228034,6,0,P|200:140|251:128,1,90,4|0,1:2|0:0,0:0:0:0:
334,151,228367,1,8,0:0:0:0:
214,47,228534,1,0,3:3:0:0:
214,47,228617,1,0,0:0:0:0:
214,47,228701,1,0,1:0:0:0:
374,173,228867,1,0,1:0:0:0:
236,209,229034,2,0,P|186:211|142:196,1,90,8|0,0:0|0:0,0:0:0:0:
374,173,229367,6,0,P|397:224|393:269,1,90,0|0,1:0|0:0,0:0:0:0:
304,338,229701,1,8,0:0:0:0:
287,204,229867,1,0,3:3:0:0:
287,204,229951,1,0,0:0:0:0:
287,204,230034,1,0,1:0:0:0:
356,366,230201,1,0,1:0:0:0:
158,288,230367,2,0,P|209:271|254:280,1,90,8|0,0:0|1:0,0:0:0:0:
262,289,230617,1,0,0:0:0:0:
283,295,230701,6,0,P|340:278|363:253,1,90,0|0,1:0|0:0,0:0:0:0:
433,183,231034,1,8,0:0:0:0:
287,204,231201,1,0,3:3:0:0:
287,204,231284,1,0,0:0:0:0:
287,204,231367,1,0,1:0:0:0:
462,230,231534,1,0,1:0:0:0:
375,84,231701,2,0,P|355:130|360:175,1,90,8|0,0:0|0:0,0:0:0:0:
382,329,232034,6,0,P|376:279|349:242,1,90,0|0,1:0|0:0,0:0:0:0:
237,179,232367,1,8,0:0:0:0:
297,317,232534,1,0,3:3:0:0:
297,317,232617,1,0,0:0:0:0:
297,317,232701,1,0,1:0:0:0:
272,134,232867,1,0,1:0:0:0:
152,283,233034,2,0,P|141:233|163:179,1,90,8|0,0:0|1:0,0:0:0:0:
395,203,233367,6,0,P|356:236|219:234,1,180,4|8,1:2|0:0,0:0:0:0:
138,110,233867,1,0,3:3:0:0:
138,110,233951,1,0,0:0:0:0:
138,110,234034,1,0,1:0:0:0:
211,281,234201,1,0,1:0:0:0:
328,131,234367,2,0,P|279:124|232:161,1,90,8|0,0:0|0:0,0:0:0:0:
278,246,234701,6,0,B|297:204|297:204|296:272|367:306|417:265,1,180,0|8,1:0|0:0,0:0:0:0:
422,197,235201,2,0,B|372:207|372:207|406:169|483:143,1,180,0|0,3:3|1:0,0:0:0:0:
438,343,235701,2,0,P|459:317|452:241,1,90,8|0,0:0|1:0,0:0:0:0:
430,88,236034,6,0,P|383:111|333:144,1,90,0|0,1:0|0:0,0:0:0:0:
282,73,236367,1,8,0:0:0:0:
380,214,236534,1,0,3:3:0:0:
380,214,236617,1,0,0:0:0:0:
380,214,236701,1,0,1:0:0:0:
317,27,236867,1,0,1:0:0:0:
279,232,237034,2,0,B|249:227|236:211|236:211|222:197|193:192,1,90,8|0,0:0|1:0,0:0:0:0:
84,150,237367,5,0,3:0:0:0:
178,273,237534,1,0,3:0:0:0:
150,123,237701,1,4,3:0:0:0:
294,162,237867,1,0,3:0:0:0:
129,289,238034,5,0,3:0:0:0:
106,286,238117,1,0,3:0:0:0:
85,277,238200,1,0,3:0:0:0:
67,264,238284,1,0,3:0:0:0:
53,244,238367,1,0,1:0:0:0:
54,221,238450,1,0,1:0:0:0:
56,199,238533,1,0,1:0:0:0:
57,176,238617,1,0,1:0:0:0:
58,152,238701,6,0,P|92:108|222:110,1,180,4|8,1:2|0:0,0:0:0:0:
281,215,239201,1,0,3:3:0:0:
281,215,239284,1,0,0:0:0:0:
281,215,239367,2,0,P|282:161|316:118,1,90,0|0,1:0|1:0,0:0:0:0:
379,254,239701,2,0,P|351:300|300:320,1,90,8|0,0:0|0:0,0:0:0:0:
190,353,240034,6,0,P|208:306|136:184,1,180,0|8,1:0|0:0,0:0:0:0:
35,135,240534,1,0,3:3:0:0:
35,135,240617,1,0,0:0:0:0:
35,135,240701,2,0,P|64:100|114:90,1,90,0|0,1:0|1:0,0:0:0:0:
315,101,241034,2,0,P|272:116|224:100,1,90,8|0,0:0|1:0,0:0:0:0:
97,242,241367,6,0,P|160:217|280:238,1,180,0|8,1:0|0:0,0:0:0:0:
375,315,241867,1,0,3:3:0:0:
375,315,241951,1,0,0:0:0:0:
375,315,242034,2,0,P|355:261|365:219,1,90,0|0,1:0|1:0,0:0:0:0:
493,97,242367,2,0,P|456:141|414:153,1,90,8|0,0:0|0:0,0:0:0:0:
242,108,242701,6,0,P|298:117|330:147,1,90,4|4,3:0|3:0,0:0:0:0:
347,200,242951,1,0,3:0:0:0:
347,200,243034,1,0,1:0:0:0:
245,290,243201,1,4,3:0:0:0:
241,267,243284,1,0,3:0:0:0:
235,246,243367,1,4,3:0:0:0:
226,225,243451,1,0,3:0:0:0:
212,208,243534,1,0,3:0:0:0:
192,197,243617,1,0,3:0:0:0:
172,187,243701,1,0,3:0:0:0:
157,170,243784,1,0,3:0:0:0:
147,150,243867,1,0,3:0:0:0:
141,129,243951,1,0,3:0:0:0:
137,106,244034,5,4,0:0:0:0:
229,119,245367,5,4,0:0:0:0:
146,282,245534,1,4,0:0:0:0:
141,121,246034,5,4,0:0:0:0:
232,300,246201,1,4,0:0:0:0:
332,165,246367,1,0,3:0:0:0:
326,164,246450,1,0,3:0:0:0:
320,163,246533,1,0,3:0:0:0:
315,162,246617,1,0,3:0:0:0:
310,162,246700,5,12,3:2:0:0:
237,123,246867,1,0,0:0:0:0:
326,93,247034,1,8,0:0:0:0:
245,193,247201,1,0,0:0:0:0:
374,141,247367,5,8,0:0:0:0:
195,84,247534,1,0,0:0:0:0:
363,205,247701,1,8,0:0:0:0:
241,39,247867,1,0,0:0:0:0:
265,259,248034,5,8,0:0:0:0:
180,24,248201,1,8,0:0:0:0:
381,241,248367,1,8,0:0:0:0:
110,238,248534,1,8,0:0:0:0:
296,314,248701,1,8,3:2:0:0:
284,294,248784,1,0,3:2:0:0:
276,273,248867,1,8,3:2:0:0:
271,251,248951,1,0,3:2:0:0:
269,229,249034,1,8,3:2:0:0:
270,206,249117,1,0,3:2:0:0:
274,184,249201,1,8,3:2:0:0:
281,163,249284,1,0,3:2:0:0:
293,141,249367,6,0,P|325:142|350:130,1,53.9999983520508,6|0,1:2|0:0,0:0:0:0:
183,107,250034,2,0,P|151:106|126:118,1,53.9999983520508,0|2,0:0|0:0,0:0:0:0:
210,292,250701,2,0,P|224:263|222:181,1,107.999996704102,2|2,0:0|0:0,0:0:0:0:
224,188,251701,1,0,0:0:0:0:
333,290,252034,6,0,P|348:300|390:304,1,53.9999983520508,2|0,0:0|0:0,0:0:0:0:
224,279,252701,2,0,P|206:277|167:295,1,53.9999983520508,0|2,0:0|0:0,0:0:0:0:
269,114,253367,2,0,P|294:157|283:219,1,107.999996704102,2|2,0:0|0:0,0:0:0:0:
287,214,254367,1,0,0:0:0:0:
224,304,254701,6,0,B|256:320|256:320|288:304,1,72,2|2,0:0|0:0,0:0:0:0:
256,64,257367,6,0,L|256:32,2,22.5,2|0|0,0:0|0:0|0:0,0:0:0:0:
256,144,257701,2,0,L|256:208,1,45,0|0,0:0|0:0,0:0:0:0:
256,336,258201,5,0,0:0:0:0:
256,192,258284,12,0,262701,0:0:0:0:
