osu file format v14

[General]
AudioFilename: audio.mp3
AudioLeadIn: 0
PreviewTime: 55972
Countdown: 0
SampleSet: Soft
StackLeniency: 0.7
Mode: 0
LetterboxInBreaks: 0
WidescreenStoryboard: 1

[Editor]
DistanceSpacing: 1
BeatDivisor: 4
GridSize: 4
TimelineZoom: 2.4

[Metadata]
Title:Prima Stella
TitleUnicode:プリマステラ
Artist:Kano
ArtistUnicode:鹿乃
Creator:KuranteMelodii
Version:Forest's Easy
Source:
Tags:nowhere samfree ゆうゆ Yuuyu [-AKiTOSHi-] Akitoshi Underforest 7ka -Nanaka- [_-Scarlet-_] Scarlet Del05 SnowNiNo_
BeatmapID:953469
BeatmapSetID:443014

[Difficulty]
HPDrainRate:2
CircleSize:2.7
OverallDifficulty:2
ApproachRate:3
SliderMultiplier:0.899999999999999
SliderTickRate:1

[Events]
//Background and Video events
0,0,"wow.png",0,0
Video,-120,"primastella.avi"
//Break Periods
2,24034,33222
2,125567,126534
2,196034,205262
//Storyboard Layer 0 (Background)
//Storyboard Layer 1 (Fail)
//Storyboard Layer 2 (Pass)
//Storyboard Layer 3 (Foreground)
//Storyboard Sound Samples

[TimingPoints]
1368,333.333333333333,4,2,1,50,1,0
6701,-100,4,2,1,60,0,0
12034,-100,4,2,1,70,0,0
17701,-100,4,2,2,70,0,0
17867,-100,4,2,1,70,0,0
19034,-100,4,2,2,70,0,0
19201,-100,4,2,1,70,0,0
21034,-100,4,2,2,70,0,0
22701,-100,4,2,2,50,0,0
24034,-100,4,2,1,40,0,0
34701,-100,4,2,1,70,0,0
35034,-100,4,2,2,70,0,0
35367,-100,4,2,1,70,0,0
37701,-100,4,2,2,70,0,0
38034,-100,4,2,1,70,0,0
44367,-100,4,2,2,70,0,0
44534,-100,4,2,1,70,0,0
53701,-100,4,2,2,70,0,0
54034,-100,4,2,1,70,0,0
54367,-100,4,2,2,70,0,0
54701,-100,4,2,1,70,0,0
56034,-100,4,2,1,70,0,1
64367,-100,4,2,2,70,0,1
64701,-100,4,2,1,70,0,1
65034,-100,4,2,2,70,0,1
65367,-100,4,2,1,70,0,1
66617,-100,4,2,1,70,0,0
66701,-100,4,2,1,70,0,1
75034,-100,4,2,2,70,0,1
75367,-100,4,2,3,70,0,1
75701,-100,4,2,1,70,0,1
76367,-100,4,2,2,70,0,1
76701,-100,4,2,3,70,0,1
77034,-100,4,2,1,70,0,1
77367,-100,4,2,2,70,0,0
77867,-100,4,2,1,70,0,0
78867,-100,4,2,2,70,0,0
79201,-100,4,2,1,70,0,0
80367,-100,4,2,2,70,0,0
80701,-100,4,2,1,70,0,0
93701,-100,4,2,2,70,0,0
93867,-100,4,2,1,70,0,0
95034,-100,4,2,2,70,0,0
95201,-100,4,2,1,70,0,0
109701,-100,4,2,2,70,0,0
110034,-100,4,2,1,70,0,0
112367,-100,4,2,2,70,0,0
112701,-100,4,2,1,70,0,0
130701,-100,4,2,1,70,0,1
139034,-100,4,2,2,70,0,1
139367,-100,4,2,1,70,0,1
139701,-100,4,2,2,70,0,1
140034,-100,4,2,1,70,0,1
141284,-100,4,2,1,70,0,0
141367,-100,4,2,1,70,0,1
149701,-100,4,2,2,70,0,1
150034,-100,4,2,3,70,0,1
150367,-100,4,2,1,70,0,1
151034,-100,4,2,2,70,0,1
151367,-100,4,2,3,70,0,1
151701,-100,4,2,1,70,0,1
152034,-100,4,2,1,70,0,0
152367,-100,4,2,2,70,0,0
152534,-100,4,2,1,70,0,0
153701,-100,4,2,2,70,0,0
153867,-100,4,2,1,70,0,0
155034,-100,4,2,2,70,0,0
155367,-100,4,2,1,70,0,0
172367,-100,4,2,2,70,0,0
172534,-100,4,2,1,70,0,0
173034,-100,4,2,1,70,0,0
176367,-100,4,2,2,70,0,0
176534,-100,4,2,1,70,0,0
177701,-100,4,2,2,70,0,0
177867,-100,4,2,1,70,0,0
185701,-100,4,2,2,70,0,0
186034,-100,4,2,1,70,0,0
193367,-100,4,2,1,40,0,0
193451,-100,4,2,1,20,0,0
194701,-100,4,2,1,5,0,0
196034,-100,4,2,1,60,0,0
206701,-100,4,2,1,70,0,0
217367,-100,4,2,1,70,0,1
225701,-100,4,2,2,70,0,1
226034,-100,4,2,1,70,0,1
226367,-100,4,2,2,70,0,1
226701,-100,4,2,1,70,0,1
236367,-100,4,2,2,70,0,1
236701,-100,4,2,3,70,0,1
237034,-100,4,2,1,70,0,1
237367,-100,4,2,1,70,0,1
237701,-100,4,2,2,70,0,1
238034,-100,4,2,3,70,0,1
238367,-100,4,2,1,70,0,1
238701,-100,4,2,1,70,0,0
240367,-100,4,2,2,70,0,0
240534,-100,4,2,1,70,0,0
241701,-100,4,2,2,70,0,0
241867,-100,4,2,1,70,0,0
249367,-100,4,2,1,50,0,0
254701,-100,4,2,1,45,0,0
256034,-100,4,2,4,45,0,0
256367,-100,4,2,1,45,0,0
257367,-100,4,2,1,40,0,0
257701,-100,4,2,1,35,0,0
258034,-100,4,2,1,30,0,0
258367,-100,4,2,1,25,0,0
258701,-100,4,2,1,20,0,0
259034,-100,4,2,1,15,0,0
259367,-100,4,2,1,10,0,0
259701,-100,4,2,1,7,0,0
260034,-100,4,2,1,5,0,0

[Colours]
Combo1 : 45,255,45
Combo2 : 0,64,128
Combo3 : 106,106,255
Combo4 : 168,12,243
Combo5 : 255,47,255
Combo6 : 0,128,0

[HitObjects]
48,52,1369,6,0,L|196:52,1,135,2|0,0:0|0:0,0:0:0:0:
284,128,2368,1,2,0:0:0:0:
308,40,2702,2,0,P|368:96|348:192,1,180,2|2,0:0|0:0,0:0:0:0:
468,324,4035,2,0,L|328:336,1,135,2|0,0:0|0:0,0:0:0:0:
212,280,5035,1,2,0:0:0:0:
124,300,5368,2,0,B|144:208|144:208|120:128|120:128|156:32,1,270,2|0,0:0|0:0,0:0:0:0:
240,48,6702,6,0,L|432:60,1,180,4|8,0:0|3:0,0:0:0:0:
512,224,8035,2,0,L|324:212,1,180,8|8,2:0|3:0,0:0:0:0:
176,288,9368,2,0,L|184:184,1,89.9999999999999,2|0,0:0|0:0,0:0:0:0:
96,176,10035,2,0,L|88:84,1,89.9999999999999,2|0,0:0|0:0,0:0:0:0:
176,64,10702,2,0,P|256:28|336:68,1,180,2|2,0:0|0:0,0:0:0:0:
368,240,12035,6,0,L|480:240,2,89.9999999999999,4|8|0,0:0|0:0|1:0,0:0:0:0:
288,288,13035,1,8,0:0:0:0:
208,320,13368,2,0,P|164:328|116:316,1,89.9999999999999,0|8,1:0|0:0,0:0:0:0:
144,224,14035,2,0,P|92:216|44:236,1,89.9999999999999,0|8,1:0|0:0,0:0:0:0:
32,144,14702,6,0,L|32:12,1,89.9999999999999,0|8,1:0|0:0,0:0:0:0:
118,30,15368,2,0,L|118:134,1,89.9999999999999,0|8,1:0|0:0,0:0:0:0:
208,118,16035,1,0,1:0:0:0:
255,194,16368,1,8,0:0:0:0:
301,116,16702,2,0,P|349:116|413:140,1,89.9999999999999,0|8,0:0|0:0,0:0:0:0:
376,216,17368,6,0,L|516:216,2,135,0|0|8,1:0|0:0|0:0,0:0:0:0:
350,302,18702,2,0,L|186:302,2,135,0|0|8,1:0|0:0|0:0,0:0:0:0:
376,216,20035,2,0,L|392:124,1,89.9999999999999,0|8,1:0|0:0,0:0:0:0:
464,73,20702,2,0,P|376:93|272:57,1,180,0|2,1:0|0:0,0:0:0:0:
256,192,21452,12,6,22702,0:0:0:0:
12,195,34702,6,0,P|36:107|8:23,1,180,4|0,0:0|1:0,0:0:0:0:
99,15,35702,1,8,0:0:0:0:
184,41,36035,2,0,L|284:53,1,89.9999999999999,0|8,1:0|0:0,0:0:0:0:
315,131,36702,2,0,L|211:147,1,89.9999999999999,2|8,0:0|0:0,0:0:0:0:
245,232,37368,6,0,L|449:200,1,180,0|0,1:0|1:0,0:0:0:0:
461,285,38368,1,8,0:0:0:0:
387,337,38702,2,0,B|327:337|295:377|295:377|283:357|255:361,1,135,0|2,1:0|0:0,0:0:0:0:
135,342,39702,1,8,0:0:0:0:
52,307,40035,6,0,B|36:263|36:263|52:199,1,89.9999999999999,4|8,0:0|0:0,0:0:0:0:
135,219,40702,2,0,B|147:175|147:175|135:127,1,89.9999999999999,0|8,1:0|0:0,0:0:0:0:
67,74,41368,2,0,P|123:42|167:46,2,89.9999999999999,0|8|0,1:0|0:0|1:0,0:0:0:0:
136,131,42368,1,8,0:0:0:0:
225,143,42702,6,0,L|317:143,1,89.9999999999999,0|8,1:0|0:0,0:0:0:0:
344,228,43368,2,0,L|238:229,1,89.9999999999999,0|8,1:0|0:0,0:0:0:0:
238,317,44035,2,0,B|170:329|170:329|94:325,2,135,0|0|8,1:0|1:0|0:0,0:0:0:0:
327,328,45368,6,0,P|471:316|451:208,1,270,6|6,0:0|0:0,0:0:0:0:
407,51,47035,2,0,L|499:7,2,89.9999999999999,8|0|8,0:0|1:0|0:0,0:0:0:0:
318,68,48035,2,0,P|222:36|194:176,1,270,6|6,0:0|0:0,0:0:0:0:
107,330,49702,2,0,L|7:302,2,89.9999999999999,8|0|8,0:0|1:0|0:0,0:0:0:0:
191,297,50702,6,0,P|239:273|295:277,1,89.9999999999999,0|8,1:0|0:0,0:0:0:0:
258,360,51368,2,0,P|294:356|346:320,1,89.9999999999999,0|8,1:0|0:0,0:0:0:0:
426,351,52035,2,0,P|438:299|442:255,1,89.9999999999999,0|8,1:0|0:0,0:0:0:0:
386,191,52702,2,0,P|388:138|396:82,1,89.9999999999999,0|8,1:0|0:0,0:0:0:0:
316,56,53368,2,0,P|232:40|124:60,2,180,4|0|2,0:0|1:0|0:0,0:0:0:0:
316,56,56035,6,0,L|320:160,1,89.9999999999999,4|8,0:0|0:0,0:0:0:0:
408,144,56702,2,0,L|400:256,1,89.9999999999999,0|8,1:0|0:0,0:0:0:0:
396,324,57368,2,0,P|351:316|306:312,1,89.9999999999999,0|8,1:0|0:0,0:0:0:0:
216,314,58035,2,0,P|171:318|128:328,1,89.9999999999999,0|8,1:0|0:0,0:0:0:0:
44,292,58702,6,0,L|44:412,2,89.9999999999999,0|8|0,1:0|0:0|1:0,0:0:0:0:
120,240,59702,1,8,0:0:0:0:
176,172,60035,2,0,P|219:183|264:187,1,89.9999999999999,0|8,1:0|0:0,0:0:0:0:
352,160,60702,2,0,L|347:70,1,89.9999999999999,0|8,1:0|0:0,0:0:0:0:
432,96,61368,6,0,L|428:6,2,89.9999999999999,4|8|0,0:0|0:0|1:0,0:0:0:0:
444,184,62368,1,8,0:0:0:0:
508,248,62702,2,0,P|488:264|411:270,1,89.9999999999999,0|8,1:0|0:0,0:0:0:0:
432,364,63368,2,0,P|368:344|336:308,1,89.9999999999999,0|8,1:0|0:0,0:0:0:0:
264,340,64035,6,0,L|64:348,2,180,0|0|4,1:0|0:0|0:0,0:0:0:0:
292,252,65702,1,8,3:0:0:0:
224,192,66035,1,8,3:0:0:0:
292,132,66368,1,8,3:0:0:0:
212,88,66702,6,0,P|169:73|107:68,1,89.9999999999999,4|8,0:0|0:0,0:0:0:0:
44,108,67368,2,0,L|53:214,1,89.9999999999999,0|8,1:0|0:0,0:0:0:0:
128,244,68035,2,0,P|171:233|216:228,1,89.9999999999999,0|8,1:0|0:0,0:0:0:0:
304,208,68702,2,0,L|314:308,1,89.9999999999999,0|8,1:0|0:0,0:0:0:0:
404,300,69368,6,0,P|448:296|484:240,1,89.9999999999999,0|8,1:0|0:0,0:0:0:0:
408,208,70035,1,0,1:0:0:0:
408,120,70368,2,0,L|516:128,2,89.9999999999999,8|0|8,0:0|1:0|0:0,0:0:0:0:
320,100,71368,1,0,1:0:0:0:
228,100,71702,6,0,L|136:88,2,89.9999999999999,8|4|8,0:0|0:0|0:0,0:0:0:0:
196,184,72702,1,0,1:0:0:0:
276,224,73035,2,0,L|384:224,2,89.9999999999999,8|0|8,0:0|1:0|0:0,0:0:0:0:
292,312,74035,2,0,L|412:312,1,89.9999999999999,0|8,1:0|0:0,0:0:0:0:
468,332,74702,6,0,B|484:236|484:236|464:172|464:172|488:68,1,270,2|8,0:0|0:0,0:0:0:0:
396,76,76035,2,0,B|316:76|288:8|288:8|264:76|176:76,1,270,2|8,0:0|0:0,0:0:0:0:
232,152,77368,6,0,P|296:180|352:152,2,135,4|0|8,0:0|1:0|0:0,0:0:0:0:
172,216,78702,2,0,P|196:288|160:352,2,135,0|0|8,1:0|1:0|0:0,0:0:0:0:
112,280,80035,2,0,L|332:280,1,180,0|0,1:0|1:0,0:0:0:0:
372,320,81035,1,8,0:0:0:0:
448,272,81368,2,0,L|468:164,1,89.9999999999999,0|8,1:0|0:0,0:0:0:0:
380,156,82035,2,0,L|372:36,1,89.9999999999999,0|8,1:0|0:0,0:0:0:0:
284,52,82702,5,6,0:0:0:0:
284,52,84035,1,2,0:0:0:0:
128,144,84702,2,0,L|128:240,1,89.9999999999999,2|2,0:0|0:0,0:0:0:0:
256,192,85368,12,6,88035,0:0:0:0:
314,64,89368,6,0,P|358:57|406:70,1,89.9999999999999,0|8,1:0|0:0,0:0:0:0:
368,153,90035,2,0,P|420:162|468:143,1,89.9999999999999,0|8,1:0|0:0,0:0:0:0:
483,239,90702,6,0,L|480:371,1,89.9999999999999,0|8,1:0|0:0,0:0:0:0:
393,350,91368,2,0,L|395:246,1,89.9999999999999,0|8,1:0|0:0,0:0:0:0:
302,256,92035,1,0,1:0:0:0:
252,183,92368,1,8,0:0:0:0:
210,263,92702,2,0,P|162:262|99:237,1,89.9999999999999,4|8,0:0|0:0,0:0:0:0:
136,161,93368,6,0,L|-3:159,2,135,4|4|8,1:0|0:0|0:0,0:0:0:0:
162,74,94702,2,0,L|326:77,2,135,0|0|8,1:0|0:0|0:0,0:0:0:0:
136,161,96035,2,0,L|118:253,1,89.9999999999999,0|12,1:0|0:0,0:0:0:0:
60,320,96702,2,0,P|108:336|176:320,1,89.9999999999999,0|8,1:0|0:0,0:0:0:0:
224,284,97368,2,0,B|280:332|360:296|360:296|416:332|488:284,1,270,2|0,0:0|0:0,0:0:0:0:
453,203,98702,6,0,B|465:147|465:147|443:94|443:94|470:34,1,180,4|2,0:0|0:0,0:0:0:0:
289,33,100035,2,0,B|262:93|262:93|284:146|284:146|272:202,1,180,0|2,0:0|0:0,0:0:0:0:
123,286,101368,2,0,P|48:252|99:198,2,180,0|2|0,0:0|0:0|0:0,0:0:0:0:
299,324,103368,1,2,0:0:0:0:
384,353,103702,1,0,0:0:0:0:
465,315,104035,6,0,L|437:106,1,180,0|2,0:0|0:0,0:0:0:0:
288,40,105368,2,0,L|265:237,1,180,0|2,0:0|0:0,0:0:0:0:
197,276,106368,1,0,0:0:0:0:
167,361,106702,2,0,L|262:376,1,89.9999999999999,2|0,0:0|0:0,0:0:0:0:
308,302,107368,2,0,L|422:291,1,89.9999999999999
377,205,108035,1,2,0:0:0:0:
377,205,109368,6,0,P|459:199|511:274,1,180,4|0,0:0|1:0,0:0:0:0:
421,285,110368,1,8,0:0:0:0:
345,334,110701,2,0,L|245:322,1,89.9999999999999,0|2,1:0|0:0,0:0:0:0:
208,246,111368,2,0,L|299:230,1,89.9999999999999,2|8,0:0|0:0,0:0:0:0:
319,143,112035,6,0,L|115:175,1,180,0|0,1:0|1:0,0:0:0:0:
74,110,113034,1,8,0:0:0:0:
129,38,113368,2,0,B|189:38|221:-2|221:-2|233:18|261:14,1,135,0|2,1:0|0:0,0:0:0:0:
378,39,114368,1,8,0:0:0:0:
459,77,114701,6,0,B|475:121|475:121|459:185,1,89.9999999999999,4|8,0:0|0:0,0:0:0:0:
369,159,115368,2,0,B|357:203|357:203|369:251,1,89.9999999999999,0|8,1:0|0:0,0:0:0:0:
437,303,116035,2,0,P|381:335|337:331,2,89.9999999999999,0|8|0,1:0|0:0|1:0,0:0:0:0:
367,246,117034,1,8,0:0:0:0:
277,238,117368,6,0,L|185:238,1,89.9999999999999,0|8,1:0|0:0,0:0:0:0:
158,152,118034,2,0,L|262:152,1,89.9999999999999,0|8,1:0|0:0,0:0:0:0:
261,64,118701,2,0,B|329:52|329:52|405:56,2,135,0|0|8,1:0|1:0|0:0,0:0:0:0:
171,69,120035,6,0,P|31:105|51:213,1,270,6|6,0:0|0:0,0:0:0:0:
167,333,121701,2,0,L|75:377,2,89.9999999999999,8|0|8,0:0|1:0|0:0,0:0:0:0:
252,303,122701,2,0,P|348:335|376:195,1,270,6|6,0:0|0:0,0:0:0:0:
405,23,124368,2,0,L|505:51,2,89.9999999999999,8|0|8,0:0|1:0|0:0,0:0:0:0:
317,43,125367,5,2,0:0:0:0:
224,364,128034,6,0,P|308:380|416:360,2,180,4|0|2,0:0|1:0|0:0,0:0:0:0:
249,275,129702,1,2,0:0:0:0:
319,219,130035,1,2,0:0:0:0:
251,160,130368,1,0,3:0:0:0:
162,176,130701,6,0,L|158:72,1,89.9999999999999,4|8,0:0|0:0,0:0:0:0:
232,35,131368,2,0,P|273:36|343:40,1,89.9999999999999,0|8,1:0|0:0,0:0:0:0:
385,102,132034,2,0,P|429:109|474:113,1,89.9999999999999,0|8,1:0|0:0,0:0:0:0:
508,196,132701,2,0,P|463:199|419:210,1,89.9999999999999,0|8,1:0|0:0,0:0:0:0:
341,255,133368,6,0,L|341:355,2,89.9999999999999,0|8|0,1:0|0:0|1:0,0:0:0:0:
328,165,134368,1,8,0:0:0:0:
238,171,134701,2,0,P|196:154|149:155,1,89.9999999999999,0|8,1:0|0:0,0:0:0:0:
183,238,135368,2,0,L|187:327,1,89.9999999999999,0|8,1:0|0:0,0:0:0:0:
104,291,136035,6,0,L|107:380,2,89.9999999999999,4|8|0,0:0|0:0|1:0,0:0:0:0:
66,209,137034,1,8,0:0:0:0:
4,142,137368,2,0,P|24:126|101:120,1,89.9999999999999,0|8,1:0|0:0,0:0:0:0:
79,25,138034,2,0,P|143:45|175:81,1,89.9999999999999,0|8,1:0|0:0,0:0:0:0:
247,41,138701,6,0,L|447:33,2,180,0|0|4,1:0|0:0|0:0,0:0:0:0:
219,127,140368,1,8,3:0:0:0:
284,189,140701,1,8,3:0:0:0:
217,249,141034,1,8,3:0:0:0:
296,291,141368,6,0,P|339:306|401:311,1,89.9999999999999,4|8,0:0|0:0,0:0:0:0:
465,275,142034,2,0,L|456:169,1,89.9999999999999,0|8,1:0|0:0,0:0:0:0:
379,140,142701,2,0,P|336:151|291:156,1,89.9999999999999,0|8,1:0|0:0,0:0:0:0:
202,174,143368,2,0,L|192:74,1,89.9999999999999,0|8,1:0|0:0,0:0:0:0:
103,86,144034,6,0,P|59:90|23:146,1,89.9999999999999,0|8,1:0|0:0,0:0:0:0:
100,175,144701,1,0,1:0:0:0:
103,265,145035,2,0,L|-5:257,2,89.9999999999999,8|0|8,0:0|1:0|0:0,0:0:0:0:
190,285,146034,1,0,1:0:0:0:
280,284,146368,6,0,L|372:296,2,89.9999999999999,8|4|8,0:0|0:0|0:0,0:0:0:0:
313,200,147368,1,0,1:0:0:0:
232,159,147701,2,0,L|124:159,2,89.9999999999999,8|0|8,0:0|1:0|0:0,0:0:0:0:
217,69,148701,2,0,L|97:69,1,89.9999999999999,0|8,1:0|0:0,0:0:0:0:
38,51,149368,6,0,B|22:147|22:147|42:211|42:211|18:315,1,270,2|8,0:0|0:0,0:0:0:0:
108,309,150701,2,0,B|188:309|216:377|216:377|240:309|328:309,1,270,2|8,0:0|0:0,0:0:0:0:
276,230,152035,6,0,P|212:202|156:230,2,135,4|0|8,0:0|1:0|0:0,0:0:0:0:
339,165,153368,2,0,P|315:93|351:29,2,135,0|0|8,1:0|1:0|0:0,0:0:0:0:
402,100,154701,2,0,L|182:100,1,180,0|0,1:0|1:0,0:0:0:0:
139,63,155701,1,8,0:0:0:0:
62,110,156034,2,0,L|42:218,1,89.9999999999999,0|8,1:0|0:0,0:0:0:0:
130,227,156701,2,0,L|138:347,1,89.9999999999999,0|8,1:0|0:0,0:0:0:0:
215,359,157368,5,6,0:0:0:0:
215,359,158701,1,2,0:0:0:0:
361,254,159368,2,0,L|361:158,1,89.9999999999999,2|2,0:0|0:0,0:0:0:0:
349,74,160035,6,0,P|209:42|73:82,1,270,4|4,0:0|0:0,0:0:0:0:
54,156,161368,2,0,P|26:224|54:352,1,180,4|4,0:0|0:0,0:0:0:0:
127,349,162368,1,2,0:0:0:0:
214,327,162702,2,0,L|418:315,1,180,2|2,0:0|0:0,0:0:0:0:
463,150,164035,2,0,L|255:166,1,180,2|0,0:0|0:0,0:0:0:0:
205,119,165035,1,2,0:0:0:0:
119,90,165368,6,0,B|71:218|71:218|103:358,1,270,4|8,0:0|3:0,0:0:0:0:
188,327,166702,2,0,B|320:367|320:367|464:323,1,270,2|8,0:0|3:0,0:0:0:0:
256,192,168035,12,4,170702,0:0:0:0:
72,100,172035,6,0,B|136:72|136:140|224:92,2,135,0|0|8,1:0|1:0|0:0,0:0:0:0:
52,188,173368,2,0,L|52:316,1,89.9999999999999,0|8,1:0|0:0,0:0:0:0:
124,332,174035,2,0,P|172:344|228:320,1,89.9999999999999,0|8,1:0|0:0,0:0:0:0:
288,284,174702,2,0,L|288:176,1,89.9999999999999,0|8,1:0|0:0,0:0:0:0:
256,112,175368,2,0,P|300:104|352:128,1,89.9999999999999,0|8,1:0|0:0,0:0:0:0:
428,152,176035,6,0,L|428:8,2,135,0|0|8,1:0|1:0|0:0,0:0:0:0:
484,220,177368,2,0,L|484:388,2,135,0|0|8,1:0|1:0|0:0,0:0:0:0:
400,232,178702,2,0,L|304:240,1,89.9999999999999,0|8,1:0|0:0,0:0:0:0:
296,328,179368,2,0,L|184:316,1,89.9999999999999,0|8,1:0|0:0,0:0:0:0:
136,372,180035,2,0,P|120:296|228:232,1,180,0|8,1:0|0:0,0:0:0:0:
348,144,181368,6,0,L|344:54,1,89.9999999999999,4|8,0:0|0:0,0:0:0:0:
436,60,182035,2,0,L|436:172,1,89.9999999999999,0|8,1:0|0:0,0:0:0:0:
476,228,182701,2,0,P|432:236|386:216,1,89.9999999999999,0|8,1:0|0:0,0:0:0:0:
344,296,183368,2,0,P|296:288|252:304,1,89.9999999999999,0|8,1:0|0:0,0:0:0:0:
168,292,184035,6,0,L|168:412,2,89.9999999999999,0|8|0,1:0|0:0|1:0,0:0:0:0:
112,220,185035,1,8,0:0:0:0:
184,164,185368,2,0,P|272:192|336:136,1,180,0|2,1:0|0:0,0:0:0:0:
252,104,186368,1,0,0:0:0:0:
324,48,186702,6,0,L|480:44,2,135,4|4|4,0:0|0:0|0:0,0:0:0:0:
192,24,188202,2,0,P|126:36|40:20,1,135,2|2,0:0|0:0,0:0:0:0:
36,112,189035,1,2,3:0:0:0:
119,144,189368,6,0,L|233:161,1,89.9999999999999,0|8,1:0|3:0,0:0:0:0:
229,244,190035,2,0,L|109:226,1,89.9999999999999,0|8,1:0|3:0,0:0:0:0:
133,320,190702,2,0,P|81:324|-15:300,2,135,2|2|2,0:0|0:0|0:0,0:0:0:0:
214,358,192035,2,0,L|332:370,1,89.9999999999999,2|8,0:0|3:0,0:0:0:0:
344,286,192702,2,0,L|242:274,1,89.9999999999999,0|8,2:0|3:0,0:0:0:0:
179,226,193367,2,0,B|118:206|39:235|39:235|130:146|27:101|102:22,1,360,2|0,0:0|0:0,0:0:0:0:
96,68,206702,6,0,P|148:60|220:68,1,89.9999999999999,4|8,0:0|0:0,0:0:0:0:
272,84,207368,2,0,P|316:96|364:92,1,89.9999999999999,0|8,1:0|0:0,0:0:0:0:
420,160,208035,2,0,P|432:208|424:272,1,89.9999999999999,0|8,1:0|0:0,0:0:0:0:
364,308,208702,2,0,P|312:300|256:308,1,89.9999999999999,0|8,1:0|0:0,0:0:0:0:
196,264,209368,6,0,L|196:152,2,89.9999999999999,0|8|0,1:0|0:0|1:0,0:0:0:0:
152,344,210368,1,8,0:0:0:0:
64,324,210702,2,0,L|80:232,1,89.9999999999999,0|8,1:0|0:0,0:0:0:0:
60,148,211368,2,0,L|48:32,1,89.9999999999999,0|8,1:0|0:0,0:0:0:0:
140,56,212035,6,0,B|192:32|248:68|248:68|328:36,1,180,4|2,0:0|0:0,0:0:0:0:
436,172,213368,2,0,B|384:196|328:160|328:160|248:192,1,180,4|2,0:0|0:0,0:0:0:0:
272,276,214368,1,2,0:0:0:0:
188,308,214702,2,0,P|92:320|176:164,1,360,2|4,0:0|0:0,0:0:0:0:
296,256,216702,1,8,3:0:0:0:
384,240,217035,1,8,3:0:0:0:
468,212,217368,6,0,L|464:108,1,89.9999999999999,4|8,0:0|0:0,0:0:0:0:
376,132,218035,2,0,L|384:20,1,89.9999999999999,0|8,1:0|0:0,0:0:0:0:
292,60,218701,2,0,P|247:55|202:48,1,89.9999999999999,0|8,1:0|0:0,0:0:0:0:
164,128,219368,2,0,P|119:124|76:114,1,89.9999999999999,0|8,1:0|0:0,0:0:0:0:
40,196,220035,6,0,L|40:286,2,89.9999999999999,0|8|0,1:0|0:0|1:0,0:0:0:0:
75,113,221035,1,8,0:0:0:0:
164,128,221368,2,0,P|212:124|252:140,1,89.9999999999999,0|8,1:0|0:0,0:0:0:0:
200,214,222035,2,0,L|205:304,1,89.9999999999999,0|8,1:0|0:0,0:0:0:0:
293,291,222701,6,0,L|297:381,2,89.9999999999999,4|8|0,0:0|0:0|1:0,0:0:0:0:
359,229,223701,1,8,0:0:0:0:
404,152,224035,2,0,L|501:130,1,89.9999999999999,0|8,1:0|0:0,0:0:0:0:
484,44,224701,2,0,L|372:64,1,89.9999999999999,0|8,1:0|0:0,0:0:0:0:
316,104,225368,6,0,L|136:72,2,180,0|0|4,1:0|1:0|0:0,0:0:0:0:
284,188,227035,1,8,3:0:0:0:
196,204,227368,1,8,3:0:0:0:
208,292,227701,1,8,3:0:0:0:
296,276,228035,6,0,P|339:291|401:296,1,89.9999999999999,4|8,0:0|0:0,0:0:0:0:
472,280,228701,2,0,L|463:174,1,89.9999999999999,0|8,1:0|0:0,0:0:0:0:
444,104,229368,2,0,P|401:115|356:120,1,89.9999999999999,0|8,1:0|0:0,0:0:0:0:
272,152,230035,2,0,L|262:52,1,89.9999999999999,0|8,1:0|0:0,0:0:0:0:
172,72,230701,6,0,P|128:76|92:132,1,89.9999999999999,0|8,1:0|0:0,0:0:0:0:
166,165,231368,1,0,1:0:0:0:
121,243,231701,2,0,L|13:235,2,89.9999999999999,8|0|8,0:0|1:0|0:0,0:0:0:0:
190,300,232701,1,0,1:0:0:0:
279,293,233035,6,0,L|371:305,2,89.9999999999999,8|4|8,0:0|0:0|0:0,0:0:0:0:
308,212,234035,1,0,1:0:0:0:
232,168,234368,2,0,L|124:168,2,89.9999999999999,8|0|8,0:0|1:0|0:0,0:0:0:0:
252,80,235368,2,0,L|342:80,1,89.9999999999999,0|8,1:0|0:0,0:0:0:0:
408,16,236035,2,0,B|464:100|388:164|388:164|460:284,1,270,0|8,1:0|0:0,0:0:0:0:
404,332,237368,2,0,B|332:356|332:356|236:332|236:332|140:360,1,270,8|8,3:0|0:0,0:0:0:0:
76,300,238701,6,0,P|104:240|88:156,1,135,4|8,0:0|0:0,0:0:0:0:
132,44,239702,1,8,0:0:0:0:
220,44,240035,2,0,P|280:24|356:52,2,135,0|0|8,1:0|1:0|0:0,0:0:0:0:
280,108,241368,2,0,B|352:152|424:96,1,135,0|0,1:0|1:0,0:0:0:0:
504,200,242368,1,8,0:0:0:0:
416,224,242701,2,0,L|396:332,1,89.9999999999999,0|8,1:0|0:0,0:0:0:0:
316,284,243368,2,0,L|324:404,1,89.9999999999999,0|8,1:0|0:0,0:0:0:0:
232,376,244035,5,6,0:0:0:0:
232,376,245368,1,2,0:0:0:0:
64,308,246035,2,0,L|64:212,1,89.9999999999999,2|2,0:0|0:0,0:0:0:0:
72,128,246702,2,0,P|192:80|312:148,1,270,2|2,0:0|0:0,0:0:0:0:
236,196,248035,2,0,P|348:228|396:160,1,180,2|2,0:0|0:0,0:0:0:0:
468,352,249368,6,0,L|320:352,1,135,2|0,0:0|0:0,0:0:0:0:
216,284,250367,1,2,0:0:0:0:
188,372,250701,2,0,P|128:316|148:220,1,180,2|2,0:0|0:0,0:0:0:0:
68,64,252035,2,0,L|208:52,1,135,2|0,0:0|0:0,0:0:0:0:
316,124,253034,1,2,0:0:0:0:
404,116,253368,2,0,B|396:184|396:184|408:232|408:232|392:320,1,180,2|0,0:0|0:0,0:0:0:0:
222,339,254702,38,0,B|204:253|314:175|286:107|169:12|110:145|110:145|-14:90|-56:210|-18:287|97:289|101:321,1,719.999999999999,2|2,0:0|0:0,0:0:0:0:
256,192,257452,12,0,260035,0:0:0:0:
