osu file format v14

[General]
AudioFilename: audio.mp3
AudioLeadIn: 0
PreviewTime: 55972
Countdown: 0
SampleSet: Soft
StackLeniency: 0.7
Mode: 0
LetterboxInBreaks: 0
WidescreenStoryboard: 1

[Editor]
DistanceSpacing: 1.3
BeatDivisor: 4
GridSize: 4
TimelineZoom: 1.9

[Metadata]
Title:Prima Stella
TitleUnicode:プリマステラ
Artist:Kano
ArtistUnicode:鹿乃
Creator:KuranteMelodii
Version:Del's Hard
Source:
Tags:nowhere samfree ゆうゆ Yuuyu [-AKiTOSHi-] Akitoshi Underforest 7ka -Nanaka- [_-Scarlet-_] Scarlet Del05 SnowNiNo_
BeatmapID:983044
BeatmapSetID:443014

[Difficulty]
HPDrainRate:5
CircleSize:4
OverallDifficulty:6
ApproachRate:7
SliderMultiplier:1.4
SliderTickRate:1

[Events]
//Background and Video events
0,0,"wow.png",0,0
Video,-120,"primastella.avi"
//Break Periods
2,98901,108467
//Storyboard Layer 0 (Background)
//Storyboard Layer 1 (Fail)
//Storyboard Layer 2 (Pass)
//Storyboard Layer 3 (Foreground)
//Storyboard Sound Samples

[TimingPoints]
1368,333.333333333333,4,2,1,40,1,0
1368,-133.333333333333,4,2,1,40,0,0
6034,-200,4,2,1,40,0,0
6701,-200,4,2,1,60,0,0
9701,-166.666666666667,4,2,1,60,0,0
10034,-142.857142857143,4,2,1,60,0,0
10367,-125,4,2,1,60,0,0
11701,-100,4,2,1,60,0,0
22701,-100,4,2,1,40,0,0
24034,-133.333333333333,4,2,1,40,0,0
34701,-117.647058823529,4,2,1,60,0,0
37201,-117.647058823529,4,2,99,70,0,0
37367,-117.647058823529,4,2,1,60,0,0
39867,-117.647058823529,4,2,99,70,0,0
40034,-117.647058823529,4,2,1,60,0,0
42534,-117.647058823529,4,2,99,70,0,0
42701,-117.647058823529,4,2,1,60,0,0
50701,-133.333333333333,4,2,1,60,0,0
53367,-100,4,2,1,60,0,0
54701,-100,4,2,99,60,0,0
56034,-100,4,2,1,80,0,1
65367,-100,4,2,1,80,0,1
66034,-100,4,2,1,80,0,1
66701,-100,4,2,1,80,0,1
76034,-100,4,2,1,80,0,1
76701,-100,4,2,1,80,0,1
77367,-100,4,2,1,60,0,0
82701,-200,4,2,99,60,0,0
84034,-100,4,2,1,60,0,0
98701,-133.333333333333,4,2,1,45,0,0
109367,-117.647058823529,4,2,1,60,0,0
125367,-133.333333333333,4,2,1,60,0,0
128034,-100,4,2,1,60,0,0
129367,-100,4,2,99,60,0,0
129701,-100,4,2,1,20,0,0
130034,-100,4,2,1,40,0,0
130367,-100,4,2,1,60,0,0
130701,-100,4,2,1,80,0,1
141284,-100,4,2,1,80,0,0
141367,-100,4,2,1,80,0,1
152034,-100,4,2,1,60,0,0
157367,-200,4,2,1,60,0,0
157368,-200,4,2,99,60,0,0
158701,-100,4,2,1,60,0,0
189367,-133.333333333333,4,2,1,60,0,0
193367,-200,4,2,1,60,0,0
194701,-200,4,2,1,10,0,0
196034,-166.666666666667,4,2,1,45,0,0
197201,-166.666666666667,4,2,1,45,0,0
197367,-166.666666666667,4,2,1,45,0,0
199867,-166.666666666667,4,2,1,45,0,0
200034,-166.666666666667,4,2,1,45,0,0
206701,-133.333333333333,4,2,1,45,0,0
212034,-100,4,2,1,45,0,0
213367,-100,4,2,1,60,0,0
217367,-100,4,2,1,80,0,1
227951,-100,4,2,1,80,0,0
228034,-100,4,2,1,80,0,1
238701,-100,4,2,1,60,0,0
244034,-200,4,2,99,60,0,0
245367,-100,4,2,1,60,0,0
249367,-133.333333333333,4,2,1,60,0,0
254701,-200,4,2,1,60,0,0
257367,-200,4,2,1,60,0,0
258701,-200,4,2,1,45,0,0
260034,-200,4,2,1,30,0,0
261367,-200,4,2,1,15,0,0
262701,-200,4,2,1,5,0,0

[Colours]
Combo1 : 45,255,45
Combo2 : 0,64,128
Combo3 : 106,106,255
Combo4 : 168,12,243
Combo5 : 255,47,255
Combo6 : 0,128,0

[HitObjects]
76,64,1368,6,0,P|68:121|76:192,1,105.000004005432,2|0,0:0|0:0,0:0:0:0:
120,232,1867,1,0,0:0:0:0:
196,212,2034,2,0,P|248:208|312:220,1,105.000004005432,2|0,0:0|0:0,0:0:0:0:
372,252,2534,1,0,0:0:0:0:
372,252,2617,1,0,0:0:0:0:
372,252,2701,6,0,L|380:140,1,105.000004005432,2|0,0:0|0:0,0:0:0:0:
272,32,3367,2,0,L|264:144,1,105.000004005432,2|0,0:0|0:0,0:0:0:0:
184,272,4034,6,0,P|152:273|120:264,2,52.5000020027161,2|0|2,0:0|0:0|0:0,0:0:0:0:
256,244,4534,2,0,L|372:256,1,105.000004005432,2|0,0:0|0:0,0:0:0:0:
428,296,5034,1,2,0:0:0:0:
508,160,5367,6,0,P|519:107|504:48,1,105.000004005432,2|0,0:0|0:0,0:0:0:0:
412,16,6034,1,2,0:0:0:0:
280,100,6534,1,2,0:0:0:0:
280,100,6617,1,2,0:0:0:0:
280,100,6701,6,0,L|272:184,1,70,4|2,0:0|0:0,0:0:0:0:
184,224,7367,2,0,L|176:140,1,70,2|2,0:0|0:0,0:0:0:0:
88,100,8034,6,0,L|80:184,1,70,4|2,0:0|0:0,0:0:0:0:
40,268,8701,2,0,L|48:352,1,70,2|2,0:0|0:0,0:0:0:0:
136,284,9367,6,0,L|138:242,1,35,4|0,0:0|0:0,0:0:0:0:
212,216,9701,6,0,L|216:276,1,41.9999987182618,2|0,0:0|0:0,0:0:0:0:
148,174,10034,6,0,L|146:113,1,48.9999985046387,2|0,0:0|0:0,0:0:0:0:
221,93,10367,6,0,L|219:154,1,48.9999985046387,2|0,0:0|0:0,0:0:0:0:
214,257,10701,1,2,0:0:0:0:
148,174,10867,1,2,0:0:0:0:
88,224,11034,2,0,P|83:250|88:288,1,56,2|2,0:0|0:0,0:0:0:0:
156,356,11367,1,8,0:0:0:0:
214,257,11534,1,8,0:0:0:0:
214,257,12034,6,0,L|356:268,1,140,4|8,0:0|0:0,0:0:0:0:
428,324,12534,1,0,0:0:0:0:
500,264,12701,2,0,P|504:208|492:168,1,70,2|2,0:0|0:0,0:0:0:0:
440,128,13034,2,0,L|352:136,1,70,8|0,0:0|0:0,0:0:0:0:
304,72,13367,6,0,L|164:56,1,140,2|8,0:0|0:0,0:0:0:0:
80,24,13867,1,0,0:0:0:0:
20,92,14034,2,0,P|13:132|20:168,1,70,2|2,0:0|0:0,0:0:0:0:
76,232,14367,1,8,0:0:0:0:
160,192,14534,1,2,0:0:0:0:
160,192,14617,1,2,0:0:0:0:
160,192,14701,6,0,P|235:189|320:196,1,140,2|8,0:0|0:0,0:0:0:0:
380,236,15201,1,0,0:0:0:0:
460,192,15367,2,0,P|472:160|466:118,1,70,2|2,0:0|0:0,0:0:0:0:
380,236,15701,2,0,L|384:308,1,70,8|0,0:0|0:0,0:0:0:0:
300,344,16034,6,0,P|236:322|165:337,1,140,2|10,0:0|0:0,0:0:0:0:
84,376,16534,1,2,0:0:0:0:
12,324,16701,2,0,P|1:291|10:238,2,70,2|2|10,0:0|0:0|0:0,0:0:0:0:
92,280,17201,1,0,0:0:0:0:
92,280,17284,1,0,0:0:0:0:
92,280,17367,6,0,L|80:192,1,70,4|0,0:0|0:0,0:0:0:0:
104,120,17701,1,8,0:0:0:0:
180,168,17867,1,0,0:0:0:0:
248,108,18034,2,0,P|246:65|232:36,1,70,2|2,0:0|0:0,0:0:0:0:
180,168,18367,2,0,L|189:237,1,70,8|0,0:0|0:0,0:0:0:0:
260,296,18701,6,0,P|328:275|397:286,1,140,2|8,0:0|0:0,0:0:0:0:
472,332,19201,1,0,0:0:0:0:
512,252,19367,2,0,L|504:176,1,70,2|2,0:0|0:0,0:0:0:0:
448,108,19701,1,8,0:0:0:0:
372,160,19867,1,2,0:0:0:0:
372,160,19951,1,2,0:0:0:0:
372,160,20034,6,0,P|295:164|224:152,1,140,2|8,0:0|0:0,0:0:0:0:
152,112,20534,1,2,0:0:0:0:
80,168,20701,2,0,P|77:204|92:252,1,70,2|2,0:0|0:0,0:0:0:0:
152,112,21034,2,0,L|160:42,1,70,8|2,0:0|0:0,0:0:0:0:
249,25,21367,6,0,P|305:59|397:54,1,140,2|4,0:0|0:0,0:0:0:0:
464,28,21867,1,0,0:0:0:0:
484,116,22034,2,8,L|486:150,3,35,4|0|2|2,3:0|0:0|0:0|0:0,0:0:0:0:
448,176,22367,2,8,L|445:210,3,35,2|2|2|2,0:0|0:0|0:0|0:0,0:0:0:0:
464,252,22701,5,6,0:0:0:0:
328,340,24034,6,0,P|272:328|204:336,1,105.000004005432,2|0,0:0|0:0,0:0:0:0:
152,356,24534,1,0,0:0:0:0:
84,312,24701,2,0,L|92:248,1,52.5000020027161,2|0,0:0|0:0,0:0:0:0:
32,204,25034,2,0,L|24:140,1,52.5000020027161,0|0,0:0|0:0,0:0:0:0:
88,104,25367,6,0,P|137:116|192:110,1,105.000004005432,2|0,0:0|0:0,0:0:0:0:
312,212,26034,2,0,P|263:200|208:206,1,105.000004005432,2|0,0:0|0:0,0:0:0:0:
144,252,26534,1,2,0:0:0:0:
200,308,26701,6,0,L|304:311,1,105.000004005432,2|0,0:0|0:0,0:0:0:0:
376,271,27201,2,0,P|396:230|385:167,1,105.000004005432,0|0,0:0|0:0,0:0:0:0:
332,120,27701,2,0,L|336:56,1,52.5000020027161,0|0,0:0|0:0,0:0:0:0:
260,40,28034,6,0,P|211:54|146:44,2,105.000004005432,2|0|2,0:0|0:0|0:0,0:0:0:0:
335,67,28867,1,0,0:0:0:0:
400,20,29034,1,0,0:0:0:0:
452,80,29201,1,2,0:0:0:0:
388,128,29367,6,0,P|382:180|394:253,1,105.000004005432,2|0,0:0|0:0,0:0:0:0:
336,292,29867,2,0,P|283:286|211:298,1,105.000004005432,0|0,0:0|0:0,0:0:0:0:
168,340,30367,1,0,0:0:0:0:
108,288,30534,1,0,0:0:0:0:
39,330,30701,6,0,P|30:271|59:225,1,105.000004005432,2|0,0:0|0:0,0:0:0:0:
181,145,31367,2,0,P|190:204|161:250,1,105.000004005432,2|0,0:0|0:0,0:0:0:0:
112,187,31867,1,2,0:0:0:0:
108,108,32034,6,0,P|144:71|201:64,1,105.000004005432,2|0,0:0|0:0,0:0:0:0:
264,100,32534,2,0,L|368:96,1,105.000004005432,2|2,0:0|0:0,0:0:0:0:
436,136,33034,2,0,P|437:164|432:188,1,52.5000020027161,0|2,0:0|0:0,0:0:0:0:
372,240,33367,5,0,0:0:0:0:
372,240,34701,6,0,B|248:256,1,119.000002269745,4|8,0:0|0:0,0:0:0:0:
176,224,35201,2,0,P|155:163|161:94,1,119.000002269745,0|0,0:0|0:0,0:0:0:0:
208,44,35701,1,8,0:0:0:0:
280,88,35867,6,0,P|340:100|410:82,1,119.000002269745,0|0,0:0|0:0,0:0:0:0:
468,48,36367,1,8,0:0:0:0:
508,124,36534,2,0,L|498:182,1,59.5000011348725,0|2,0:0|0:0,0:0:0:0:
416,172,36867,2,0,L|406:230,1,59.5000011348725,2|8,0:0|0:0,0:0:0:0:
428,312,37201,1,0,1:0:0:0:
360,360,37367,6,0,L|220:348,1,119.000002269745,2|8,0:0|0:0,0:0:0:0:
180,292,37867,2,0,P|181:230|168:164,1,119.000002269745,0|0,0:0|0:0,0:0:0:0:
112,116,38367,1,8,0:0:0:0:
44,164,38534,6,0,P|43:226|56:292,1,119.000002269745,0|2,0:0|0:0,0:0:0:0:
112,344,39034,1,10,0:0:0:0:
180,296,39201,2,0,L|248:304,1,59.5000011348725,2|0,0:0|0:0,0:0:0:0:
244,220,39534,2,0,L|176:212,1,59.5000011348725,0|8,0:0|0:0,0:0:0:0:
128,152,39867,1,0,1:0:0:0:
44,164,40034,6,0,P|57:106|111:69,1,119.000002269745,4|8,0:0|0:0,0:0:0:0:
184,88,40534,2,0,L|316:80,1,119.000002269745,0|0,0:0|0:0,0:0:0:0:
376,40,41034,1,8,0:0:0:0:
432,100,41201,6,0,P|439:160|432:236,1,119.000002269745,0|0,0:0|0:0,0:0:0:0:
384,284,41701,1,8,0:0:0:0:
312,240,41867,2,0,L|316:176,1,59.5000011348725,0|2,0:0|0:0,0:0:0:0:
236,160,42201,2,0,L|240:96,1,59.5000011348725,2|8,0:0|0:0,0:0:0:0:
184,36,42534,1,0,1:0:0:0:
116,84,42701,6,0,P|100:152|112:208,1,119.000002269745,2|8,0:0|0:0,0:0:0:0:
168,256,43201,2,0,L|288:252,1,119.000002269745,0|0,0:0|0:0,0:0:0:0:
356,204,43701,2,0,P|364:176|360:140,1,59.5000011348725,8|0,0:0|0:0,0:0:0:0:
312,80,44034,6,0,L|184:92,1,119.000002269745,2|8,0:0|0:0,0:0:0:0:
112,76,44534,1,0,0:0:0:0:
60,140,44701,2,0,P|58:177|64:212,1,59.5000011348725,2|2,0:0|1:2,0:0:0:0:
112,264,45034,2,8,L|108:296,3,29.7500005674362,10|0|2|0,1:2|1:0|1:2|1:0,0:0:0:0:
132,328,45367,6,0,L|192:328,1,59.5000011348725,4|0,0:0|0:0,0:0:0:0:
264,284,45701,1,2,0:0:0:0:
312,352,45867,2,0,P|342:306|321:226,1,119.000002269745,4|2,0:0|0:0,0:0:0:0:
260,208,46367,1,4,0:0:0:0:
36,316,46867,5,2,0:0:0:0:
36,316,46951,1,2,0:0:0:0:
36,316,47034,2,0,L|32:248,1,59.5000011348725,2|0,0:0|0:0,0:0:0:0:
84,192,47367,1,2,0:0:0:0:
28,124,47534,1,2,0:0:0:0:
112,72,47701,1,2,0:0:0:0:
112,72,48034,6,0,L|180:68,1,59.5000011348725,4|0,0:0|0:0,0:0:0:0:
244,24,48367,1,2,0:0:0:0:
308,80,48534,2,0,P|317:143|299:209,1,119.000002269745,4|2,0:0|0:0,0:0:0:0:
248,256,49034,1,4,0:0:0:0:
88,64,49534,5,2,0:0:0:0:
88,64,49617,1,2,0:0:0:0:
88,64,49701,2,0,L|156:60,1,59.5000011348725,2|0,0:0|0:0,0:0:0:0:
224,32,50034,1,2,0:0:0:0:
216,116,50201,1,2,0:0:0:0:
316,68,50367,1,2,0:0:0:0:
316,68,50701,6,0,P|372:61|424:72,1,105.000004005432,4|8,0:0|0:0,0:0:0:0:
432,228,51367,2,0,P|376:235|324:224,1,105.000004005432,2|8,0:0|0:0,0:0:0:0:
216,116,52034,6,0,P|160:109|108:120,1,105.000004005432,2|8,0:0|0:0,0:0:0:0:
52,172,52534,1,0,0:0:0:0:
100,236,52701,2,0,L|96:292,1,52.5000020027161,2|0,0:0|0:0,0:0:0:0:
172,312,53034,2,0,L|176:256,1,52.5000020027161,8|0,0:0|0:0,0:0:0:0:
252,208,53367,6,0,P|289:229|327:235,1,70,8|2,0:0|0:0,0:0:0:0:
384,172,53701,2,0,P|375:138|357:108,1,70,8|2,0:0|0:0,0:0:0:0:
276,64,54034,2,0,L|196:72,1,70,8|2,0:0|0:0,0:0:0:0:
136,128,54367,1,8,0:0:0:0:
116,40,54534,1,2,0:0:0:0:
28,124,54701,5,2,1:0:0:0:
28,124,56034,6,0,P|23:204|35:291,1,140,4|8,0:0|0:0,0:0:0:0:
88,332,56534,1,0,0:0:0:0:
164,280,56701,2,0,L|240:292,1,70,2|2,0:0|0:0,0:0:0:0:
304,352,57034,2,0,L|380:340,1,70,8|0,0:0|0:0,0:0:0:0:
440,280,57367,6,0,P|448:232|436:136,1,140,2|8,0:0|0:0,0:0:0:0:
372,76,57867,1,0,0:0:0:0:
292,120,58034,2,0,P|252:123|217:117,1,70,2|2,0:0|0:0,0:0:0:0:
152,60,58367,1,8,0:0:0:0:
96,132,58534,1,0,0:0:0:0:
28,72,58701,6,0,P|6:135|41:204,1,140,2|8,0:0|0:0,0:0:0:0:
116,240,59201,1,0,0:0:0:0:
196,200,59367,2,0,P|204:171|192:120,1,70,2|2,0:0|0:0,0:0:0:0:
116,240,59701,2,0,L|124:316,1,70,8|0,0:0|0:0,0:0:0:0:
204,348,60034,6,0,P|236:320|340:324,1,140,2|8,0:0|0:0,0:0:0:0:
404,372,60534,1,0,0:0:0:0:
468,308,60701,2,0,P|476:268|468:224,1,70,2|2,0:0|0:0,0:0:0:0:
408,176,61034,1,8,0:0:0:0:
344,240,61201,1,0,0:0:0:0:
264,196,61367,6,0,P|248:140|256:60,1,140,4|8,0:0|0:0,0:0:0:0:
328,4,61867,1,0,0:0:0:0:
404,56,62034,2,0,L|420:136,1,70,2|2,0:0|0:0,0:0:0:0:
480,188,62367,2,0,L|464:268,1,70,8|0,0:0|0:0,0:0:0:0:
388,304,62701,6,0,P|324:286|242:308,1,140,2|10,0:0|0:0,0:0:0:0:
184,360,63201,1,0,0:0:0:0:
104,320,63367,2,0,P|88:280|92:232,1,70,2|2,0:0|0:0,0:0:0:0:
136,176,63701,1,10,0:0:0:0:
44,172,63867,1,0,0:0:0:0:
92,96,64034,6,0,P|159:88|214:131,1,140,2|8,0:0|0:0,0:0:0:0:
272,200,64534,1,0,0:0:0:0:
348,152,64701,2,0,P|356:112|344:76,1,70,2|2,0:0|0:0,0:0:0:0:
272,200,65034,2,0,L|280:296,1,70,8|0,0:0|0:0,0:0:0:0:
200,316,65367,6,0,P|156:296|116:296,1,70,2|0,0:0|0:0,0:0:0:0:
92,308,65617,1,0,0:0:0:0:
92,308,65701,2,0,L|84:228,1,70,10|0,0:0|0:0,0:0:0:0:
20,176,66034,2,8,L|22:141,3,35,2|0|2|0,1:2|1:0|1:2|1:0,0:0:0:0:
64,120,66367,2,8,L|61:85,3,35,10|0|2|0,1:2|1:0|1:2|1:0,0:0:0:0:
92,52,66701,6,0,P|136:68|228:60,1,140,4|8,0:0|0:0,0:0:0:0:
308,16,67201,1,0,0:0:0:0:
376,72,67367,2,0,L|384:152,1,70,2|2,0:0|0:0,0:0:0:0:
440,216,67701,2,0,L|432:296,1,70,8|0,0:0|0:0,0:0:0:0:
356,336,68034,6,0,P|304:300|220:304,1,140,2|8,0:0|0:0,0:0:0:0:
148,340,68534,1,0,0:0:0:0:
68,296,68701,2,0,P|60:244|68:200,1,70,2|2,0:0|0:0,0:0:0:0:
96,144,69034,1,8,0:0:0:0:
160,208,69201,1,0,0:0:0:0:
224,144,69367,6,0,P|287:136|363:154,1,140,2|8,0:0|0:0,0:0:0:0:
432,212,69867,1,0,0:0:0:0:
504,152,70034,2,0,P|508:112|493:74,1,70,2|2,0:0|0:0,0:0:0:0:
432,212,70367,2,0,L|436:288,1,70,8|0,0:0|0:0,0:0:0:0:
360,336,70701,6,0,P|308:304|214:318,1,140,2|8,0:0|0:0,0:0:0:0:
160,364,71201,1,0,0:0:0:0:
88,312,71367,2,0,P|84:268|92:224,1,70,2|2,0:0|0:0,0:0:0:0:
140,168,71701,1,8,0:0:0:0:
64,116,71867,1,0,0:0:0:0:
116,40,72034,6,0,P|196:32|264:48,1,140,6|8,0:0|0:0,0:0:0:0:
320,104,72534,1,0,0:0:0:0:
396,52,72701,2,0,L|468:44,1,70,2|2,0:0|0:0,0:0:0:0:
472,136,73034,2,0,L|402:143,1,70,8|0,0:0|0:0,0:0:0:0:
320,104,73367,6,0,P|314:170|363:228,1,140,2|8,0:0|0:0,0:0:0:0:
432,280,73867,1,0,0:0:0:0:
364,340,74034,2,0,L|280:332,1,70,2|2,0:0|0:0,0:0:0:0:
216,284,74367,1,8,0:0:0:0:
152,348,74534,1,0,0:0:0:0:
68,316,74701,6,0,P|44:248|60:168,1,140,2|8,0:0|0:0,0:0:0:0:
116,116,75201,1,0,0:0:0:0:
64,44,75367,2,0,P|16:40|-16:48,1,70,2|2,0:0|0:0,0:0:0:0:
116,116,75701,2,0,L|192:104,1,70,8|0,0:0|0:0,0:0:0:0:
260,156,76034,6,0,P|264:192|252:228,1,70,8|4,0:3|0:3,0:0:0:0:
340,260,76367,2,0,P|336:224|348:188,1,70,4|4,0:3|0:3,0:0:0:0:
420,140,76701,2,8,L|416:104,3,35,0|0|0|0,1:0|1:0|1:0|1:0,0:0:0:0:
372,92,77034,2,8,L|376:56,3,35,0|0|0|0,1:0|1:0|1:0|1:0,0:0:0:0:
336,32,77367,6,0,P|284:48|192:48,1,140,4|8,0:0|0:0,0:0:0:0:
112,20,77867,1,0,0:0:0:0:
40,80,78034,2,0,P|32:156|40:240,1,140,2|10,0:0|0:0,0:0:0:0:
76,300,78534,1,0,0:0:0:0:
152,248,78701,6,0,P|208:240|300:260,1,140,2|8,0:0|0:0,0:0:0:0:
296,348,79201,2,0,P|240:356|148:336,1,140,0|0,0:0|0:0,0:0:0:0:
76,300,79701,1,10,0:0:0:0:
152,248,79867,1,0,0:0:0:0:
152,248,79951,1,0,0:0:0:0:
152,248,80034,6,0,P|164:176|140:100,1,140,2|8,0:0|0:0,0:0:0:0:
204,40,80534,2,0,P|276:52|352:28,1,140,0|2,0:0|0:0,0:0:0:0:
424,72,81034,2,0,L|416:152,1,70,8|0,0:0|0:0,0:0:0:0:
348,200,81367,6,0,P|308:192|268:200,1,70,2|0,0:0|0:0,0:0:0:0:
244,224,81617,1,0,0:0:0:0:
244,224,81701,1,10,0:0:0:0:
164,184,81867,2,0,L|168:136,4,35,0|0|2|0|2,1:0|1:0|1:2|1:0|2:0,0:0:0:0:
212,124,82284,2,0,L|208:76,4,35,0|2|0|2|0,1:0|1:2|1:0|1:2|1:0,0:0:0:0:
232,60,82701,6,0,P|270:56|304:64,1,70,2|0,0:1|0:0,0:0:0:0:
392,116,83367,1,0,0:0:0:0:
332,200,83701,1,0,0:0:0:0:
152,184,84034,5,8,0:0:0:0:
92,280,84201,1,8,0:0:0:0:
92,280,84701,5,8,0:0:0:0:
176,356,84867,1,8,0:0:0:0:
252,304,85034,2,0,L|256:264,3,35,0|0|0|0,1:0|1:0|1:0|1:0,0:0:0:0:
284,232,85367,6,0,L|376:240,1,70,8|0,1:2|1:0,0:0:0:0:
396,156,85701,2,0,L|304:148,1,70,8|0,0:0|1:0,0:0:0:0:
244,108,86034,2,0,P|241:74|257:30,1,70,8|0,0:0|1:0,0:0:0:0:
333,81,86367,2,0,P|336:115|320:159,1,70,8|0,0:0|1:0,0:0:0:0:
248,196,86701,6,0,L|172:188,1,70,8|8,0:0|0:0,0:0:0:0:
104,136,87034,1,8,0:0:0:0:
32,196,87201,1,8,0:0:0:0:
108,248,87367,2,0,L|100:288,3,35,8|0|8|0,1:2|1:0|1:2|1:0,0:0:0:0:
136,312,87701,2,0,L|144:352,3,35,8|0|8|0,1:2|1:0|1:2|1:0,0:0:0:0:
184,368,88034,6,0,P|248:340|323:344,1,140,4|8,0:0|0:0,0:0:0:0:
400,376,88534,1,0,0:0:0:0:
464,312,88701,2,0,L|456:240,1,70,2|2,0:0|0:0,0:0:0:0:
384,188,89034,2,0,L|392:116,1,70,8|0,0:0|0:0,0:0:0:0:
316,68,89367,6,0,P|276:88|172:72,1,140,2|8,0:0|0:0,0:0:0:0:
108,28,89867,1,0,0:0:0:0:
40,88,90034,2,0,L|32:168,1,70,2|2,0:0|0:0,0:0:0:0:
68,240,90367,1,8,0:0:0:0:
156,212,90534,1,0,0:0:0:0:
156,212,90617,1,0,0:0:0:0:
156,212,90701,6,0,P|216:208|300:212,1,140,2|8,0:0|0:0,0:0:0:0:
376,256,91201,1,0,0:0:0:0:
448,200,91367,2,0,P|452:160|432:116,1,70,2|2,0:0|0:0,0:0:0:0:
376,256,91701,2,0,L|380:332,1,70,8|0,0:0|0:0,0:0:0:0:
292,352,92034,6,0,P|248:340|200:344,1,70,2|2,0:0|0:0,0:0:0:0:
140,372,92367,1,8,0:0:0:0:
72,312,92534,1,2,0:0:0:0:
128,240,92701,2,0,P|136:202|132:164,1,70,2|0,1:2|1:0,0:0:0:0:
108,132,92951,1,0,1:0:0:0:
108,132,93034,1,0,1:0:0:0:
160,56,93201,1,0,1:0:0:0:
160,56,93284,1,0,1:0:0:0:
160,56,93367,6,0,P|196:64|251:61,1,70,6|2,0:0|0:0,0:0:0:0:
312,20,93701,1,2,0:0:0:0:
388,68,93867,2,0,P|402:138|386:220,1,140,4|0,0:0|0:0,0:0:0:0:
312,248,94367,2,0,L|232:240,1,70,8|0,0:0|0:0,0:0:0:0:
163,193,94701,6,0,P|149:123|165:41,1,140,2|8,0:0|0:0,0:0:0:0:
244,20,95201,1,0,0:0:0:0:
318,71,95367,2,0,L|398:67,1,70,2|2,0:0|0:0,0:0:0:0:
472,28,95701,1,8,0:0:0:0:
508,112,95867,1,0,0:0:0:0:
508,112,95951,1,0,0:0:0:0:
508,112,96034,6,0,L|500:188,1,70,2|0,0:0|0:0,0:0:0:0:
416,216,96367,2,0,P|378:208|320:220,1,70,12|0,0:0|0:0,0:0:0:0:
268,260,96701,2,0,L|224:252,3,35,2|0|0|0,1:2|1:0|1:0|1:0,0:0:0:0:
208,216,97034,2,0,L|164:224,3,35,8|0|0|0,1:2|1:0|1:0|1:0,0:0:0:0:
132,204,97367,5,4,0:0:0:0:
256,192,97451,12,4,98701,0:0:0:0:
124,320,109367,6,0,B|248:336,1,119.000002269745,4|8,0:0|0:0,0:0:0:0:
316,292,109867,2,0,P|337:231|331:162,1,119.000002269745,0|2,0:0|0:0,0:0:0:0:
284,108,110367,1,8,0:0:0:0:
220,160,110534,6,0,P|160:172|90:154,1,119.000002269745,0|0,0:0|0:0,0:0:0:0:
36,112,111034,1,8,0:0:0:0:
84,44,111201,2,0,L|144:36,1,59.5000011348725,0|2,0:0|0:0,0:0:0:0:
216,80,111534,2,0,L|276:72,1,59.5000011348725,2|8,0:0|0:0,0:0:0:0:
344,28,111867,1,0,0:0:0:0:
408,84,112034,6,0,P|413:145|396:212,1,119.000002269745,2|8,0:0|0:0,0:0:0:0:
332,248,112534,2,0,L|192:240,1,119.000002269745,0|2,0:0|0:0,0:0:0:0:
148,188,113034,1,8,0:0:0:0:
80,236,113201,6,0,P|66:177|94:126,1,119.000002269745,0|0,0:0|0:0,0:0:0:0:
156,76,113701,1,8,0:0:0:0:
212,136,113867,2,0,L|280:144,1,59.5000011348725,0|2,0:0|0:0,0:0:0:0:
300,64,114201,2,0,L|232:56,1,59.5000011348725,2|8,0:0|0:0,0:0:0:0:
156,76,114534,1,0,0:0:0:0:
94,17,114701,6,0,P|72:86|91:130,1,119.000002269745,6|8,0:0|0:0,0:0:0:0:
148,188,115201,2,0,B|140:276|140:276|156:328,1,119.000002269745,0|2,0:0|0:0,0:0:0:0:
216,356,115701,1,8,0:0:0:0:
288,312,115867,6,0,P|348:296|423:309,1,119.000002269745,0|0,0:0|0:0,0:0:0:0:
476,344,116367,1,8,0:0:0:0:
508,268,116534,2,0,L|512:204,1,59.5000011348725,0|2,0:0|0:0,0:0:0:0:
436,176,116867,2,0,L|440:112,1,59.5000011348725,2|8,0:0|0:0,0:0:0:0:
384,52,117201,1,0,0:0:0:0:
324,108,117367,6,0,P|258:116|200:89,1,119.000002269745,2|8,0:0|0:0,0:0:0:0:
148,44,117867,2,0,P|90:48|32:88,1,119.000002269745,0|2,0:0|0:0,0:0:0:0:
8,156,118367,2,0,P|7:189|12:224,1,59.5000011348725,8|0,0:0|0:0,0:0:0:0:
64,280,118701,6,0,L|182:268,1,119.000002269745,2|8,0:0|0:0,0:0:0:0:
252,312,119201,1,0,0:0:0:0:
316,260,119367,2,0,P|319:230|316:200,1,59.5000011348725,2|2,0:0|1:2,0:0:0:0:
252,148,119701,2,0,L|256:116,3,29.7500005674362,2|0|2|0,1:2|1:0|1:2|1:0,0:0:0:0:
232,84,120034,6,0,L|172:84,1,59.5000011348725,4|2,1:0|0:0,0:0:0:0:
108,140,120367,1,0,1:0:0:0:
60,72,120534,2,0,P|30:118|51:198,1,119.000002269745,2|2,0:0|1:2,0:0:0:0:
112,216,121034,1,2,0:0:0:0:
344,124,121534,5,0,0:0:0:0:
344,124,121617,1,0,0:0:0:0:
344,124,121701,2,0,L|348:192,1,59.5000011348725,2|0,0:0|0:0,0:0:0:0:
312,260,122034,1,2,1:2:0:0:
240,304,122201,1,2,1:2:0:0:
172,232,122367,1,2,1:2:0:0:
172,232,122701,6,0,L|168:164,1,59.5000011348725,4|2,1:2|0:0,0:0:0:0:
124,100,123034,1,0,1:0:0:0:
180,36,123201,2,0,P|243:27|309:45,1,119.000002269745,2|2,0:0|1:2,0:0:0:0:
356,96,123701,1,2,0:0:0:0:
212,300,124201,5,0,0:0:0:0:
212,300,124284,1,0,0:0:0:0:
211,300,124367,2,0,L|151:296,1,59.5000011348725,2|0,0:0|0:0,0:0:0:0:
80,256,124701,1,2,1:2:0:0:
148,208,124867,1,2,1:2:0:0:
92,124,125034,1,2,1:2:0:0:
92,124,125367,6,0,P|152:108|208:124,1,105.000004005432,4|0,0:0|0:0,0:0:0:0:
328,196,126034,2,0,P|379:204|429:188,1,105.000004005432,0|0,0:0|0:0,0:0:0:0:
364,44,126701,2,0,P|312:35|262:51,1,105.000004005432,0|0,0:0|0:0,0:0:0:0:
212,112,127201,1,0,0:0:0:0:
256,176,127367,2,0,L|260:232,1,52.5000020027161,0|0,0:0|0:0,0:0:0:0:
180,240,127701,2,0,L|176:184,1,52.5000020027161,0|0,0:0|0:0,0:0:0:0:
96,228,128034,6,0,L|88:309,1,70,12|2,0:0|0:0,0:0:0:0:
156,356,128367,2,0,P|192:345|248:352,1,70,8|2,0:0|0:0,0:0:0:0:
312,376,128701,2,0,L|380:364,1,70,8|2,0:0|0:0,0:0:0:0:
444,296,129034,1,8,0:0:0:0:
368,244,129201,1,2,0:0:0:0:
448,156,129367,5,2,1:0:0:0:
416,128,129701,1,2,0:0:0:0:
384,100,130034,1,0,0:0:0:0:
352,72,130367,1,0,0:0:0:0:
320,48,130701,6,0,P|248:60|168:56,1,140,4|8,0:0|0:0,0:0:0:0:
96,28,131201,1,0,0:0:0:0:
28,88,131367,2,0,L|20:168,1,70,2|2,0:0|0:0,0:0:0:0:
88,220,131701,2,0,L|96:300,1,70,8|0,0:0|0:0,0:0:0:0:
168,344,132034,6,0,P|233:315|308:318,1,140,2|8,0:0|0:0,0:0:0:0:
384,352,132534,1,0,0:0:0:0:
468,312,132701,2,0,P|475:272|468:240,1,70,2|2,0:0|0:0,0:0:0:0:
432,160,133034,1,8,0:0:0:0:
360,216,133201,1,0,0:0:0:0:
300,148,133367,6,0,P|224:135|166:160,1,140,2|8,0:0|0:0,0:0:0:0:
96,216,133867,1,0,0:0:0:0:
16,172,134034,2,0,P|8:143|20:92,1,70,2|2,0:0|0:0,0:0:0:0:
96,216,134367,2,0,L|104:292,1,70,8|0,0:0|0:0,0:0:0:0:
172,348,134701,6,0,P|204:320|308:324,1,140,2|8,0:0|0:0,0:0:0:0:
376,368,135201,1,0,0:0:0:0:
452,320,135367,2,0,P|460:280|452:236,1,70,2|2,0:0|0:0,0:0:0:0:
400,180,135701,1,8,0:0:0:0:
444,100,135867,1,0,0:0:0:0:
368,52,136034,6,0,P|291:40|216:56,1,140,6|8,0:0|0:0,0:0:0:0:
156,104,136534,1,0,0:0:0:0:
84,52,136701,2,0,L|8:56,1,70,2|2,0:0|0:0,0:0:0:0:
8,148,137034,2,0,L|78:151,1,70,8|0,0:0|0:0,0:0:0:0:
156,200,137367,6,0,B|148:304|148:304|164:352,1,140,2|10,0:0|0:0,0:0:0:0:
240,384,137867,1,0,0:0:0:0:
316,336,138034,2,0,L|320:260,1,70,2|2,0:0|0:0,0:0:0:0:
380,196,138367,1,10,0:0:0:0:
436,268,138534,1,0,0:0:0:0:
468,184,138701,6,0,P|435:126|361:111,1,140,2|8,0:0|0:0,0:0:0:0:
284,152,139201,1,0,0:0:0:0:
204,112,139367,2,0,P|196:72|208:36,1,70,2|2,0:0|0:0,0:0:0:0:
284,152,139701,2,0,L|268:244,1,70,8|0,0:0|0:0,0:0:0:0:
192,268,140034,6,0,P|148:268|108:248,1,70,2|0,0:0|0:0,0:0:0:0:
84,236,140284,1,0,0:0:0:0:
84,236,140367,2,0,P|74:192|80:157,1,70,10|0,0:0|0:0,0:0:0:0:
162,135,140701,2,8,L|164:100,3,35,2|0|2|0,1:2|1:0|1:2|1:0,0:0:0:0:
206,79,141034,2,8,L|203:44,3,35,2|0|2|0,1:2|1:0|1:2|1:0,0:0:0:0:
244,24,141367,6,0,P|288:64|385:71,1,140,4|8,0:0|0:0,0:0:0:0:
452,40,141867,1,0,0:0:0:0:
512,112,142034,2,0,L|504:192,1,70,2|2,0:0|0:0,0:0:0:0:
444,248,142367,2,0,P|406:252|372:244,1,70,8|0,0:0|0:0,0:0:0:0:
299,196,142701,6,0,L|147:208,1,140,2|8,0:0|0:0,0:0:0:0:
68,192,143201,1,0,0:0:0:0:
16,268,143367,2,0,P|15:302|22:337,1,70,2|2,0:0|0:0,0:0:0:0:
104,380,143701,1,8,0:0:0:0:
176,328,143867,1,0,0:0:0:0:
252,384,144034,6,0,P|268:317|223:247,1,140,2|8,0:0|0:0,0:0:0:0:
159,207,144534,1,0,0:0:0:0:
195,123,144701,2,0,P|232:119|271:130,1,70,2|2,0:0|0:0,0:0:0:0:
159,207,145034,2,0,L|63:199,1,70,8|0,0:0|0:0,0:0:0:0:
24,140,145367,6,0,P|40:68|97:31,1,140,2|8,0:0|0:0,0:0:0:0:
116,124,145867,1,0,0:0:0:0:
192,76,146034,2,0,P|228:72|267:72,1,70,2|2,0:0|0:0,0:0:0:0:
348,100,146367,1,8,0:0:0:0:
416,36,146534,1,0,0:0:0:0:
492,88,146701,6,0,P|498:160|484:252,1,140,6|8,0:0|0:0,0:0:0:0:
452,308,147201,1,0,0:0:0:0:
384,248,147367,2,0,L|314:255,1,70,2|2,0:0|0:0,0:0:0:0:
256,324,147701,2,0,L|186:317,1,70,8|0,0:0|0:0,0:0:0:0:
108,268,148034,6,0,B|90:175|90:175|101:112,1,140,2|8,0:0|0:0,0:0:0:0:
156,60,148534,1,0,0:0:0:0:
228,116,148701,2,0,P|257:122|297:122,1,70,2|2,0:0|0:0,0:0:0:0:
376,76,149034,1,8,0:0:0:0:
424,156,149201,1,0,0:0:0:0:
508,128,149367,6,0,P|489:211|432:244,1,140,2|8,0:0|0:0,0:0:0:0:
360,268,149867,1,0,0:0:0:0:
276,236,150034,2,0,P|266:195|272:160,1,70,2|2,0:0|0:0,0:0:0:0:
360,268,150367,2,0,P|369:308|364:344,1,70,8|0,0:0|0:0,0:0:0:0:
288,380,150701,6,0,L|208:368,1,70,8|4,0:3|0:3,0:0:0:0:
122,307,151034,2,2,L|202:295,1,70,4|4,0:3|0:3,0:0:0:0:
279,270,151367,2,8,L|275:234,3,35,0|0|0|0,1:0|1:0|1:0|1:0,0:0:0:0:
231,222,151701,2,8,L|235:186,3,35,0|0|0|0,1:0|1:0|1:0|1:0,0:0:0:0:
272,160,152034,6,0,P|324:176|416:176,1,140,4|8,0:0|0:0,0:0:0:0:
484,124,152534,1,0,0:0:0:0:
428,52,152701,2,0,P|376:36|284:36,1,140,2|10,0:0|0:0,0:0:0:0:
212,76,153201,1,0,0:0:0:0:
136,28,153367,6,0,B|64:21|17:54|17:54|40:64,1,140,2|8,0:0|0:0,0:0:0:0:
96,124,153867,2,0,P|105:190|85:267,1,140,0|0,0:0|0:0,0:0:0:0:
32,332,154367,1,10,0:0:0:0:
112,376,154534,1,0,0:0:0:0:
112,376,154617,1,0,0:0:0:0:
111,378,154701,6,0,P|176:339|247:341,1,140,2|8,0:0|0:0,0:0:0:0:
324,368,155201,2,0,P|393:365|451:328,1,140,0|2,0:0|0:0,0:0:0:0:
500,252,155701,2,0,L|492:180,1,70,8|0,0:0|0:0,0:0:0:0:
420,124,156034,6,0,P|380:132|340:124,1,70,2|0,0:0|0:0,0:0:0:0:
316,100,156284,1,0,0:0:0:0:
316,100,156367,1,10,0:0:0:0:
236,140,156534,2,0,L|240:188,4,35,0|0|2|0|2,1:0|1:0|1:2|1:0|1:2,0:0:0:0:
284,200,156951,2,0,L|280:248,4,35,0|2|0|2|0,1:0|1:2|1:0|1:2|1:0,0:0:0:0:
256,264,157367,6,0,P|221:270|187:266,1,70,2|0,0:1|0:0,0:0:0:0:
92,224,158034,1,0,0:0:0:0:
160,144,158367,1,0,0:0:0:0:
332,208,158701,5,8,0:0:0:0:
316,320,158867,1,8,0:0:0:0:
316,320,159367,5,8,0:0:0:0:
208,352,159534,1,8,0:0:0:0:
124,316,159701,2,0,L|128:268,3,35,0|0|0|0,1:0|1:0|1:0|1:0,0:0:0:0:
112,240,160034,6,0,P|72:248|36:156,1,140,4|2,1:0|0:0,0:0:0:0:
84,104,160534,2,0,B|228:112,1,140,8|2,0:0|0:0,0:0:0:0:
292,172,161034,1,8,0:0:0:0:
368,124,161201,1,2,0:0:0:0:
368,124,161284,1,0,0:0:0:0:
368,124,161367,6,0,P|416:120|464:128,1,70,0|10,0:0|0:0,0:0:0:0:
508,184,161701,2,0,P|512:232|504:280,1,70,0|0,0:0|0:0,0:0:0:0:
460,328,162034,1,8,0:0:0:0:
384,276,162201,1,0,0:0:0:0:
316,336,162367,2,0,P|274:339|236:335,1,70,8|0,0:0|0:0,0:0:0:0:
164,292,162701,6,0,P|152:224|160:140,1,140,4|2,0:0|0:0,0:0:0:0:
216,84,163201,2,0,B|328:72|328:72|310:92,1,140,8|2,0:0|0:0,0:0:0:0:
264,172,163701,2,0,P|308:186|352:174,1,70,8|2,0:0|0:0,0:0:0:0:
376,168,163951,1,0,0:0:0:0:
376,168,164034,5,0,0:0:0:0:
444,228,164201,2,0,B|452:288|420:344|420:344|404:312,1,140,8|0,0:0|0:0,0:0:0:0:
336,276,164701,2,0,P|296:276|252:288,1,70,10|0,0:0|0:0,0:0:0:0:
196,340,165034,2,0,L|160:336,3,35,10|0|2|0,0:0|0:0|0:0|0:0,0:0:0:0:
120,312,165367,6,0,P|100:284|104:176,1,140,4|2,0:0|0:0,0:0:0:0:
176,132,165867,2,0,P|244:140|332:133,1,140,8|2,0:0|0:0,0:0:0:0:
396,92,166367,2,0,L|472:100,1,70,8|0,0:0|0:0,0:0:0:0:
496,132,166617,1,0,0:0:0:0:
496,132,166701,6,0,P|504:180|492:216,1,70,2|8,0:0|0:0,0:0:0:0:
444,272,167034,1,0,0:0:0:0:
368,224,167201,2,0,L|288:232,1,70,0|8,0:0|0:0,0:0:0:0:
232,296,167534,2,0,L|152:288,1,70,0|8,0:0|0:0,0:0:0:0:
92,232,167867,1,0,0:0:0:0:
132,148,168034,6,0,L|212:140,1,70,8|2,0:0|0:0,0:0:0:0:
264,76,168367,2,0,L|344:84,1,70,8|2,0:0|0:0,0:0:0:0:
396,148,168701,1,8,0:0:0:0:
460,84,168867,1,2,0:0:0:0:
488,172,169034,1,8,0:0:0:0:
424,236,169201,1,2,0:0:0:0:
336,208,169367,6,0,P|292:202|248:208,1,70,8|10,0:0|0:0,0:0:0:0:
188,248,169701,1,8,0:0:0:0:
256,308,169867,1,10,0:0:0:0:
188,368,170034,2,0,L|148:376,3,35,8|0|8|0,1:2|1:0|1:2|1:0,0:0:0:0:
120,344,170367,2,0,L|80:336,3,35,0|0|0|0,1:0|1:0|1:0|1:0,0:0:0:0:
56,304,170701,6,0,P|40:264|52:156,1,140,4|8,0:0|0:0,0:0:0:0:
116,108,171201,2,0,L|192:116,1,70,2|0,0:0|0:0,0:0:0:0:
256,172,171534,1,2,0:0:0:0:
326,115,171701,2,0,L|396:108,1,70,8|0,0:0|0:0,0:0:0:0:
472,60,172034,5,2,0:0:0:0:
508,144,172201,2,0,P|508:184|504:216,1,70,0|8,0:0|0:0,0:0:0:0:
460,292,172534,1,2,0:0:0:0:
376,252,172701,2,0,P|340:252|304:256,1,70,2|2,0:0|0:0,0:0:0:0:
244,324,173034,1,10,0:0:0:0:
164,280,173201,1,2,0:0:0:0:
164,280,173284,1,0,0:0:0:0:
164,280,173367,6,0,L|152:128,1,140,2|8,0:0|0:0,0:0:0:0:
208,68,173867,2,0,P|240:88|296:88,1,70,0|2,0:0|0:0,0:0:0:0:
356,60,174201,1,2,0:0:0:0:
408,132,174367,2,0,L|408:208,1,70,8|0,0:0|0:0,0:0:0:0:
344,268,174701,6,0,P|299:237|204:252,1,140,2|10,0:0|0:0,0:0:0:0:
144,300,175201,1,0,0:0:0:0:
64,256,175367,2,0,L|56:184,1,70,2|2,0:0|0:0,0:0:0:0:
132,136,175701,2,0,L|140:64,1,70,10|0,0:0|0:0,0:0:0:0:
224,28,176034,6,0,P|260:64|356:92,1,140,4|8,0:0|0:0,0:0:0:0:
428,96,176534,1,0,0:0:0:0:
460,180,176701,2,0,P|454:217|444:248,1,70,2|2,0:0|0:0,0:0:0:0:
368,300,177034,2,0,P|330:305|300:316,1,70,10|2,0:0|0:0,0:0:0:0:
224,368,177367,6,0,P|163:362|118:284,1,140,2|8,0:0|0:0,0:0:0:0:
144,212,177867,2,0,B|260:192|260:192|240:228,1,140,2|2,0:0|0:0,0:0:0:0:
200,288,178367,1,10,0:0:0:0:
144,212,178534,1,0,0:0:0:0:
180,128,178701,6,0,L|340:100,1,140,2|8,0:0|0:0,0:0:0:0:
392,148,179201,2,0,P|400:188|384:292,1,140,0|2,0:0|0:0,0:0:0:0:
324,352,179701,2,0,P|274:355|240:352,1,70,8|0,0:0|0:0,0:0:0:0:
180,300,180034,6,0,L|172:176,1,105,2|0,0:0|0:0,0:0:0:0:
173,195,180367,2,0,P|129:210|76:204,1,70,4|0,0:0|0:0,0:0:0:0:
28,164,180701,2,0,L|20:128,3,35,0|0|0|0,1:0|1:0|1:0|1:0,0:0:0:0:
60,108,181034,2,0,L|68:72,3,35,0|0|0|0,1:0|1:0|1:0|1:0,0:0:0:0:
100,44,181367,6,0,P|152:52|244:52,1,140,4|10,0:0|0:0,0:0:0:0:
328,24,181867,2,0,P|397:23|467:32,1,140,2|2,0:0|0:0,0:0:0:0:
512,112,182367,2,0,L|504:184,1,70,10|0,0:0|0:0,0:0:0:0:
424,228,182701,6,0,P|380:208|284:248,1,140,2|10,0:0|0:0,0:0:0:0:
224,292,183201,2,0,B|112:280|112:280|140:264,1,140,2|0,0:0|0:0,0:0:0:0:
204,204,183701,1,8,0:0:0:0:
124,164,183867,1,0,0:0:0:0:
124,164,183951,1,0,0:0:0:0:
124,164,184034,6,0,P|159:125|246:124,1,140,2|10,0:0|0:0,0:0:0:0:
304,188,184534,2,0,P|305:264|296:348,1,140,2|0,0:0|0:0,0:0:0:0:
216,364,185034,2,0,P|186:350|141:348,1,70,10|0,0:0|0:0,0:0:0:0:
64,380,185367,6,0,L|48:232,1,140,2|10,0:0|0:0,0:0:0:0:
88,160,185867,1,0,0:0:0:0:
160,220,186034,2,0,L|240:232,1,70,2|2,0:0|0:0,0:0:0:0:
244,140,186367,2,0,L|174:129,1,70,0|0,1:0|1:0,0:0:0:0:
88,160,186701,6,0,P|90:96|145:41,1,140,4|0,0:0|0:0,0:0:0:0:
296,23,187201,2,0,P|294:87|239:142,1,140,4|0,0:0|0:0,0:0:0:0:
172,196,187701,1,4,0:0:0:0:
180,288,187867,1,0,0:0:0:0:
264,256,188034,6,0,L|348:252,1,70,0|0,0:0|1:0,0:0:0:0:
404,196,188367,2,0,P|404:168|396:120,1,70,8|0,0:0|0:0,0:0:0:0:
484,152,188701,2,0,P|484:180|492:228,1,70,0|0,1:0|1:0,0:0:0:0:
508,312,189034,1,8,0:0:0:0:
428,356,189201,1,0,0:0:0:0:
428,356,189284,1,0,0:0:0:0:
428,356,189367,6,0,L|304:352,1,105.000004005432,0|0,1:0|1:0,0:0:0:0:
180,288,190034,2,0,L|304:284,1,105.000004005432,0|0,1:0|1:0,0:0:0:0:
360,256,190534,1,0,1:0:0:0:
360,256,190617,1,0,0:0:0:0:
360,256,190701,6,0,P|374:193|364:136,1,105.000004005432,0|0,1:0|1:0,0:0:0:0:
324,88,191201,1,0,1:0:0:0:
204,188,191534,1,0,1:0:0:0:
52,148,191867,1,0,1:0:0:0:
52,148,191951,1,0,0:0:0:0:
52,148,192034,6,0,P|32:96|64:40,1,105.000004005432,0|0,1:0|1:0,0:0:0:0:
201,92,192701,2,0,P|221:139|203:187,1,105.000004005432,0|0,1:0|1:0,0:0:0:0:
136,268,193367,6,0,B|185:306|241:287|241:287|272:300|272:300|324:280|376:304|376:304|344:320,1,280,0|0,1:0|0:0,0:0:0:0:
351,316,196034,5,4,0:0:0:0:
351,316,197367,5,2,0:0:0:0:
256,152,197867,1,0,0:0:0:0:
256,152,197951,1,0,0:0:0:0:
256,152,198034,2,0,L|252:72,2,55.9999982910157,2|2|2,0:0|0:0|0:0,0:0:0:0:
220,228,198701,5,4,0:0:0:0:
220,228,200034,5,0,0:0:0:0:
44,296,200534,1,0,1:0:0:0:
0,196,200701,1,8,0:0:0:0:
128,56,201201,1,0,0:0:0:0:
200,136,201367,5,4,0:0:0:0:
200,136,202701,5,2,0:0:0:0:
356,40,203867,1,0,1:0:0:0:
408,112,204034,5,2,0:0:0:0:
44,360,205201,1,0,0:0:0:0:
16,280,205367,5,2,0:0:0:0:
80,224,205534,2,0,P|84:188|80:168,1,41.9999987182618,0|2,0:0|0:0,0:0:0:0:
168,168,205867,2,0,P|164:204|168:224,1,41.9999987182618,0|2,0:0|0:0,0:0:0:0:
212,280,206201,1,0,0:0:0:0:
284,236,206367,1,2,0:0:0:0:
284,236,206701,6,0,L|292:116,1,105.000004005432,4|8,0:0|0:0,0:0:0:0:
348,76,207201,2,0,P|397:69|461:95,1,105.000004005432,0|0,0:0|0:0,0:0:0:0:
496,148,207701,2,0,L|492:208,1,52.5000020027161,10|0,0:0|0:0,0:0:0:0:
432,252,208034,6,0,L|440:356,1,105.000004005432,2|8,0:0|0:0,0:0:0:0:
364,372,208534,2,0,L|356:268,1,105.000004005432,0|0,0:0|0:0,0:0:0:0:
284,236,209034,2,0,P|254:253|217:257,1,52.5000020027161,10|0,0:0|0:0,0:0:0:0:
164,224,209367,6,0,L|52:232,1,105.000004005432,2|8,0:0|0:0,0:0:0:0:
36,156,209867,2,0,L|148:148,1,105.000004005432,0|0,0:0|0:0,0:0:0:0:
204,100,210367,2,0,L|264:104,1,52.5000020027161,10|0,0:0|0:0,0:0:0:0:
312,160,210701,6,0,P|356:176|424:156,1,105.000004005432,2|8,0:0|0:0,0:0:0:0:
480,124,211201,2,0,L|492:248,1,105.000004005432,0|0,0:0|0:0,0:0:0:0:
436,284,211701,2,0,P|404:272|368:276,1,52.5000020027161,10|0,0:0|0:0,0:0:0:0:
308,316,212034,6,0,L|144:320,1,140,4|10,0:0|0:0,0:0:0:0:
36,192,212701,2,0,L|200:188,1,140,2|10,0:0|1:2,0:0:0:0:
336,100,213367,6,0,L|340:52,7,35,2|0|0|0|10|0|0|0,1:2|1:0|1:0|1:0|1:2|1:0|1:0|1:0,0:0:0:0:
300,40,214034,6,0,L|260:32,7,35,2|0|0|0|10|0|0|0,1:2|1:0|1:0|1:0|1:2|1:0|1:0|1:0,0:0:0:0:
240,72,214701,6,0,L|200:80,7,35,2|0|2|0|10|0|2|0,1:2|1:0|1:2|1:0|1:2|1:0|1:2|1:0,0:0:0:0:
176,116,215367,6,0,L|136:108,7,35,2|0|2|0|10|0|2|0,1:2|1:0|1:2|1:0|1:2|1:0|1:2|1:0,0:0:0:0:
100,128,216034,5,4,1:0:0:0:
400,368,216701,6,0,L|404:328,3,35,0|0|0|0,1:0|1:0|1:0|1:0,0:0:0:0:
448,320,217034,6,0,L|444:280,3,35,0|0|0|0,1:0|1:0|1:0|1:0,0:0:0:0:
484,260,217367,6,0,P|489:180|477:93,1,140,4|8,0:0|0:0,0:0:0:0:
424,52,217867,1,0,0:0:0:0:
348,104,218034,2,0,L|272:92,1,70,2|2,0:0|0:0,0:0:0:0:
208,32,218367,2,0,L|132:44,1,70,8|0,0:0|0:0,0:0:0:0:
72,104,218701,6,0,P|64:152|76:248,1,140,2|8,0:0|0:0,0:0:0:0:
140,308,219201,1,0,0:0:0:0:
220,264,219367,2,0,P|260:261|295:267,1,70,2|2,0:0|0:0,0:0:0:0:
360,324,219701,1,8,0:0:0:0:
416,252,219867,1,0,0:0:0:0:
484,312,220034,6,0,P|506:249|471:180,1,140,2|8,0:0|0:0,0:0:0:0:
396,144,220534,1,0,0:0:0:0:
316,184,220701,2,0,P|308:213|320:264,1,70,2|2,0:0|0:0,0:0:0:0:
396,144,221034,2,0,L|388:68,1,70,8|0,0:0|0:0,0:0:0:0:
308,36,221367,6,0,P|276:64|172:60,1,140,2|8,0:0|0:0,0:0:0:0:
108,12,221867,1,0,0:0:0:0:
44,76,222034,2,0,P|36:116|44:160,1,70,2|2,0:0|0:0,0:0:0:0:
104,208,222367,1,8,0:0:0:0:
168,144,222534,1,0,0:0:0:0:
248,188,222701,6,0,P|264:244|256:324,1,140,4|8,0:0|0:0,0:0:0:0:
184,380,223201,1,0,0:0:0:0:
108,328,223367,2,0,L|92:248,1,70,2|2,0:0|0:0,0:0:0:0:
32,196,223701,2,0,L|48:116,1,70,8|0,0:0|0:0,0:0:0:0:
124,80,224034,6,0,P|188:98|270:76,1,140,2|10,0:0|0:0,0:0:0:0:
328,24,224534,1,0,0:0:0:0:
408,64,224701,2,0,P|424:104|420:152,1,70,2|2,0:0|0:0,0:0:0:0:
376,208,225034,1,10,0:0:0:0:
468,212,225201,1,0,0:0:0:0:
420,288,225367,6,0,P|353:296|298:253,1,140,2|8,0:0|0:0,0:0:0:0:
240,184,225867,1,0,0:0:0:0:
164,232,226034,2,0,P|156:272|168:308,1,70,2|2,0:0|0:0,0:0:0:0:
240,184,226367,2,0,L|232:88,1,70,8|0,0:0|0:0,0:0:0:0:
312,68,226701,6,0,P|356:88|396:88,1,70,2|0,0:0|0:0,0:0:0:0:
420,76,226951,1,0,0:0:0:0:
420,76,227034,2,0,L|428:156,1,70,10|0,0:0|0:0,0:0:0:0:
492,208,227367,2,8,L|490:243,3,35,2|0|2|0,1:2|1:0|1:2|1:0,0:0:0:0:
448,264,227701,2,8,L|451:299,3,35,2|0|2|0,1:2|1:0|1:2|1:0,0:0:0:0:
424,336,228034,6,0,P|376:316|284:324,1,140,4|8,0:0|0:0,0:0:0:0:
204,368,228534,1,0,0:0:0:0:
136,312,228701,2,0,L|128:232,1,70,2|2,0:0|0:0,0:0:0:0:
72,168,229034,2,0,L|80:88,1,70,8|0,0:0|0:0,0:0:0:0:
156,48,229367,6,0,P|208:84|292:80,1,140,2|8,0:0|0:0,0:0:0:0:
364,44,229867,1,0,0:0:0:0:
444,88,230034,2,0,P|452:140|444:184,1,70,2|2,0:0|0:0,0:0:0:0:
416,240,230367,1,8,0:0:0:0:
352,176,230534,1,0,0:0:0:0:
288,240,230701,6,0,P|225:248|149:230,1,140,2|8,0:0|0:0,0:0:0:0:
80,172,231201,1,0,0:0:0:0:
8,232,231367,2,0,P|4:272|19:310,1,70,2|2,0:0|0:0,0:0:0:0:
80,172,231701,2,0,L|76:96,1,70,8|0,0:0|0:0,0:0:0:0:
152,48,232034,6,0,P|204:80|298:66,1,140,2|8,0:0|0:0,0:0:0:0:
352,20,232534,1,0,0:0:0:0:
424,72,232701,2,0,P|428:116|420:160,1,70,2|2,0:0|0:0,0:0:0:0:
372,216,233034,1,8,0:0:0:0:
448,268,233201,1,0,0:0:0:0:
396,344,233367,6,0,P|316:352|248:336,1,140,4|8,0:0|0:0,0:0:0:0:
192,280,233867,1,0,0:0:0:0:
116,332,234034,2,0,L|44:340,1,70,2|2,0:0|0:0,0:0:0:0:
40,248,234367,2,0,L|110:241,1,70,8|0,0:0|0:0,0:0:0:0:
192,280,234701,6,0,P|198:214|149:156,1,140,2|8,0:0|0:0,0:0:0:0:
80,104,235201,1,0,0:0:0:0:
148,44,235367,2,0,L|232:52,1,70,2|2,0:0|0:0,0:0:0:0:
296,100,235701,1,8,0:0:0:0:
360,36,235867,1,0,0:0:0:0:
444,68,236034,6,0,P|468:136|452:216,1,140,2|8,0:0|0:0,0:0:0:0:
396,268,236534,1,0,0:0:0:0:
448,340,236701,2,0,P|496:344|528:336,1,70,2|2,0:0|0:0,0:0:0:0:
396,268,237034,2,0,L|320:280,1,70,8|0,0:0|0:0,0:0:0:0:
252,228,237367,6,0,P|248:192|260:156,1,70,8|4,3:0|3:0,0:0:0:0:
172,124,237701,2,0,P|176:160|164:196,1,70,4|4,3:0|3:0,0:0:0:0:
92,244,238034,2,8,L|96:280,3,35,0|0|0|0,1:0|1:0|1:0|1:0,0:0:0:0:
140,292,238367,2,8,L|136:328,3,35,0|0|0|0,1:0|1:0|1:0|1:0,0:0:0:0:
176,352,238701,6,0,P|228:336|320:336,1,140,4|8,0:0|0:0,0:0:0:0:
400,364,239201,1,0,0:0:0:0:
472,304,239367,2,0,P|480:228|472:144,1,140,2|10,0:0|0:0,0:0:0:0:
436,84,239867,1,0,0:0:0:0:
360,136,240034,6,0,P|304:144|212:124,1,140,2|8,0:0|0:0,0:0:0:0:
216,36,240534,2,0,P|272:28|364:48,1,140,0|0,0:0|0:0,0:0:0:0:
436,84,241034,1,10,0:0:0:0:
360,136,241201,1,0,0:0:0:0:
360,136,241284,1,0,0:0:0:0:
360,136,241367,6,0,P|348:208|372:284,1,140,2|8,0:0|0:0,0:0:0:0:
308,344,241867,2,0,P|236:332|160:356,1,140,0|2,0:0|0:0,0:0:0:0:
88,312,242367,2,0,L|96:232,1,70,8|0,0:0|0:0,0:0:0:0:
164,184,242701,6,0,P|204:192|244:184,1,70,2|0,0:0|0:0,0:0:0:0:
268,160,242951,1,0,0:0:0:0:
268,160,243034,1,10,0:0:0:0:
348,200,243201,2,0,L|344:248,4,35,0|0|2|0|2,0:0|0:0|1:2|1:0|1:2,0:0:0:0:
300,260,243617,2,0,L|304:308,4,35,0|10|0|2|0,1:0|1:2|1:0|1:2|1:0,0:0:0:0:
280,324,244034,6,0,P|242:328|208:320,1,70,2|0,0:1|0:0,0:0:0:0:
120,268,244701,1,0,0:0:0:0:
180,184,245034,1,0,0:0:0:0:
360,200,245367,5,8,0:0:0:0:
420,104,245534,1,8,0:0:0:0:
420,104,246034,5,8,0:0:0:0:
336,28,246201,1,8,0:0:0:0:
260,80,246367,2,0,L|256:120,3,35,0|0|0|0,1:0|1:0|1:0|1:0,0:0:0:0:
228,152,246701,6,0,L|136:144,1,70,8|0,1:2|1:0,0:0:0:0:
116,228,247034,2,0,L|208:236,1,70,8|0,0:0|1:0,0:0:0:0:
268,276,247367,2,0,P|271:310|255:354,1,70,8|0,0:0|1:0,0:0:0:0:
179,303,247701,2,0,P|176:269|192:225,1,70,8|0,0:0|0:0,0:0:0:0:
264,188,248034,6,0,L|340:196,1,70,8|8,0:0|0:0,0:0:0:0:
408,248,248367,1,8,0:0:0:0:
480,188,248534,1,8,0:0:0:0:
404,136,248701,2,0,L|412:96,3,35,8|0|8|0,1:2|1:0|1:2|1:0,0:0:0:0:
376,72,249034,2,0,L|368:32,3,35,8|0|8|0,1:2|1:0|1:2|1:0,0:0:0:0:
328,20,249367,6,0,P|296:40|220:40,1,105.000004005432,4|0,1:0|0:0,0:0:0:0:
152,24,249867,2,0,P|116:36|123:109,1,105.000004005432,0|0,0:0|0:0,0:0:0:0:
164,152,250367,2,0,P|164:217|160:248,1,78.7500030040742,0|0,0:0|0:0,0:0:0:0:
152,268,250701,5,0,0:0:0:0:
484,200,251367,2,0,P|484:134|476:86,1,105.000004005432,0|0,0:0|0:0,0:0:0:0:
332,36,252034,6,0,B|265:24|200:44|200:44|232:56,2,157.500006008148,0|0|0,0:0|0:0|0:0,0:0:0:0:
478,95,253367,2,0,P|485:147|484:200,1,105.000004005432,0|0,0:0|0:0,0:0:0:0:
380,316,254034,2,0,P|314:316|266:324,1,105.000004005432,0|0,0:0|0:0,0:0:0:0:
172,344,254701,6,0,B|122:305|135:262|135:262|128:237|128:237|156:199|138:145,1,210,0|0,0:0|0:0,0:0:0:0:
216,80,256034,6,0,B|264:108|311:87|311:87|336:92|336:92|377:73|424:96,1,210,0|0,0:0|0:0,0:0:0:0:
496,164,257367,5,0,0:0:0:0:
256,192,257451,12,0,262701,0:0:0:0:
