osu file format v14

[General]
AudioFilename: audio.mp3
AudioLeadIn: 0
PreviewTime: 55972
Countdown: 0
SampleSet: Soft
StackLeniency: 0.7
Mode: 0
LetterboxInBreaks: 0
WidescreenStoryboard: 0

[Editor]
DistanceSpacing: 1
BeatDivisor: 4
GridSize: 32
TimelineZoom: 2.3

[Metadata]
Title:Prima Stella
TitleUnicode:プリマステラ
Artist:Kano
ArtistUnicode:鹿乃
Creator:KuranteMelodii
Version:7ka's Insane
Source:
Tags:nowhere samfree ゆうゆ Yuuyu [-AKiTOSHi-] Akitoshi Underforest 7ka -Nanaka- [_-Scarlet-_] Scarlet Del05 SnowNiNo_
BeatmapID:969097
BeatmapSetID:443014

[Difficulty]
HPDrainRate:6
CircleSize:4
OverallDifficulty:8
ApproachRate:9
SliderMultiplier:1.7
SliderTickRate:1

[Events]
//Background and Video events
0,0,"wow.png",0,0
Video,-120,"primastella.avi"
//Break Periods
2,98901,108267
//Storyboard Layer 0 (Background)
//Storyboard Layer 1 (Fail)
//Storyboard Layer 2 (Pass)
//Storyboard Layer 3 (Foreground)
//Storyboard Sound Samples

[TimingPoints]
1368,333.333333333333,4,2,99,30,1,0
1368,-125,4,2,99,30,0,0
2367,-125,4,2,99,20,0,0
2534,-125,4,2,99,30,0,0
2701,-125,4,2,99,30,0,0
3367,-200,4,2,99,20,0,0
3701,-125,4,2,99,5,0,0
4034,-125,4,2,99,30,0,0
5034,-125,4,2,99,20,0,0
5367,-125,4,2,99,30,0,0
6034,-200,4,2,99,20,0,0
6534,-200,4,2,99,50,0,0
6701,-111.111111111111,4,2,99,60,0,0
10701,-111.111111111111,4,2,99,50,0,0
11034,-111.111111111111,4,2,99,60,0,0
12034,-100,4,2,99,70,0,0
21367,-83.3333333333333,4,2,99,70,0,0
21867,-100,4,2,99,70,0,0
22451,-100,4,2,99,60,0,0
22701,-166.666666666667,4,2,99,50,0,0
22784,-166.666666666667,4,2,99,5,0,0
24034,-125,4,2,99,30,0,0
33388,-125,4,2,99,5,0,0
33534,-125,4,2,99,15,0,0
33701,-125,4,2,99,30,0,0
33867,-125,4,2,99,45,0,0
34034,-125,4,2,99,60,0,0
34701,-100,4,2,99,50,0,0
35034,-100,4,2,99,60,0,0
35701,-100,4,2,99,70,0,0
35867,-100,4,2,99,60,0,0
37201,-100,4,2,99,70,0,0
37367,-100,4,2,99,60,0,0
38367,-100,4,2,99,70,0,0
38534,-100,4,2,99,60,0,0
39867,-100,4,2,99,70,0,0
40034,-100,4,2,99,60,0,0
41034,-100,4,2,99,70,0,0
41201,-100,4,2,99,60,0,0
42534,-100,4,2,99,70,0,0
42701,-100,4,2,99,60,0,0
43701,-100,4,2,99,70,0,0
43867,-100,4,2,99,60,0,0
47367,-100,4,2,99,40,0,0
47534,-100,4,2,99,50,0,0
47701,-100,4,2,99,50,0,0
48034,-100,4,2,99,60,0,0
49534,-100,4,2,99,40,0,0
49867,-100,4,2,99,50,0,0
50034,-100,4,2,99,60,0,0
50367,-100,4,2,99,80,0,0
50701,-100,4,2,99,70,0,0
54701,-100,4,2,99,60,0,0
56034,-100,4,2,99,80,0,1
65201,-100,4,2,99,60,0,1
65367,-90.9090909090909,4,2,99,80,0,1
65534,-90.9090909090909,4,2,99,60,0,0
66367,-90.9090909090909,4,2,99,70,0,0
66701,-100,4,2,99,80,0,1
76367,-100,4,2,99,70,0,1
76534,-100,4,2,99,80,0,1
77034,-100,4,2,99,70,0,0
77367,-100,4,2,99,70,0,1
77701,-100,4,2,99,60,0,1
77867,-100,4,2,99,70,0,1
78367,-100,4,2,99,60,0,1
78534,-100,4,2,99,70,0,1
79034,-100,4,2,99,60,0,1
79201,-100,4,2,99,70,0,1
79701,-100,4,2,99,60,0,1
79867,-100,4,2,99,70,0,1
81534,-100,4,2,99,50,0,1
81617,-100,4,2,99,60,0,1
81701,-100,4,2,99,70,0,1
82367,-90.9090909090909,4,2,99,70,0,1
82701,-90.9090909090909,4,2,99,70,0,0
85034,-90.9090909090909,4,2,99,50,0,0
85367,-100,4,2,99,70,0,1
85534,-100,4,2,99,35,0,1
86034,-100,4,2,99,40,0,1
86201,-100,4,2,99,45,0,1
86367,-100,4,2,99,50,0,1
86534,-100,4,2,99,55,0,1
86701,-100,4,2,99,60,0,1
86867,-100,4,2,99,50,0,1
87034,-100,4,2,99,70,0,1
87367,-100,4,2,99,50,0,1
88034,-100,4,2,99,70,0,0
93701,-100,4,2,99,50,0,0
93867,-100,4,2,99,70,0,0
96367,-83.3333333333333,4,2,99,70,0,0
96617,-83.3333333333333,4,2,99,60,0,0
97367,-100,4,2,99,70,0,0
108867,-125,4,2,99,50,0,0
109367,-100,4,2,99,60,0,0
109451,-100,4,2,99,70,0,0
119534,-100,4,2,99,60,0,0
120034,-100,4,2,99,70,0,0
122034,-100,4,2,99,40,0,0
122201,-100,4,2,99,50,0,0
122367,-100,4,2,99,60,0,0
122701,-100,4,2,99,70,0,0
124201,-100,4,2,99,40,0,0
124534,-100,4,2,99,50,0,0
124701,-100,4,2,99,60,0,0
125034,-125,4,2,99,60,0,0
125367,-125,4,2,99,70,0,0
126701,-125,4,2,99,50,0,0
128034,-100,4,2,99,70,0,0
129701,-100,4,2,99,30,0,0
130034,-100,4,2,99,50,0,0
130701,-100,4,2,99,80,0,1
139867,-100,4,2,99,60,0,1
140034,-90.9090909090909,4,2,99,80,0,1
140201,-90.9090909090909,4,2,99,70,0,0
141367,-100,4,2,99,80,0,1
151034,-100,4,2,99,70,0,1
151201,-100,4,2,99,80,0,1
151701,-100,4,2,99,70,0,0
152034,-100,4,2,99,70,0,1
152367,-100,4,2,99,60,0,1
152534,-100,4,2,99,70,0,1
153034,-100,4,2,99,60,0,1
153201,-100,4,2,99,70,0,1
153701,-100,4,2,99,60,0,1
153867,-100,4,2,99,70,0,1
154367,-100,4,2,99,60,0,1
154534,-100,4,2,99,70,0,1
156201,-100,4,2,99,50,0,1
156284,-100,4,2,99,60,0,1
156367,-100,4,2,99,70,0,1
157034,-90.9090909090909,4,2,99,70,0,1
157367,-90.9090909090909,4,2,99,70,0,0
159701,-90.9090909090909,4,2,99,50,0,0
160034,-100,4,2,99,70,0,0
161701,-100,4,2,99,50,0,0
161867,-100,4,2,99,70,0,0
165201,-100,4,2,99,60,0,0
165284,-100,4,2,99,70,0,0
165367,-100,4,2,99,80,0,0
165451,-100,4,2,99,60,0,0
167701,-100,4,2,99,70,0,0
168201,-100,4,2,99,30,0,0
168367,-100,4,2,99,40,0,0
168701,-100,4,2,99,50,0,0
169034,-100,4,2,99,60,0,0
170034,-100,4,2,99,50,0,0
170701,-100,4,2,99,80,0,0
171034,-100,4,2,99,70,0,0
173034,-100,4,2,99,60,0,0
173201,-100,4,2,99,70,0,0
180367,-83.3333333333333,4,2,99,70,0,0
180701,-100,4,2,99,60,0,0
180784,-100,4,2,99,70,0,0
186701,-83.3333333333333,4,2,99,70,0,0
186784,-83.3333333333333,4,2,99,30,0,0
187201,-83.3333333333333,4,2,99,70,0,0
187534,-83.3333333333333,4,2,99,50,0,0
187701,-83.3333333333333,4,2,99,80,0,0
188034,-100,4,2,99,70,0,0
188479,-125,4,2,99,60,0,0
188923,-166.666666666667,4,2,99,50,0,0
189367,-111.111111111111,4,2,99,50,0,0
190701,-111.111111111111,4,2,99,30,0,0
190867,-111.111111111111,4,2,99,50,0,0
192034,-111.111111111111,4,2,99,40,0,0
192201,-111.111111111111,4,2,99,50,0,0
193367,-142.857142857143,4,2,99,30,0,0
193451,-142.857142857143,4,2,99,40,0,0
193617,-142.857142857143,4,2,99,30,0,0
193951,-142.857142857143,4,2,99,20,0,0
194284,-142.857142857143,4,2,99,10,0,0
194784,-142.857142857143,4,2,99,5,0,0
196034,-111.111111111111,4,2,99,60,0,0
197367,-111.111111111111,4,2,99,40,0,0
197867,-111.111111111111,4,2,99,60,0,0
198034,-111.111111111111,4,2,99,50,0,0
198701,-111.111111111111,4,2,99,70,0,0
200034,-111.111111111111,4,2,99,60,0,0
200951,-111.111111111111,4,2,99,5,0,0
201201,-111.111111111111,4,2,99,60,0,0
202701,-111.111111111111,4,2,99,50,0,0
203617,-111.111111111111,4,2,99,5,0,0
203867,-111.111111111111,4,2,99,60,0,0
205534,-111.111111111111,4,2,99,60,0,0
205867,-111.111111111111,4,2,99,50,0,0
206034,-111.111111111111,4,2,99,60,0,0
206367,-125,4,2,99,50,0,0
206534,-125,4,2,99,30,0,0
206701,-100,4,2,99,70,0,0
213367,-100,4,2,99,40,0,0
213701,-90.9090909090909,4,2,99,45,0,0
214034,-83.3333333333333,4,2,99,50,0,0
214367,-76.9230769230769,4,2,99,55,0,0
214701,-100,4,2,99,60,0,0
215701,-83.3333333333333,4,2,99,65,0,0
216034,-83.3333333333333,4,2,99,80,0,0
216367,-83.3333333333333,4,2,99,70,0,0
216701,-83.3333333333333,4,2,99,60,0,0
217367,-90.9090909090909,4,2,99,80,0,1
226867,-90.9090909090909,4,2,99,70,0,0
228034,-90.9090909090909,4,2,99,80,0,1
237701,-90.9090909090909,4,2,99,70,0,1
237867,-90.9090909090909,4,2,99,80,0,1
238367,-90.9090909090909,4,2,99,70,0,0
238701,-100,4,2,99,70,0,1
239034,-100,4,2,99,60,0,1
239201,-100,4,2,99,70,0,1
239701,-100,4,2,99,60,0,1
239867,-100,4,2,99,70,0,1
240367,-100,4,2,99,60,0,1
240534,-100,4,2,99,70,0,1
241034,-100,4,2,99,60,0,1
241201,-100,4,2,99,70,0,1
242867,-100,4,2,99,50,0,1
242951,-100,4,2,99,60,0,1
243034,-100,4,2,99,70,0,1
243701,-90.9090909090909,4,2,99,70,0,1
244034,-90.9090909090909,4,2,99,70,0,0
246367,-90.9090909090909,4,2,99,50,0,0
246701,-100,4,2,99,70,0,1
246867,-100,4,2,99,35,0,1
247367,-100,4,2,99,40,0,1
247534,-100,4,2,99,45,0,1
247701,-100,4,2,99,50,0,1
247867,-100,4,2,99,55,0,1
248034,-100,4,2,99,60,0,1
248201,-100,4,2,99,50,0,1
248367,-100,4,2,99,70,0,1
248701,-100,4,2,99,50,0,1
249034,-100,4,2,99,40,0,1
249201,-100,4,2,99,30,0,1
249367,-166.666666666667,4,2,99,30,0,0
254701,-200,4,2,99,20,0,0
254784,-200,4,2,99,5,0,0
256034,-200,4,2,99,20,0,0
256117,-200,4,2,99,5,0,0
257367,-200,4,2,99,30,0,0
257451,-200,4,2,99,30,0,0
258701,-200,4,2,99,20,0,0
260034,-200,4,2,99,10,0,0
260701,-200,4,2,99,5,0,0

[Colours]
Combo1 : 19,137,255
Combo2 : 0,64,128
Combo3 : 0,0,255
Combo4 : 0,0,160

[HitObjects]
432,64,1368,6,0,P|424:120|416:208,1,136,8|0,0:1|0:0,0:0:0:0:
361,287,1867,2,0,B|313:271|313:271|215:302,1,136,2|0,0:0|0:0,0:0:0:0:
136,338,2367,1,2,0:0:0:0:
162,246,2534,2,0,L|152:191,1,34
152,180,2701,5,8,0:1:0:0:
150,155,3367,2,0,L|132:294,1,127.5,2|0,0:1|0:0,0:0:0:0:
109,316,4034,6,0,L|96:177,1,136,8|0,0:1|0:0,0:0:0:0:
153,92,4534,2,0,B|206:114|206:114|299:84,1,136,2|0,0:0|0:0,0:0:0:0:
376,33,5034,1,2,0:1:0:0:
376,33,5367,5,8,0:1:0:0:
463,211,6034,2,0,L|447:302,1,85,12|0,0:3|3:0,0:0:0:0:
274,374,6534,1,8,0:0:0:0:
274,374,6617,1,8,0:0:0:0:
274,374,6701,6,0,L|258:281,1,76.4999976654053,4|0,3:1|0:0,0:0:0:0:
371,192,7034,2,0,L|357:279,1,76.4999976654053
212,207,7367,1,0,3:0:0:0:
345,104,7534,1,0,0:0:0:0:
212,207,7701,1,0,0:0:0:0:
345,104,7867,1,0,0:0:0:0:
236,8,8034,6,0,L|224:109,1,76.4999976654053,4|0,3:1|0:0,0:0:0:0:
60,65,8367,2,0,L|73:158,1,76.4999976654053
227,83,8701,1,0,3:0:0:0:
154,227,8867,1,2,0:0:0:0:
227,83,9034,1,0,0:0:0:0:
154,227,9201,1,2,0:0:0:0:
330,157,9367,6,0,L|316:259,1,76.4999976654053,4|0,3:1|0:0,0:0:0:0:
241,354,9701,2,0,L|228:248,1,76.4999976654053,0|0,3:0|0:0,0:0:0:0:
408,293,10034,2,0,P|381:320|345:333,1,76.4999976654053,0|0,3:0|0:0,0:0:0:0:
154,227,10367,2,0,P|180:199|216:186,1,76.4999976654053,0|0,3:0|0:0,0:0:0:0:
335,254,10701,5,0,1:0:0:0:
376,94,10867,1,0,1:0:0:0:
216,186,11034,1,0,1:0:0:0:
270,16,11201,1,0,1:0:0:0:
356,173,11367,1,0,1:0:0:0:
142,90,11534,1,8,1:2:0:0:
142,90,12034,6,0,B|136:123|123:144|123:144|140:193|140:193|123:275,1,170,2|8,0:3|0:0,0:0:0:0:
88,369,12534,1,0,0:0:0:0:
88,369,12617,1,8,0:0:0:0:
88,369,12701,2,0,P|118:341|178:321,1,85,0|0,3:0|0:3,0:0:0:0:
294,363,13034,2,0,P|305:311|312:266,1,85,8|0,0:0|0:0,0:0:0:0:
292,123,13367,6,0,P|336:190|429:190,1,170,0|8,3:0|0:0,0:0:0:0:
420,195,13867,1,0,0:0:0:0:
292,123,14034,2,0,P|247:107|176:102,1,85,2|0,3:2|3:0,0:0:0:0:
58,153,14367,1,10,0:0:0:0:
123,24,14534,1,0,3:0:0:0:
123,24,14617,1,8,0:0:0:0:
123,24,14701,6,0,L|144:191,1,127.5,2|0,3:2|0:0,0:0:0:0:
171,165,15034,2,0,L|148:301,1,127.5,8|0,0:0|0:0,0:0:0:0:
141,326,15367,1,0,3:0:0:0:
50,231,15534,1,0,3:0:0:0:
235,287,15701,2,0,P|278:280|344:244,1,85,10|2,0:0|0:0,0:0:0:0:
450,354,16034,6,0,P|457:291|467:180,1,170,2|10,3:2|0:0,0:0:0:0:
316,264,16534,1,0,0:0:0:0:
316,264,16617,1,8,0:0:0:0:
316,264,16701,1,2,3:2:0:0:
466,184,16867,1,0,3:0:0:0:
370,118,17034,2,0,P|337:125|294:141,1,42.5,10|0,0:0|0:0,0:0:0:0:
233,157,17201,2,0,P|190:147|160:130,1,42.5,0|0,3:0|0:0,0:0:0:0:
104,83,17367,6,0,P|100:124|79:202,1,85,2|2,3:2|0:0,0:0:0:0:
22,314,17701,2,0,L|4:230,1,85,8|2,0:0|0:0,0:0:0:0:
4,230,17951,1,8,0:0:0:0:
4,230,18034,1,0,3:0:0:0:
169,278,18201,1,0,3:0:0:0:
104,83,18367,2,0,L|89:180,1,85,10|0,0:0|0:0,0:0:0:0:
156,371,18701,6,0,B|180:350|214:344|214:344|238:307|238:307|281:304|315:283,1,170,2|8,3:2|0:0,0:0:0:0:
414,318,19201,2,0,P|399:299|388:213,1,85,2|0,0:0|3:0,0:0:0:0:
449,134,19534,1,0,3:0:0:0:
285,178,19701,2,0,L|182:155,1,85,10|2,0:0|0:0,0:0:0:0:
74,61,20034,6,0,B|120:84|120:84|151:55|214:51,1,127.5,2|0,3:2|0:0,0:0:0:0:
228,33,20367,2,0,L|349:62,1,85,8|0,0:0|0:0,0:0:0:0:
343,63,20617,1,8,0:0:0:0:
343,63,20701,1,2,3:2:0:0:
285,178,20867,1,0,3:0:0:0:
446,124,21034,2,0,L|436:240,1,85,10|0,0:0|0:0,0:0:0:0:
476,341,21367,6,0,P|418:292|339:294,1,152.999995330811,4|0,3:2|0:0,0:0:0:0:
256,339,21701,1,4,1:0:0:0:
335,199,21867,2,0,L|326:131,1,42.5
242,62,22034,2,0,L|235:136,1,42.5,0|0,3:0|0:0,0:0:0:0:
216,222,22201,5,8,0:0:0:0:
182,196,22284,1,8,0:0:0:0:
140,187,22367,1,8,0:0:0:0:
98,195,22451,5,8,0:0:0:0:
83,163,22534,1,8,0:0:0:0:
72,135,22617,1,8,0:0:0:0:
64,109,22701,6,0,B|56:78|56:78|117:105|168:86|168:86|228:131|271:99|271:99|240:58,1,305.999990661621,12|0,3:1|0:0,0:0:0:0:
243,61,24034,6,0,P|237:113|228:212,1,136,2|0,0:0|0:0,0:0:0:0:
166,273,24534,1,0,0:0:0:0:
166,273,24701,2,0,L|148:200,1,68,2|0,0:0|0:0,0:0:0:0:
72,257,25034,2,0,P|70:300|51:341,1,68
145,371,25367,2,0,L|299:344,1,136,2|0,0:0|0:0,0:0:0:0:
472,309,26034,2,0,L|331:287,1,136,2|0,0:0|0:0,0:0:0:0:
337,288,26701,6,0,P|326:241|324:190,1,68,2|0,0:0|0:0,0:0:0:0:
401,156,27034,2,0,P|412:186|415:224,2,68,0|0|2,0:0|0:0|0:0,0:0:0:0:
309,117,27534,2,0,P|250:126|173:135,1,136
99,187,28034,2,0,P|133:123|128:41,2,136,2|0|2,0:0|0:0|0:0,0:0:0:0:
34,99,28867,1,0,0:0:0:0:
18,207,29034,2,0,P|31:245|42:297,1,68
0,357,29367,6,0,P|53:318|140:317,1,136,2|0,0:0|0:0,0:0:0:0:
203,353,29867,1,0,0:0:0:0:
214,259,30034,2,0,L|224:184,1,68,2|0,0:0|0:0,0:0:0:0:
307,265,30367,2,0,L|320:364,1,68
392,244,30701,2,0,P|360:189|278:179,2,136,2|0|2,0:0|0:0|0:0,0:0:0:0:
428,81,31701,5,0,0:0:0:0:
396,68,31867,1,0,0:0:0:0:
363,56,32034,2,0,P|298:46|223:58,1,136,2|0,0:0|0:0,0:0:0:0:
141,108,32534,2,0,P|108:95|83:68,1,68,0|2,0:0|0:0,0:0:0:0:
75,8,32867,2,0,L|58:164,1,136
30,223,33367,6,2,P|-26:137|130:193,1,408,10|0,0:1|0:0,0:0:0:0:
132,199,34701,6,0,B|172:169|172:169|308:210,1,170,2|0,3:0|3:0,0:0:0:0:
368,137,35201,1,0,0:0:0:0:
342,299,35367,2,0,P|361:258|366:196,1,85,0|0,3:0|0:0,0:0:0:0:
193,260,35701,1,0,1:0:0:0:
276,119,35867,1,0,0:0:0:0:
193,260,36034,6,0,P|200:300|211:364,1,85,2|0,3:2|0:0,0:0:0:0:
86,186,36367,2,0,P|79:231|70:305,1,85,0|0,3:2|0:0,0:0:0:0:
171,97,36701,1,2,3:2:0:0:
171,97,36867,2,0,P|218:112|276:116,1,85,0|0,0:0|3:0,0:0:0:0:
395,37,37201,1,0,1:0:0:0:
425,243,37367,6,0,P|370:188|270:194,1,170,0|0,3:0|3:0,0:0:0:0:
323,311,37867,1,0,0:0:0:0:
170,268,38034,2,0,P|162:313|156:362,1,85,0|0,3:0|0:0,0:0:0:0:
98,208,38367,1,0,1:0:0:0:
157,352,38534,1,0,0:0:0:0:
28,263,38701,6,0,P|26:220|18:165,1,85,0|2,3:0|0:0,0:0:0:0:
78,46,39034,1,2,3:2:0:0:
78,46,39201,1,2,0:0:0:0:
20,178,39367,1,0,3:0:0:0:
170,104,39534,2,0,P|213:114|271:126,1,85,0|0,0:0|3:0,0:0:0:0:
354,41,39867,1,0,1:0:0:0:
435,149,40034,6,0,P|424:224|409:351,1,170,4|0,3:1|3:0,0:0:0:0:
286,210,40534,1,0,0:0:0:0:
221,283,40701,2,0,P|262:294|304:352,1,85,0|0,3:0|0:0,0:0:0:0:
133,343,41034,2,0,P|92:321|65:262,1,85,0|0,1:0|0:0,0:0:0:0:
1,182,41367,6,0,P|85:213|176:218,1,170,0|0,3:0|3:0,0:0:0:0:
289,174,41867,1,2,0:0:0:0:
243,360,42034,2,0,P|263:307|268:267,1,85,2|0,3:2|0:0,0:0:0:0:
205,116,42367,1,0,3:0:0:0:
387,221,42534,1,0,1:0:0:0:
326,46,42701,6,0,P|306:99|301:139,1,85,0|0,3:1|0:0,0:0:0:0:
210,201,43034,2,0,P|175:176|127:169,1,85,0|0,3:0|0:0,0:0:0:0:
5,246,43367,1,0,3:0:0:0:
42,92,43534,1,0,0:0:0:0:
89,260,43701,2,0,L|67:369,1,85,0|0,1:0|0:0,0:0:0:0:
24,165,44034,5,0,3:0:0:0:
72,343,44201,1,2,0:0:0:0:
210,240,44367,2,0,P|251:251|307:267,1,85,2|2,3:2|0:0,0:0:0:0:
413,292,44701,1,0,3:0:0:0:
236,360,44867,1,4,1:0:0:0:
370,209,45034,5,0,1:0:0:0:
377,198,45117,1,0,1:0:0:0:
382,186,45201,1,0,1:0:0:0:
386,174,45284,1,0,1:0:0:0:
390,161,45367,6,0,P|406:100|402:51,1,85,4|0,0:0|3:0,0:0:0:0:
224,142,45701,1,0,1:0:0:0:
312,4,45867,2,0,L|312:128,1,85,2|0,3:2|0:0,0:0:0:0:
178,37,46201,1,10,0:0:0:0:
276,234,46367,2,0,P|215:177|111:181,1,170,4|0,3:2|0:0,0:0:0:0:
30,238,46867,5,8,0:0:0:0:
30,238,46951,1,8,0:0:0:0:
30,238,47034,2,0,P|21:197|15:134,1,85,8|0,0:0|1:0,0:0:0:0:
0,317,47367,1,8,0:3:0:0:
132,172,47534,1,4,0:3:0:0:
61,374,47701,1,4,3:0:0:0:
152,90,48034,5,4,3:2:0:0:
112,250,48201,1,0,3:0:0:0:
260,185,48367,1,8,0:0:0:0:
112,250,48534,2,0,P|159:263|205:277,1,85,2|0,3:2|0:0,0:0:0:0:
337,310,48867,1,10,0:0:0:0:
393,105,49034,2,0,P|338:172|245:181,1,170,4|0,3:2|0:0,0:0:0:0:
132,158,49534,5,8,0:3:0:0:
132,158,49617,1,8,0:3:0:0:
132,158,49701,2,0,L|145:251,1,85,8|4,0:3|0:3,0:0:0:0:
294,93,50034,1,0,1:0:0:0:
132,158,50201,1,0,3:0:0:0:
196,19,50367,1,4,3:1:0:0:
196,19,50701,6,0,L|207:126,1,85,4|0,3:2|0:0,0:0:0:0:
233,222,51034,2,0,P|196:200|155:192,1,85,0|0,3:0|0:0,0:0:0:0:
46,242,51367,2,0,L|134:276,1,85,0|0,3:0|0:0,0:0:0:0:
210,340,51701,2,0,P|232:288|231:246,1,85,0|0,3:0|0:0,0:0:0:0:
222,154,52034,6,0,L|309:188,1,85,0|0,3:0|0:0,0:0:0:0:
419,257,52367,2,0,P|436:217|442:169,1,85,0|0,3:0|0:0,0:0:0:0:
389,68,52701,2,0,L|281:97,1,85,0|0,3:0|0:0,0:0:0:0:
161,47,53034,2,0,P|178:87|184:135,1,85,0|0,3:0|0:0,0:0:0:0:
146,245,53367,6,0,L|300:201,1,127.5,4|0,3:2|0:0,0:0:0:0:
302,198,53701,1,0,3:0:0:0:
389,68,53867,1,8,0:0:0:0:
437,233,54034,1,2,3:2:0:0:
389,68,54201,1,8,0:0:0:0:
359,276,54367,1,2,3:2:0:0:
305,98,54534,1,8,0:0:0:0:
146,245,54701,5,2,3:1:0:0:
146,245,56034,6,0,B|203:252|203:252|227:250|252:234|252:234|289:238|329:262,1,170,2|8,0:3|0:0,0:0:0:0:
446,318,56534,1,2,0:0:0:0:
446,318,56617,1,8,0:0:0:0:
446,318,56701,1,0,3:0:0:0:
412,161,56867,1,0,3:0:0:0:
309,251,57034,2,0,P|264:235|214:228,1,85,10|0,0:0|0:0,0:0:0:0:
100,333,57367,6,0,P|53:283|52:193,1,127.5,2|0,3:2|0:0,0:0:0:0:
55,192,57701,1,8,0:0:0:0:
146,123,57867,2,0,P|188:139|247:146,1,85,2|0,0:0|3:0,0:0:0:0:
370,82,58201,1,0,3:0:0:0:
309,251,58367,1,8,0:0:0:0:
463,144,58534,1,0,3:0:0:0:
463,144,58617,1,8,0:0:0:0:
463,144,58701,6,0,L|450:265,1,85,2|0,3:2|0:0,0:0:0:0:
286,171,59034,1,8,0:0:0:0:
367,42,59201,1,2,0:0:0:0:
367,42,59284,1,8,0:0:0:0:
367,42,59367,2,0,L|376:145,1,85,0|0,3:0|3:0,0:0:0:0:
243,90,59701,2,0,P|189:116|108:120,1,127.5,8|0,0:0|0:0,0:0:0:0:
86,108,60034,6,0,P|77:165|73:204,1,85,2|0,3:2|0:0,0:0:0:0:
154,351,60367,2,0,P|162:295|163:261,1,85,10|0,0:0|0:0,0:0:0:0:
161,230,60617,1,8,0:0:0:0:
161,230,60701,1,0,3:0:0:0:
40,313,60867,1,0,3:0:0:0:
245,251,61034,2,0,L|340:282,1,85,10|0,0:0|3:0,0:0:0:0:
425,367,61367,6,0,P|460:289|455:197,1,170,4|8,3:2|0:0,0:0:0:0:
372,32,61867,1,2,0:0:0:0:
245,75,62034,2,0,P|264:136|250:184,1,85,0|0,3:0|3:0,0:0:0:0:
161,230,62367,2,0,P|217:236|276:285,1,127.5,10|0,0:0|0:0,0:0:0:0:
268,322,62701,6,0,L|355:298,1,85,2|0,3:2|0:0,0:0:0:0:
478,229,63034,2,0,L|497:314,1,85,10|0,0:0|0:0,0:0:0:0:
366,132,63367,2,0,L|359:231,1,85,2|0,3:2|3:0,0:0:0:0:
473,52,63701,2,0,L|492:154,1,85,10|0,0:0|3:0,0:0:0:0:
421,318,64034,6,0,B|406:295|384:287|384:287|261:323,1,170,4|8,3:2|0:0,0:0:0:0:
125,261,64534,1,2,0:0:0:0:
237,189,64701,2,0,P|246:139|250:74,1,85,4|0,3:2|3:0,0:0:0:0:
87,144,65034,1,8,0:0:0:0:
216,36,65201,1,8,0:0:0:0:
216,36,65284,1,8,0:0:0:0:
216,36,65367,6,0,L|331:60,1,93.5000028533936,2|10,3:0|0:0,0:0:0:0:
422,106,65701,2,0,L|437:172,1,46.7500014266968,2|0,3:2|0:0,0:0:0:0:
478,228,65867,2,0,L|464:280,1,46.7500014266968,10|8,0:0|0:0,0:0:0:0:
369,332,66034,2,0,L|274:312,1,93.5000028533936,4|0,0:3|3:0,0:0:0:0:
101,354,66367,5,0,1:0:0:0:
118,320,66451,1,0,1:0:0:0:
125,283,66534,1,0,1:0:0:0:
118,246,66617,1,0,1:0:0:0:
100,216,66701,6,0,B|75:176|72:95,1,85,2|0,0:3|0:0,0:0:0:0:
18,290,67034,1,8,0:0:0:0:
172,149,67201,1,2,0:0:0:0:
172,149,67284,1,8,0:0:0:0:
172,149,67367,2,0,P|216:166|269:173,1,85,0|0,3:0|3:0,0:0:0:0:
401,88,67701,2,0,P|411:141|420:201,1,85,10|0,0:0|0:0,0:0:0:0:
479,297,68034,6,0,P|410:246|317:261,1,170,2|8,3:2|0:0,0:0:0:0:
202,321,68534,1,2,0:0:0:0:
202,321,68617,1,8,0:0:0:0:
202,321,68701,2,0,L|114:297,1,85,0|0,3:0|3:0,0:0:0:0:
11,218,69034,2,0,P|57:209|93:199,1,85,8|0,0:0|3:0,0:0:0:0:
201,233,69367,6,0,P|208:186|218:85,1,127.5,2|0,3:2|0:0,0:0:0:0:
221,70,69701,1,8,0:0:0:0:
88,29,69867,1,2,0:0:0:0:
88,29,69951,1,8,0:0:0:0:
88,29,70034,2,0,L|103:127,1,85,0|0,3:0|3:0,0:0:0:0:
221,70,70367,2,0,P|289:66|340:28,1,127.5,8|0,0:0|0:0,0:0:0:0:
345,2,70701,6,0,L|329:102,1,85,2|0,3:2|0:0,0:0:0:0:
244,260,71034,2,0,L|230:168,1,85,8|2,0:0|0:0,0:0:0:0:
226,143,71284,1,8,0:0:0:0:
226,143,71367,1,0,3:0:0:0:
345,236,71534,1,0,3:0:0:0:
126,176,71701,2,0,P|108:233|115:284,1,85,10|0,1:2|3:0,0:0:0:0:
241,368,72034,6,0,B|293:340|293:340|351:353|351:353|384:351|407:334,1,170,4|8,0:0|0:0,0:0:0:0:
502,162,72534,1,2,0:0:0:0:
502,162,72617,1,8,0:0:0:0:
502,162,72701,1,2,3:2:0:0:
345,236,72867,1,0,3:0:0:0:
424,112,73034,2,0,P|418:157|423:201,1,85,10|0,0:0|0:0,0:0:0:0:
495,47,73367,6,0,B|309:86,1,170,2|8,3:2|0:0,0:0:0:0:
186,138,73867,1,2,0:0:0:0:
186,138,73951,1,8,0:0:0:0:
186,138,74034,2,0,P|165:100|168:48,1,85,0|0,3:0|3:0,0:0:0:0:
269,149,74367,2,0,B|248:289,1,127.5,8|8,0:0|0:0,0:0:0:0:
164,344,74701,6,0,L|151:261,1,85,4|0,3:2|0:0,0:0:0:0:
356,182,75034,2,0,L|336:296,1,85,8|0,0:0|0:0,0:0:0:0:
284,66,75367,1,2,3:2:0:0:
250,275,75534,1,0,3:0:0:0:
174,137,75701,2,0,P|216:156|287:172,1,85,10|2,0:0|0:0,0:0:0:0:
420,109,76034,5,4,3:2:0:0:
467,179,76201,1,0,3:0:0:0:
456,28,76367,1,4,0:3:0:0:
378,188,76534,1,0,3:0:0:0:
241,80,76701,2,0,P|199:61|128:45,1,85,10|0,0:0|0:0,0:0:0:0:
45,89,77034,6,0,P|37:67|31:29,1,42.5,10|8,0:0|0:0,0:0:0:0:
118,149,77201,2,0,P|114:179|107:208,1,42.5,8|8,0:0|0:0,0:0:0:0:
19,297,77367,6,0,P|100:289|158:367,1,170,2|0,0:3|1:0,0:0:0:0:
364,313,77867,2,0,P|282:321|228:260,1,170,2|0,0:0|0:0,0:0:0:0:
418,236,78367,2,0,P|446:282|447:346,1,85,0|0,1:0|0:0,0:0:0:0:
506,215,78701,6,0,P|451:153|370:162,1,170,2|0,3:2|1:0,0:0:0:0:
228,261,79201,2,0,L|46:229,1,170,2|0,0:0|0:0,0:0:0:0:
149,86,79701,2,0,P|165:133|159:177,1,85,0|0,1:0|0:0,0:0:0:0:
73,33,80034,6,0,L|268:68,1,170,4|0,0:0|1:0,0:0:0:0:
419,18,80534,2,0,P|371:88|411:189,1,170,2|0,0:0|0:0,0:0:0:0:
480,262,81034,2,0,P|502:221|507:172,1,85,0|0,1:0|0:0,0:0:0:0:
380,246,81367,2,0,L|365:349,1,85,4|0,0:0|1:0,0:0:0:0:
364,367,81617,1,0,1:0:0:0:
364,367,81701,1,0,3:0:0:0:
255,205,81867,5,0,1:0:0:0:
255,205,81951,1,0,1:0:0:0:
255,205,82034,2,0,L|247:153,1,42.5,0|0,1:0|0:0,0:0:0:0:
139,81,82201,2,0,L|127:153,1,42.5,2|0,1:2|0:0,0:0:0:0:
211,342,82367,6,0,L|221:289,1,46.7500014266968,0|0,1:0|0:0,0:0:0:0:
69,194,82534,2,0,L|79:249,1,46.7500014266968,0|0,1:0|0:0,0:0:0:0:
98,380,82701,5,14,3:1:0:0:
98,380,84034,5,0,1:0:0:0:
305,303,84201,1,0,1:0:0:0:
322,295,84701,5,0,1:0:0:0:
101,205,84867,1,0,1:0:0:0:
250,110,85034,1,0,1:0:0:0:
247,133,85117,1,0,1:0:0:0:
243,156,85201,1,0,1:0:0:0:
240,179,85284,1,0,1:0:0:0:
235,200,85367,6,0,L|318:183,1,85,4|8,0:0|0:0,0:0:0:0:
460,129,85701,2,0,L|448:213,1,85,8|8,0:0|0:0,0:0:0:0:
375,50,86034,5,8,0:0:0:0:
375,50,86201,1,8,0:0:0:0:
345,199,86367,1,8,0:0:0:0:
345,199,86534,1,8,0:0:0:0:
460,129,86701,5,8,1:2:0:0:
267,90,86867,1,8,1:2:0:0:
333,274,87034,1,8,1:2:0:0:
371,73,87201,1,8,1:2:0:0:
179,178,87367,5,0,1:0:0:0:
158,173,87451,1,0,1:0:0:0:
137,168,87534,1,0,1:0:0:0:
116,163,87617,1,0,1:0:0:0:
95,158,87701,2,0,L|37:142,3,42.5,0|0|0|0,1:0|1:0|1:0|1:0,0:0:0:0:
30,115,88034,6,0,B|19:161|19:161|32:212|32:212|31:246|20:268|18:289,1,170,2|8,0:3|0:0,0:0:0:0:
102,371,88534,1,0,0:0:0:0:
183,284,88701,2,0,L|299:311,1,85,0|0,3:0|3:0,0:0:0:0:
425,266,89034,1,8,0:0:0:0:
359,374,89201,1,0,0:0:0:0:
425,266,89367,6,0,P|435:215|437:167,1,85,0|0,3:0|0:0,0:0:0:0:
254,182,89701,2,0,L|372:215,1,85,8|0,0:0|0:0,0:0:0:0:
263,92,90034,2,0,L|161:121,1,85,2|0,3:2|3:0,0:0:0:0:
38,55,90367,1,10,0:0:0:0:
107,156,90534,1,0,3:0:0:0:
107,156,90617,1,8,0:0:0:0:
107,156,90701,6,0,L|85:326,1,170,2|8,3:2|0:0,0:0:0:0:
0,225,91201,1,0,0:0:0:0:
0,225,91284,1,8,0:0:0:0:
0,225,91367,1,0,3:0:0:0:
82,348,91534,1,0,3:0:0:0:
194,265,91701,2,0,P|233:285|283:297,1,85,10|2,0:0|0:0,0:0:0:0:
393,362,92034,6,0,P|405:321|416:241,1,85,2|0,3:2|3:0,0:0:0:0:
329,153,92367,1,8,1:2:0:0:
236,199,92534,2,0,P|209:191|192:180,1,42.5,2|0,3:2|0:0,0:0:0:0:
142,117,92701,2,0,P|96:131|29:142,1,85,2|0,0:3|1:0,0:0:0:0:
46,155,92951,1,0,1:0:0:0:
36,174,93034,1,0,1:0:0:0:
33,194,93117,1,0,1:0:0:0:
37,214,93201,1,0,1:0:0:0:
49,231,93284,1,0,1:0:0:0:
60,248,93367,6,0,P|43:295|38:365,1,85,2|0,3:0|3:0,0:0:0:0:
224,311,93701,1,4,1:3:0:0:
117,191,93867,2,0,B|156:229|156:229|292:199,1,170,4|0,3:2|3:0,0:0:0:0:
348,366,94367,1,8,1:2:0:0:
348,366,94701,6,0,B|372:188,1,170,4|8,3:2|0:0,0:0:0:0:
248,43,95201,2,0,L|258:144,1,85,2|0,0:0|3:0,0:0:0:0:
203,279,95534,1,0,3:0:0:0:
371,197,95701,1,10,0:0:0:0:
256,127,95867,1,0,3:0:0:0:
256,127,95951,1,8,0:0:0:0:
256,127,96034,6,0,L|170:149,1,85,4|0,0:0|0:0,0:0:0:0:
279,245,96367,2,0,L|441:292,1,152.999995330811,2|8,1:3|0:0,0:0:0:0:
483,222,96701,2,0,P|489:198|494:161,1,50.9999984436036,8|0,1:0|1:0,0:0:0:0:
424,100,96867,2,0,L|370:112,1,50.9999984436036,0|0,1:0|1:0,0:0:0:0:
256,127,97034,1,0,1:0:0:0:
231,119,97117,1,0,1:0:0:0:
206,111,97201,1,0,3:0:0:0:
181,103,97284,1,4,0:3:0:0:
160,98,97367,6,0,P|115:121|93:266,1,170,2|0,3:3|0:0,0:0:0:0:
187,333,97867,1,0,0:0:0:0:
187,333,97951,1,0,0:0:0:0:
187,333,98034,2,0,L|237:313,3,42.5
321,342,98367,2,0,L|384:357,3,42.5
458,302,98701,5,6,3:1:0:0:
400,91,108867,6,0,P|368:75|344:43,2,68,2|2|2,3:2|0:0|3:2,0:0:0:0:
342,170,109367,6,0,L|166:138,1,170,2|8,3:0|0:0,0:0:0:0:
28,181,109867,1,2,0:0:0:0:
102,95,110034,2,0,P|113:53|112:10,1,85,0|0,3:0|3:0,0:0:0:0:
28,181,110367,1,0,1:0:0:0:
174,139,110534,6,0,L|342:170,1,170,2|2,0:0|0:0,0:0:0:0:
321,56,111034,1,0,1:0:0:0:
443,162,111201,1,2,0:0:0:0:
443,162,111284,1,0,0:0:0:0:
443,162,111367,2,0,P|426:210|413:272,1,85,2|0,3:2|3:0,0:0:0:0:
409,363,111701,1,0,1:0:0:0:
345,271,111867,2,0,P|322:292|288:310,1,42.5,2|0,3:2|0:0,0:0:0:0:
225,347,112034,6,0,P|155:300|57:308,1,170,2|8,3:2|0:0,0:0:0:0:
11,227,112534,2,0,P|28:188|23:123,1,85,2|0,0:0|3:0,0:0:0:0:
70,41,112867,1,0,3:0:0:0:
153,184,113034,2,0,P|121:151|106:99,1,85,0|0,1:0|0:0,0:0:0:0:
257,150,113367,6,0,L|233:242,1,85,2|2,3:2|0:0,0:0:0:0:
189,77,113701,1,0,1:0:0:0:
235,232,113867,1,2,0:0:0:0:
235,232,113951,1,0,0:0:0:0:
235,232,114034,1,0,3:0:0:0:
348,176,114201,1,2,0:0:0:0:
319,303,114367,1,0,1:0:0:0:
348,176,114534,2,0,L|361:124,1,42.5,2|0,3:2|0:0,0:0:0:0:
391,46,114701,6,0,L|412:228,1,170,4|8,3:1|0:0,0:0:0:0:
454,330,115201,1,2,0:0:0:0:
319,303,115367,2,0,P|280:318|221:326,1,85,0|0,3:0|3:0,0:0:0:0:
58,252,115701,1,0,1:0:0:0:
129,353,115867,6,0,L|156:180,1,170,2|2,0:0|0:0,0:0:0:0:
109,47,116367,1,0,1:0:0:0:
155,185,116534,1,2,0:0:0:0:
155,185,116617,1,0,0:0:0:0:
155,185,116701,1,2,3:2:0:0:
44,139,116867,1,0,3:0:0:0:
195,99,117034,2,0,L|324:64,1,127.5,0|0,1:0|0:0,0:0:0:0:
343,59,117367,6,0,L|325:180,1,85,4|0,3:2|0:0,0:0:0:0:
259,249,117701,1,8,0:0:0:0:
408,209,117867,2,0,L|428:306,1,85,2|0,0:0|3:0,0:0:0:0:
477,131,118201,1,2,3:2:0:0:
325,177,118367,2,0,L|227:159,1,85,0|0,1:0|0:0,0:0:0:0:
85,112,118701,6,0,P|97:152|100:211,1,85,2|2,3:2|0:0,0:0:0:0:
19,304,119034,1,0,1:0:0:0:
101,195,119201,1,2,0:0:0:0:
101,195,119284,1,0,0:0:0:0:
101,195,119367,1,0,3:0:0:0:
122,348,119534,2,0,L|169:326,1,42.5,0|0,1:0|1:0,0:0:0:0:
263,309,119701,2,0,L|247:379,1,42.5,0|0,1:0|1:0,0:0:0:0:
200,235,119867,1,0,1:0:0:0:
200,235,119951,1,0,1:0:0:0:
200,235,120034,6,0,P|235:250|291:261,1,85,4|0,0:0|3:0,0:0:0:0:
371,166,120367,1,0,1:0:0:0:
255,83,120534,2,0,L|264:201,1,85,2|0,3:2|0:0,0:0:0:0:
326,4,120867,1,0,1:0:0:0:
262,168,121034,2,0,P|180:125|191:26,1,170,4|0,3:2|0:0,0:0:0:0:
346,135,121534,5,8,0:0:0:0:
346,135,121617,1,8,0:0:0:0:
346,135,121701,2,0,L|327:252,1,85,8|0,0:0|1:0,0:0:0:0:
259,79,122034,1,8,0:3:0:0:
217,258,122201,1,4,0:3:0:0:
383,196,122367,1,4,3:0:0:0:
121,287,122701,5,4,3:2:0:0:
32,160,122867,1,0,3:0:0:0:
7,343,123034,1,8,0:0:0:0:
101,218,123201,2,0,P|138:237|194:245,1,85,4|0,0:0|0:0,0:0:0:0:
168,129,123534,1,8,0:0:0:0:
196,345,123701,2,0,P|263:290|272:197,1,170,4|0,3:2|0:0,0:0:0:0:
84,77,124201,5,8,0:3:0:0:
84,77,124284,1,8,0:3:0:0:
84,77,124367,1,8,3:0:0:0:
41,273,124534,1,4,0:3:0:0:
197,195,124701,1,0,1:0:0:0:
22,164,124867,1,0,3:0:0:0:
197,195,125034,2,0,L|317:218,1,102,4|0,3:1|0:0,0:0:0:0:
329,221,125367,5,12,3:1:0:0:
329,221,126701,5,8,0:1:0:0:
329,221,128034,6,0,L|344:91,1,127.5,4|0,3:2|0:0,0:0:0:0:
346,60,128367,1,0,3:0:0:0:
241,156,128534,1,8,0:0:0:0:
431,178,128701,1,2,3:2:0:0:
263,270,128867,1,8,0:0:0:0:
343,94,129034,1,2,3:2:0:0:
389,283,129201,1,8,0:0:0:0:
262,72,129367,5,2,3:1:0:0:
245,76,129701,1,2,0:1:0:0:
228,81,130034,1,0,0:0:0:0:
212,88,130367,1,0,0:0:0:0:
197,96,130701,6,0,B|190:153|190:153|192:177|208:202|208:202|204:239|191:259,1,170,2|8,0:3|0:0,0:0:0:0:
80,332,131201,1,2,0:0:0:0:
80,332,131284,1,8,0:0:0:0:
80,332,131367,1,0,3:0:0:0:
64,190,131534,1,0,3:0:0:0:
191,259,131701,2,0,P|229:278|272:281,1,85,10|0,0:0|0:0,0:0:0:0:
383,360,132034,6,0,L|407:210,1,127.5,2|0,3:2|0:0,0:0:0:0:
408,204,132367,1,8,0:0:0:0:
483,134,132534,2,0,L|499:220,1,85,2|0,0:0|3:0,0:0:0:0:
340,167,132867,1,0,3:0:0:0:
403,47,133034,1,8,0:0:0:0:
246,102,133201,1,0,3:0:0:0:
246,102,133284,1,8,0:0:0:0:
246,102,133367,6,0,P|198:92|135:58,1,85,2|0,3:2|0:0,0:0:0:0:
30,143,133701,1,8,0:0:0:0:
139,250,133867,1,2,0:0:0:0:
139,250,133951,1,8,0:0:0:0:
139,250,134034,2,0,P|128:292|121:352,1,85,0|0,3:0|3:0,0:0:0:0:
95,186,134367,2,0,P|149:212|230:216,1,127.5,8|0,0:0|0:0,0:0:0:0:
251,203,134701,6,0,P|293:210|348:228,1,85,2|0,3:2|0:0,0:0:0:0:
459,301,135034,2,0,P|476:249|479:207,1,85,8|2,0:0|0:0,0:0:0:0:
479,183,135284,1,8,0:0:0:0:
479,183,135367,1,0,3:0:0:0:
333,222,135534,1,0,3:0:0:0:
389,80,135701,2,0,P|400:130|401:185,1,85,8|0,0:0|3:0,0:0:0:0:
359,361,136034,6,0,P|286:315|191:322,1,170,4|8,3:2|0:0,0:0:0:0:
50,261,136534,1,2,0:0:0:0:
80,134,136701,2,0,P|93:91|100:40,1,85,0|0,3:0|3:0,0:0:0:0:
10,179,137034,2,0,P|57:212|131:203,1,127.5,10|0,0:0|0:0,0:0:0:0:
172,189,137367,6,0,L|157:286,1,85,2|0,3:2|0:0,0:0:0:0:
304,371,137701,2,0,L|295:282,1,85,10|0,0:0|0:0,0:0:0:0:
267,128,138034,2,0,P|308:130|351:146,1,85,2|0,3:2|3:0,0:0:0:0:
474,309,138367,2,0,P|415:297|361:272,1,85,10|0,0:0|3:0,0:0:0:0:
267,128,138701,6,0,B|218:160|218:160|96:137,1,170,4|8,3:2|0:0,0:0:0:0:
196,42,139201,1,2,0:0:0:0:
108,139,139367,2,0,L|120:254,1,85,4|0,3:2|3:0,0:0:0:0:
41,69,139701,1,8,0:0:0:0:
117,223,139867,1,8,0:0:0:0:
117,223,139951,1,8,0:0:0:0:
117,223,140034,6,0,L|209:208,1,93.5000028533936,2|2,3:0|0:0,0:0:0:0:
321,287,140367,2,0,L|336:221,1,46.7500014266968,10|0,3:2|0:0,0:0:0:0:
406,167,140534,2,0,L|392:115,1,46.7500014266968,10|8,0:0|0:0,0:0:0:0:
325,30,140701,2,0,L|227:48,1,93.5000028533936,4|0,0:3|3:0,0:0:0:0:
101,28,141034,5,0,1:0:0:0:
115,63,141117,1,0,1:0:0:0:
120,100,141201,1,0,1:0:0:0:
106,135,141284,1,0,1:0:0:0:
80,164,141367,6,0,B|40:189|-41:192,1,85,2|0,0:3|0:0,0:0:0:0:
75,310,141701,1,8,0:0:0:0:
216,257,141867,1,2,0:0:0:0:
216,257,141951,1,8,0:0:0:0:
216,257,142034,2,0,P|260:274|313:281,1,85,0|0,3:0|3:0,0:0:0:0:
416,221,142367,2,0,L|435:334,1,85,10|0,0:0|0:0,0:0:0:0:
508,185,142701,6,0,P|439:134|346:149,1,170,2|8,3:2|0:2,0:0:0:0:
220,200,143201,1,2,0:0:0:0:
220,200,143284,1,8,0:0:0:0:
220,200,143367,2,0,L|132:176,1,85,0|0,3:0|3:0,0:0:0:0:
55,292,143701,2,0,P|101:283|137:260,1,85,8|0,0:0|3:0,0:0:0:0:
311,178,144034,6,0,P|251:159|207:114,1,127.5,2|0,3:2|0:0,0:0:0:0:
199,73,144367,1,8,0:0:0:0:
133,263,144534,1,2,0:0:0:0:
133,263,144617,1,8,0:0:0:0:
133,263,144701,2,0,P|136:310|148:361,1,85,0|0,3:0|3:0,0:0:0:0:
258,291,145034,2,0,P|310:255|373:253,1,127.5,8|0,0:0|0:0,0:0:0:0:
401,274,145367,6,0,L|417:174,1,85,2|0,3:2|0:0,0:0:0:0:
463,333,145701,2,0,P|427:352|371:351,1,85,8|2,0:0|0:0,0:0:0:0:
345,340,145951,1,8,0:0:0:0:
345,340,146034,1,0,3:0:0:0:
287,184,146201,1,0,3:0:0:0:
461,123,146367,2,0,P|469:162|453:245,1,85,10|0,1:2|3:0,0:0:0:0:
401,274,146617,1,8,0:0:0:0:
401,274,146701,6,0,B|355:252|355:252|288:269|288:269|226:251,1,170,4|8,3:2|0:0,0:0:0:0:
82,192,147201,1,2,0:0:0:0:
82,192,147284,1,8,0:0:0:0:
82,192,147367,1,2,3:2:0:0:
142,332,147534,1,0,3:0:0:0:
164,152,147701,2,0,P|170:197|165:241,1,85,10|0,0:0|0:0,0:0:0:0:
93,87,148034,6,0,B|279:126,1,170,2|8,3:2|0:0,0:0:0:0:
399,168,148534,1,2,0:0:0:0:
399,168,148617,1,8,0:0:0:0:
399,168,148701,2,0,P|420:130|417:78,1,85,0|0,3:0|3:0,0:0:0:0:
316,179,149034,2,0,B|337:319,1,127.5,10|8,0:0|0:0,0:0:0:0:
430,368,149367,6,0,L|441:278,1,85,4|0,3:2|0:0,0:0:0:0:
303,95,149701,2,0,L|319:196,1,85,8|0,0:0|0:0,0:0:0:0:
260,315,150034,1,2,3:2:0:0:
133,353,150201,1,0,3:0:0:0:
202,210,150367,2,0,P|217:171|220:96,1,85,10|2,0:0|0:0,0:0:0:0:
60,63,150701,5,4,3:2:0:0:
123,167,150867,1,0,3:0:0:0:
191,24,151034,1,4,0:3:0:0:
123,167,151201,1,0,3:0:0:0:
275,75,151367,2,0,P|316:87|355:105,1,85,10|0,0:0|0:0,0:0:0:0:
466,153,151701,6,0,L|480:93,1,42.5,10|8,0:0|0:0,0:0:0:0:
393,213,151867,2,0,L|404:272,1,42.5,8|8,0:0|0:0,0:0:0:0:
360,353,152034,6,0,P|279:361|221:283,1,170,2|0,0:3|1:0,0:0:0:0:
127,258,152534,2,0,P|209:267|264:207,1,170,2|0,0:0|0:0,0:0:0:0:
50,179,153034,2,0,P|22:225|21:289,1,85,0|0,1:0|0:0,0:0:0:0:
88,353,153367,6,0,P|143:291|224:300,1,170,2|0,3:2|1:0,0:0:0:0:
402,361,153867,2,0,P|416:288|430:172,1,170,2|0,0:0|0:0,0:0:0:0:
336,80,154367,2,0,P|342:123|346:171,1,85,0|0,1:0|0:0,0:0:0:0:
310,273,154701,6,0,L|142:242,1,170,4|0,0:2|1:0,0:0:0:0:
46,124,155201,2,0,L|224:155,1,170,2|0,0:0|0:0,0:0:0:0:
333,113,155701,2,0,P|291:87|269:28,1,85,0|0,1:0|0:0,0:0:0:0:
422,94,156034,2,0,L|407:197,1,85,4|0,0:2|1:0,0:0:0:0:
406,215,156284,1,0,1:0:0:0:
406,215,156367,1,0,3:0:0:0:
298,290,156534,5,0,1:0:0:0:
298,290,156617,1,0,1:0:0:0:
298,290,156701,2,0,L|246:282,1,42.5,0|0,1:0|0:0,0:0:0:0:
174,174,156867,2,0,L|246:162,1,42.5,2|0,1:2|0:0,0:0:0:0:
332,203,157034,6,0,L|279:213,1,46.7500014266968,0|0,1:0|0:0,0:0:0:0:
164,340,157201,2,0,L|219:350,1,46.7500014266968,0|0,1:0|0:0,0:0:0:0:
365,366,157367,5,14,3:1:0:0:
365,366,158701,5,0,1:0:0:0:
341,192,158867,1,0,1:0:0:0:
350,179,159367,5,0,1:0:0:0:
167,301,159534,1,0,1:0:0:0:
240,168,159701,1,0,1:0:0:0:
243,145,159784,1,0,1:0:0:0:
247,122,159867,1,0,1:0:0:0:
250,99,159951,1,0,1:0:0:0:
255,78,160034,6,0,L|139:102,1,85,4|0,3:2|0:0,0:0:0:0:
32,51,160367,1,0,3:0:0:0:
156,183,160534,6,0,L|258:164,1,85,4|0,1:2|0:0,0:0:0:0:
303,274,160867,1,2,3:2:0:0:
116,275,161034,6,0,L|224:251,1,85,4|0,1:2|3:0,0:0:0:0:
317,366,161367,1,2,3:2:0:0:
89,368,161534,6,0,L|195:344,1,85,4|4,1:2|0:3,0:0:0:0:
385,310,161867,1,0,3:0:0:0:
385,310,161951,1,0,0:0:0:0:
385,310,162034,2,0,P|424:289|448:246,1,85,0|0,1:0|3:0,0:0:0:0:
349,104,162367,2,0,P|307:129|281:171,1,85,0|0,1:0|0:0,0:0:0:0:
365,224,162701,6,0,L|170:184,1,170,2|0,3:3|3:0,0:0:0:0:
53,243,163201,2,0,P|144:262|185:358,1,170,0|2,1:0|3:2,0:0:0:0:
78,352,163701,1,8,0:0:0:0:
176,181,163867,1,0,3:0:0:0:
176,181,163951,1,0,3:0:0:0:
176,181,164034,6,0,P|183:151|185:132,1,42.5,2|0,3:2|0:0,0:0:0:0:
162,37,164201,1,0,1:0:0:0:
276,97,164367,2,0,P|315:121|356:128,1,85,2|0,0:0|3:0,0:0:0:0:
487,32,164701,1,0,1:0:0:0:
454,184,164867,1,0,3:0:0:0:
454,184,164951,1,0,3:0:0:0:
454,184,165034,2,0,L|469:245,1,42.5,0|0,1:0|0:0,0:0:0:0:
381,297,165201,2,0,L|370:252,1,42.5,4|0,0:3|3:0,0:0:0:0:
353,127,165367,5,2,3:0:0:0:
256,192,165451,12,8,167701,0:0:0:0:
253,330,168034,6,0,P|285:300|294:246,1,85,2|8,0:3|0:0,0:0:0:0:
81,192,168367,2,0,P|125:224|195:232,1,85,8|8,0:0|0:0,0:0:0:0:
431,192,168701,2,0,P|387:160|317:153,1,85,8|8,0:0|0:0,0:0:0:0:
257,34,169034,2,0,P|225:64|215:117,1,85,8|8,0:0|0:0,0:0:0:0:
295,261,169367,5,10,1:2:0:0:
214,102,169534,1,8,1:2:0:0:
184,308,169701,1,8,1:2:0:0:
214,102,169867,1,8,1:2:0:0:
295,261,170034,5,0,1:0:0:0:
318,290,170117,1,0,1:0:0:0:
353,303,170201,1,0,1:0:0:0:
389,311,170284,1,0,1:0:0:0:
425,306,170367,2,0,P|450:298|467:285,3,42.5,0|0|0|0,1:0|1:0|1:0|1:0,0:0:0:0:
487,260,170701,6,0,L|464:69,1,170,12|8,0:1|0:0,0:0:0:0:
239,175,171201,2,0,P|309:162|389:229,1,170,2|0,0:0|3:0,0:0:0:0:
157,280,171701,2,0,P|105:230|108:123,1,170,10|0,0:0|3:0,0:0:0:0:
236,16,172201,5,2,0:1:0:0:
193,183,172367,1,2,1:2:0:0:
367,103,172534,1,2,0:0:0:0:
367,103,172617,1,8,0:0:0:0:
367,103,172701,2,0,L|353:205,1,85,2|2,3:2|3:2,0:0:0:0:
214,100,173034,1,2,1:0:0:0:
261,257,173201,1,2,3:2:0:0:
261,257,173284,1,8,0:0:0:0:
261,257,173367,6,0,P|191:208|86:222,1,170,8|8,0:1|0:0,0:0:0:0:
308,360,173867,2,0,P|358:290|350:188,1,170,2|0,0:0|3:0,0:0:0:0:
214,100,174367,2,0,P|260:85|302:54,1,85,2|0,1:0|0:0,0:0:0:0:
126,35,174701,6,0,L|107:138,1,85,8|0,3:1|0:0,0:0:0:0:
0,38,175034,1,8,1:0:0:0:
50,195,175201,1,0,3:0:0:0:
50,195,175284,1,8,0:0:0:0:
50,195,175367,2,0,L|68:283,1,85,8|0,3:1|3:0,0:0:0:0:
181,384,175701,2,0,L|196:292,1,85,2|0,1:0|3:0,0:0:0:0:
129,144,176034,5,8,0:1:0:0:
67,278,176201,1,0,0:0:0:0:
212,198,176367,1,8,0:0:0:0:
64,363,176534,2,0,P|-8:306|11:217,1,170,8|2,0:1|3:1,0:0:0:0:
140,242,177034,1,2,1:2:0:0:
22,145,177201,1,2,0:1:0:0:
165,46,177367,6,0,B|206:69|206:69|267:62|267:62|309:97|353:113,1,170,8|8,3:1|0:0,0:0:0:0:
261,248,177867,2,0,L|248:142,1,85,2|0,0:0|3:0,0:0:0:0:
397,235,178201,2,0,L|382:326,1,85,2|0,3:1|1:0,0:0:0:0:
259,367,178534,1,0,3:0:0:0:
259,367,178617,1,8,0:0:0:0:
259,367,178701,6,0,P|183:328|100:334,1,170,8|8,0:1|0:0,0:0:0:0:
54,188,179201,2,0,P|117:235|208:233,1,170,2|0,0:1|3:0,0:0:0:0:
353,145,179701,2,0,L|377:238,1,85,8|0,1:0|0:0,0:0:0:0:
463,372,180034,2,0,B|496:271|496:271|473:280,1,127.5,10|0,3:1|0:0,0:0:0:0:
381,307,180367,6,0,L|253:280,1,101.999996887207,8|0,1:2|0:0,0:0:0:0:
102,367,180701,1,2,1:0:0:0:
98,333,180784,1,0,1:0:0:0:
93,299,180867,1,0,1:0:0:0:
89,264,180951,1,0,1:0:0:0:
86,230,181034,2,0,L|81:179,3,42.5,0|0|0|0,1:0|1:0|1:0|1:0,0:0:0:0:
77,150,181367,6,0,L|184:180,1,85,12|0,3:1|0:0,0:0:0:0:
332,146,181701,1,2,1:0:0:0:
332,146,181867,2,0,P|397:92|396:1,1,170,2|0,0:0|3:0,0:0:0:0:
247,124,182367,2,0,L|236:211,1,85,8|0,1:0|0:0,0:0:0:0:
388,330,182701,6,0,L|403:218,1,85,2|0,3:1|0:0,0:0:0:0:
226,287,183034,1,2,1:0:0:0:
316,182,183201,1,2,0:0:0:0:
316,182,183284,1,8,0:0:0:0:
316,182,183367,2,0,L|323:281,1,85,0|0,3:0|3:0,0:0:0:0:
379,101,183701,1,0,1:0:0:0:
295,18,183867,1,0,3:0:0:0:
295,18,183951,1,8,0:0:0:0:
295,18,184034,6,0,P|213:52|129:54,1,170,8|8,3:1|0:0,0:0:0:0:
52,147,184534,2,0,P|80:223|56:306,1,170,2|0,0:1|3:0,0:0:0:0:
184,217,185034,2,0,L|293:254,1,85,8|0,1:0|0:0,0:0:0:0:
426,199,185367,6,0,L|441:314,1,85,2|0,3:1|0:0,0:0:0:0:
495,171,185701,2,0,P|431:172|364:136,1,127.5,2|8,1:2|0:0,0:0:0:0:
356,116,186034,2,0,L|259:138,1,85,2|0,3:1|3:0,0:0:0:0:
104,40,186367,1,0,1:0:0:0:
95,73,186451,1,0,1:0:0:0:
86,105,186534,1,0,1:0:0:0:
77,137,186617,1,0,1:0:0:0:
69,171,186701,6,0,B|122:200|122:200|190:184|190:184|226:219|275:224,1,203.999993774414,12|0,3:1|0:0,0:0:0:0:
445,94,187201,1,2,3:0:0:0:
445,94,187534,1,2,0:1:0:0:
445,94,187701,2,0,L|458:202,1,101.999996887207,12|2,0:1|0:0,0:0:0:0:
394,324,188034,6,0,P|342:295|267:304,1,113.333333333333,10|2,0:1|0:0,0:0:0:0:
171,369,188479,6,0,L|152:271,1,90.6666666666667,8|2,0:1|3:1,0:0:0:0:
65,188,188923,6,0,L|52:265,1,67.9999979248048,8|2,0:1|0:0,0:0:0:0:
37,353,189367,5,6,3:1:0:0:
37,353,189534,1,0,3:0:0:0:
154,280,189701,2,0,P|197:289|236:303,1,76.4999976654053,0|0,3:0|3:0,0:0:0:0:
327,357,190034,2,0,P|372:351|426:334,1,76.4999976654053,0|0,3:0|3:0,0:0:0:0:
491,267,190367,1,0,3:0:0:0:
394,200,190534,1,2,3:2:0:0:
394,200,190617,1,0,0:0:0:0:
394,200,190701,6,0,P|382:153|379:106,1,76.4999976654053,2|0,3:1|3:0,0:0:0:0:
404,32,191034,1,0,3:0:0:0:
296,66,191201,2,0,L|203:49,1,76.4999976654053,2|0,3:2|3:0,0:0:0:0:
88,20,191534,2,0,P|104:94|115:184,1,152.999995330811,8|0,3:1|3:0,0:0:0:0:
58,272,192034,6,0,L|151:295,1,76.4999976654053,2|0,3:1|3:0,0:0:0:0:
222,237,192367,2,0,P|258:244|301:261,1,76.4999976654053,0|0,3:0|3:0,0:0:0:0:
356,334,192701,2,0,L|450:310,1,76.4999976654053,0|0,3:0|3:0,0:0:0:0:
477,232,193034,2,0,P|491:193|497:144,1,76.4999976654053,0|0,3:0|3:0,0:0:0:0:
456,55,193367,6,0,B|412:82|399:117|399:117|354:59|354:59|325:127|325:127|198:57|163:88|134:96|134:138|165:172|216:129,1,505.749984565735,8|0,3:1|0:0,0:0:0:0:
207,135,196034,5,4,3:1:0:0:
309,240,197367,1,2,0:0:0:0:
131,315,197867,1,0,3:0:0:0:
131,315,197951,1,0,3:0:0:0:
131,315,198034,2,0,B|99:300|99:300|91:261|43:233,2,101.999996887207,8|4|4,0:3|0:3|0:3,0:0:0:0:
255,343,198701,5,4,3:1:0:0:
389,87,200034,5,2,0:0:0:0:
314,281,200534,1,0,3:0:0:0:
218,231,200701,2,0,B|184:208|156:161|156:161|142:242|94:315,1,229.499992996216,0|0,1:0|3:0,0:0:0:0:
25,178,201367,5,2,3:0:0:0:
439,332,202701,5,2,0:0:0:0:
297,171,203367,2,0,B|265:178|238:172|238:172|214:216|214:216|154:216|109:267,1,229.499992996216,2|0,0:0|3:0,0:0:0:0:
14,371,204034,5,2,3:2:0:0:
96,102,204701,1,2,0:0:0:0:
218,215,205201,2,0,P|236:174|242:130,1,76.4999976654053,0|0,3:0|3:0,0:0:0:0:
271,61,205534,5,2,0:0:0:0:
175,95,205701,1,2,0:0:0:0:
202,13,205867,5,2,3:2:0:0:
242,143,206034,1,2,1:2:0:0:
127,31,206201,5,10,1:2:0:0:
320,122,206367,2,0,P|355:117|391:92,1,68,2|2,3:2|0:0,0:0:0:0:
404,19,206701,6,0,L|382:191,1,170,2|0,3:0|3:0,0:0:0:0:
425,298,207201,1,0,0:0:0:0:
301,267,207367,2,0,L|199:286,1,85,2|0,3:2|0:0,0:0:0:0:
68,270,207701,2,0,P|100:286|131:341,1,85,0|0,3:0|0:0,0:0:0:0:
30,362,208034,6,0,L|54:178,1,170,2|0,3:2|3:0,0:0:0:0:
24,76,208534,1,0,0:0:0:0:
139,125,208701,2,0,L|235:101,1,85,0|2,3:0|0:0,0:0:0:0:
318,23,209034,1,0,3:0:0:0:
294,184,209201,1,0,0:0:0:0:
446,107,209367,6,0,P|433:180|426:290,1,170,2|0,3:2|3:0,0:0:0:0:
333,337,209867,2,0,P|252:312|131:303,1,170,2|0,0:0|0:0,0:0:0:0:
33,354,210367,2,0,P|20:309|17:264,1,85,0|0,3:0|0:0,0:0:0:0:
88,155,210701,5,2,3:2:0:0:
195,68,210867,1,0,0:0:0:0:
195,68,210951,1,0,0:0:0:0:
195,68,211034,2,0,P|237:85|313:88,1,85,0|2,3:2|0:0,0:0:0:0:
426,55,211367,2,0,L|409:156,1,85,0|0,3:0|0:0,0:0:0:0:
345,238,211701,2,0,B|310:192|259:179|259:179|260:203,1,127.5,2|0,3:2|0:0,0:0:0:0:
267,288,212034,6,0,L|250:380,1,85,4|0,3:1|0:0,0:0:0:0:
129,286,212367,1,0,3:0:0:0:
129,286,212534,2,0,L|114:202,1,85,2|0,0:0|3:0,0:0:0:0:
92,74,212867,1,2,0:0:0:0:
37,205,213034,1,0,1:0:0:0:
92,74,213201,1,0,3:0:0:0:
237,32,213367,6,0,L|303:55,3,42.5,0|0|0|0,1:0|1:0|1:0|1:0,0:0:0:0:
376,113,213701,6,0,L|331:130,3,46.7500014266968,0|0|2|0,1:0|1:0|1:2|1:0,0:0:0:0:
267,223,214034,6,0,L|324:246,3,50.9999984436036,0|0|0|0,1:0|1:0|1:0|1:0,0:0:0:0:
424,326,214367,6,0,L|375:351,3,55.2499974708558,2|0|0|0,1:2|1:0|1:0|1:0,0:0:0:0:
232,362,214701,5,4,1:0:0:0:
195,341,214784,1,0,1:0:0:0:
155,326,214867,1,0,1:0:0:0:
112,331,214951,1,0,1:0:0:0:
70,341,215034,2,0,L|56:274,1,42.5,0|0,1:0|1:0,0:0:0:0:
7,227,215201,2,0,L|18:167,1,42.5,0|0,1:0|1:0,0:0:0:0:
67,88,215367,5,0,1:0:0:0:
106,104,215451,1,0,1:0:0:0:
145,119,215534,1,0,1:0:0:0:
183,135,215617,1,0,1:0:0:0:
223,149,215701,2,0,P|260:143|286:136,1,50.9999984436036,0|0,1:0|1:0,0:0:0:0:
405,101,215867,2,0,P|397:133|386:179,1,50.9999984436036,0|0,1:0|1:0,0:0:0:0:
351,336,216034,5,14,3:1:0:0:
351,336,216367,2,0,L|326:184,1,135.99999584961,8|0,0:1|0:0,0:0:0:0:
246,70,216701,1,8,1:0:0:0:
235,110,216784,1,0,1:0:0:0:
223,149,216867,1,0,1:0:0:0:
213,190,216951,1,0,1:0:0:0:
202,232,217034,2,0,P|166:222|124:207,1,50.9999984436036,2|0,1:2|1:0,1:0:0:0:
58,143,217201,2,0,P|92:136|116:129,1,50.9999984436036,0|0,1:0|1:0,0:0:0:0:
235,110,217367,6,0,L|363:136,1,93.5000028533936,2|0,0:3|0:0,0:0:0:0:
152,29,217701,1,8,0:0:0:0:
58,143,217867,1,2,0:0:0:0:
58,143,217951,1,8,0:0:0:0:
58,143,218034,2,0,P|68:201|82:247,1,93.5000028533936,0|0,3:0|3:0,0:0:0:0:
170,338,218367,2,0,L|265:311,1,93.5000028533936,10|0,0:0|0:0,0:0:0:0:
460,251,218701,6,0,B|445:231|412:212|369:218|369:218|377:200|395:186,1,140.25000428009,2|0,3:2|0:0,0:0:0:0:
419,151,219034,1,8,0:0:0:0:
357,374,219201,2,0,P|383:336|394:285,1,93.5000028533936,2|0,0:0|3:0,0:0:0:0:
255,131,219534,1,0,3:0:0:0:
296,296,219701,1,8,0:0:0:0:
146,226,219867,1,0,3:0:0:0:
146,226,219951,1,8,0:0:0:0:
146,226,220034,6,0,L|125:350,1,93.5000028533936,2|0,3:2|0:0,0:0:0:0:
51,143,220367,1,8,0:0:0:0:
169,95,220534,1,2,0:0:0:0:
169,95,220617,1,8,0:0:0:0:
169,95,220701,2,0,P|213:118|282:134,1,93.5000028533936,0|0,3:0|3:0,0:0:0:0:
395,40,221034,2,0,P|376:96|446:118,1,140.25000428009,8|0,0:0|0:0,0:0:0:0:
505,84,221367,6,0,P|492:142|492:198,1,93.5000028533936,2|0,3:2|0:0,0:0:0:0:
382,338,221701,2,0,P|390:282|389:240,1,93.5000028533936,8|2,0:0|0:0,0:0:0:0:
388,207,221951,1,8,0:0:0:0:
388,207,222034,1,0,3:0:0:0:
482,356,222201,1,0,3:0:0:0:
292,284,222367,2,0,L|169:316,1,93.5000028533936,8|0,0:0|3:0,0:0:0:0:
55,371,222701,6,0,P|1:296|37:179,1,187.000005706787,4|8,3:2|0:0,0:0:0:0:
113,96,223201,1,2,0:0:0:0:
236,204,223367,2,0,P|254:165|255:93,1,93.5000028533936,0|0,3:0|3:0,0:0:0:0:
161,233,223701,2,0,P|231:241|285:289,1,140.25000428009,10|0,0:0|0:0,0:0:0:0:
350,343,224034,6,0,L|447:312,1,93.5000028533936,2|0,3:2|0:0,0:0:0:0:
512,211,224367,2,0,L|403:183,1,93.5000028533936,10|0,0:0|0:0,0:0:0:0:
314,74,224701,2,0,L|447:42,1,93.5000028533936,2|0,3:2|3:0,0:0:0:0:
217,153,225034,1,10,0:0:0:0:
107,53,225201,1,0,3:0:0:0:
107,53,225284,1,8,0:0:0:0:
107,53,225367,6,0,B|83:40|70:10|70:10|77:95|52:171,1,187.000005706787,4|8,3:2|0:0,0:0:0:0:
14,255,225867,1,0,0:0:0:0:
105,346,226034,2,0,P|154:330|222:320,1,93.5000028533936,4|0,3:2|3:0,0:0:0:0:
404,370,226367,1,8,0:0:0:0:
294,273,226534,2,0,L|303:345,1,46.7500014266968,8|8,0:0|0:0,0:0:0:0:
385,256,226701,6,0,L|395:145,1,93.5000028533936,2|10,3:0|0:0,0:0:0:0:
331,59,227034,2,0,L|273:82,1,46.7500014266968,10|0,3:2|0:0,0:0:0:0:
197,76,227201,2,0,L|136:50,1,46.7500014266968,10|8,0:0|0:0,0:0:0:0:
51,32,227367,5,4,0:3:0:0:
42,68,227451,1,0,0:0:0:0:
31,103,227534,1,0,3:0:0:0:
21,138,227617,1,0,3:0:0:0:
11,174,227701,5,0,1:0:0:0:
17,220,227784,1,0,1:0:0:0:
28,265,227867,1,0,1:0:0:0:
39,310,227951,1,0,1:0:0:0:
54,354,228034,6,0,L|147:329,1,93.5000028533936,2|0,0:3|0:0,0:0:0:0:
332,364,228367,1,8,0:0:0:0:
272,164,228534,1,2,0:0:0:0:
272,164,228617,1,8,0:0:0:0:
272,164,228701,2,0,P|253:206|248:285,1,93.5000028533936,0|0,3:0|3:0,0:0:0:0:
412,141,229034,2,0,P|400:78|380:41,1,93.5000028533936,10|0,0:0|0:0,0:0:0:0:
131,62,229367,6,0,P|192:142|274:164,1,187.000005706787,2|8,3:2|1:2,0:0:0:0:
114,231,229867,1,2,0:0:0:0:
114,231,229951,1,8,0:0:0:0:
114,231,230034,2,0,P|89:277|76:329,1,93.5000028533936,0|2,3:0|3:2,0:0:0:0:
273,164,230367,2,0,P|252:117|248:36,1,93.5000028533936,8|0,0:0|3:0,0:0:0:0:
238,304,230701,6,0,L|411:342,1,140.25000428009,2|0,3:2|0:0,0:0:0:0:
416,342,231034,1,8,0:0:0:0:
321,146,231201,1,2,0:0:0:0:
321,146,231284,1,8,0:0:0:0:
321,146,231367,2,0,P|308:190|317:238,1,93.5000028533936,0|0,3:0|3:0,0:0:0:0:
409,100,231701,2,0,P|346:57|281:57,1,140.25000428009,10|0,0:0|0:0,0:0:0:0:
187,104,232034,6,0,L|62:76,1,93.5000028533936,2|0,3:2|0:0,0:0:0:0:
201,214,232367,2,0,L|300:193,1,93.5000028533936,8|2,1:2|0:0,0:0:0:0:
334,185,232617,1,8,0:0:0:0:
334,185,232701,1,0,3:0:0:0:
216,30,232867,1,0,3:0:0:0:
110,168,233034,2,0,P|99:206|112:264,1,93.5000028533936,10|0,1:2|3:0,0:0:0:0:
179,333,233284,1,8,0:0:0:0:
179,333,233367,6,0,B|209:323|231:305|231:305|289:318|289:318|327:311|357:294,1,187.000005706787,4|8,3:2|0:0,0:0:0:0:
253,167,233867,1,2,0:0:0:0:
253,167,233951,1,8,0:0:0:0:
253,167,234034,1,2,3:2:0:0:
179,333,234201,1,0,3:0:0:0:
73,186,234367,2,0,P|111:215|170:219,1,93.5000028533936,10|0,0:0|0:0,0:0:0:0:
356,109,234701,6,0,P|298:56|171:69,1,187.000005706787,2|8,3:2|0:0,0:0:0:0:
407,178,235201,1,2,0:0:0:0:
407,178,235284,1,8,0:0:0:0:
407,178,235367,2,0,P|433:140|439:89,1,93.5000028533936,2|0,3:2|3:0,0:0:0:0:
259,145,235701,2,0,B|279:289,1,140.25000428009,10|8,0:0|0:0,0:0:0:0:
361,361,236034,6,0,L|373:267,1,93.5000028533936,4|0,3:2|0:0,0:0:0:0:
266,51,236367,2,0,L|257:169,1,93.5000028533936,8|0,0:0|0:0,0:0:0:0:
127,276,236701,1,2,3:2:0:0:
102,84,236867,1,0,3:0:0:0:
0,173,237034,2,0,P|42:192|108:208,1,93.5000028533936,10|2,1:2|0:0,0:0:0:0:
259,144,237367,5,4,3:2:0:0:
207,332,237534,1,0,3:0:0:0:
162,201,237701,1,4,0:3:0:0:
312,250,237867,1,0,3:0:0:0:
266,59,238034,2,0,P|227:66|180:115,1,93.5000028533936,10|0,0:0|0:0,0:0:0:0:
82,30,238367,6,0,L|99:86,1,46.7500014266968,10|8,0:0|0:0,0:0:0:0:
123,162,238534,2,0,L|106:232,1,46.7500014266968,10|8,0:0|0:0,0:0:0:0:
58,315,238701,6,0,B|99:283|99:283|226:340,1,170,2|0,0:3|1:0,0:0:0:0:
382,375,239201,2,0,B|430:267|430:267|398:226,1,170,2|0,0:0|0:0,0:0:0:0:
315,131,239701,2,0,P|269:159|205:160,1,85,0|0,1:0|0:0,0:0:0:0:
268,54,240034,6,0,P|350:46|404:108,1,170,2|0,3:2|1:0,0:0:0:0:
314,214,240534,2,0,L|132:182,1,170,2|0,0:0|0:0,0:0:0:0:
190,349,241034,2,0,P|215:319|222:265,1,85,0|0,1:0|0:0,0:0:0:0:
83,95,241367,6,0,P|45:165|71:273,1,170,4|0,0:0|1:0,0:0:0:0:
223,274,241867,2,0,P|261:204|235:96,1,170,2|0,0:0|0:0,0:0:0:0:
168,49,242367,2,0,P|207:36|246:-1,1,85,0|0,1:0|0:0,0:0:0:0:
366,96,242701,2,0,L|351:199,1,85,4|0,0:0|1:0,0:0:0:0:
350,217,242951,1,0,1:0:0:0:
350,217,243034,1,0,3:0:0:0:
219,296,243201,5,0,1:0:0:0:
219,296,243284,1,0,1:0:0:0:
219,296,243367,2,0,L|213:252,1,42.5,0|0,1:0|0:0,0:0:0:0:
111,188,243534,2,0,L|99:260,1,42.5,2|0,1:2|0:0,0:0:0:0:
208,341,243701,6,0,L|220:291,1,46.7500014266968,0|0,1:0|0:0,0:0:0:0:
68,196,243867,2,0,L|78:251,1,46.7500014266968,0|0,1:0|0:0,0:0:0:0:
98,380,244034,5,14,0:1:0:0:
98,380,245367,5,0,1:0:0:0:
309,301,245534,1,0,1:0:0:0:
327,291,246034,5,0,1:0:0:0:
111,202,246201,1,0,1:0:0:0:
250,110,246367,1,0,1:0:0:0:
247,133,246451,1,0,1:0:0:0:
243,156,246534,1,0,1:0:0:0:
240,179,246617,1,0,1:0:0:0:
238,200,246701,6,0,L|321:183,1,85,4|8,0:0|0:0,0:0:0:0:
460,129,247034,2,0,L|448:213,1,85,8|8,0:0|0:0,0:0:0:0:
392,316,247367,5,8,0:0:0:0:
366,109,247534,1,8,0:0:0:0:
392,316,247701,1,8,0:0:0:0:
366,109,247867,1,8,0:0:0:0:
193,227,248034,5,8,1:2:0:0:
402,207,248201,1,8,1:2:0:0:
248,126,248367,1,8,1:2:0:0:
269,313,248534,1,8,1:2:0:0:
106,232,248701,5,8,1:2:0:0:
99,220,248784,1,8,1:2:0:0:
93,208,248867,1,8,1:2:0:0:
87,196,248951,1,8,1:2:0:0:
84,188,249034,1,0,1:0:0:0:
81,179,249117,1,0,1:0:0:0:
78,170,249201,1,0,1:0:0:0:
76,161,249284,1,0,1:0:0:0:
75,152,249367,6,0,P|118:128|187:132,1,101.999996887207,8|0,0:1|0:0,0:0:0:0:
239,238,249867,2,0,P|296:237|351:210,1,101.999996887207,2|0,0:0|0:0,0:0:0:0:
448,162,250367,2,0,L|433:253,1,76.4999976654053,2|0,0:0|0:0,0:0:0:0:
427,274,250701,5,8,0:1:0:0:
427,274,251367,2,0,L|419:164,1,101.999996887207,8|2,0:1|0:0,0:0:0:0:
326,53,252034,6,0,P|283:101|200:97,2,152.999995330811,2|0|2,0:1|0:0|0:0,0:0:0:0:
102,45,253367,2,0,L|123:158,1,101.999996887207,2|0,0:0|0:0,0:0:0:0:
44,199,254034,2,0,L|24:308,1,101.999996887207,8|0,0:1|0:0,0:0:0:0:
151,359,254701,6,0,B|185:348|204:332|204:332|258:367|258:367|304:344|392:365,1,255,10|0,0:1|0:0,0:0:0:0:
277,273,256034,6,0,B|208:257|192:191|192:191|182:257|109:295,1,255,8|0,0:1|0:0,0:0:0:0:
184,111,257367,5,8,0:1:0:0:
256,192,257451,12,0,261367,0:0:0:0:
