osu file format v14

[General]
AudioFilename: audio.mp3
AudioLeadIn: 0
PreviewTime: 55972
Countdown: 0
SampleSet: Soft
StackLeniency: 0.7
Mode: 0
LetterboxInBreaks: 0
WidescreenStoryboard: 0

[Editor]
Bookmarks: 34722,262722
DistanceSpacing: 1.8
BeatDivisor: 4
GridSize: 4
TimelineZoom: 2.6

[Metadata]
Title:Prima Stella
TitleUnicode:プリマステラ
Artist:Kano
ArtistUnicode:鹿乃
Creator:KuranteMelodii
Version:[ -Scarlet- ]'s Extra
Source:
Tags:nowhere samfree ゆうゆ Yuuyu [-AKiTOSHi-] Akitoshi Underforest 7ka -Nanaka- [_-Scarlet-_] Scarlet Del05 SnowNiNo_
BeatmapID:963404
BeatmapSetID:443014

[Difficulty]
HPDrainRate:6
CircleSize:4.3
OverallDifficulty:8.3
ApproachRate:9.3
SliderMultiplier:2
SliderTickRate:1

[Events]
//Background and Video events
0,0,"wow.png",0,0
Video,-120,"primastella.avi"
//Break Periods
2,249567,256813
//Storyboard Layer 0 (Background)
//Storyboard Layer 1 (Fail)
//Storyboard Layer 2 (Pass)
//Storyboard Layer 3 (Foreground)
//Storyboard Sound Samples

[TimingPoints]
1368,333.333333333333,4,2,1,40,1,0
1368,-166.666666666667,4,2,1,40,0,0
6701,-125,4,2,1,60,0,0
12034,-100,4,2,1,60,0,0
13034,-76.9230769230769,4,2,1,60,0,0
13367,-100,4,2,1,60,0,0
14367,-76.9230769230769,4,2,1,60,0,0
14701,-100,4,2,1,60,0,0
18367,-76.9230769230769,4,2,1,60,0,0
18701,-100,4,2,1,60,0,0
19701,-76.9230769230769,4,2,1,60,0,0
21367,-100,4,2,1,60,0,0
22701,-166.666666666667,4,2,1,40,0,0
24034,-200,4,2,1,40,0,0
34701,-100,4,2,1,60,0,0
37201,-100,4,2,99,70,0,0
37367,-100,4,2,1,60,0,0
39867,-100,4,2,99,70,0,0
40034,-100,4,2,1,60,0,0
40134,-100,4,2,1,60,0,0
42534,-100,4,2,99,70,0,0
42701,-100,4,2,1,60,0,0
54701,-100,4,2,99,60,0,0
56034,-100,4,2,1,80,0,1
57034,-76.9230769230769,4,2,1,80,0,1
57367,-100,4,2,1,80,0,1
58367,-76.9230769230769,4,2,1,80,0,1
58701,-100,4,2,1,80,0,1
59701,-76.9230769230769,4,2,1,80,0,1
60034,-100,4,2,1,80,0,1
62367,-76.9230769230769,4,2,1,80,0,1
62701,-100,4,2,1,80,0,1
66617,-100,4,2,1,80,0,0
66701,-100,4,2,1,80,0,1
67701,-76.9230769230769,4,2,1,80,0,1
68034,-100,4,2,1,80,0,1
69034,-76.9230769230769,4,2,1,80,0,1
69367,-100,4,2,1,80,0,1
70367,-76.9230769230769,4,2,1,80,0,1
70701,-100,4,2,1,80,0,1
77367,-100,4,2,1,60,0,0
78367,-76.9230769230769,4,2,1,60,0,0
78701,-100,4,2,1,60,0,0
79701,-76.9230769230769,4,2,1,60,0,0
82367,-100,4,2,1,60,0,0
82701,-100,4,2,99,60,0,0
84034,-100,4,2,1,60,0,0
88367,-76.9230769230769,4,2,1,60,0,0
89034,-100,4,2,1,60,0,0
89701,-76.9230769230769,4,2,1,60,0,0
90367,-100,4,2,1,60,0,0
91034,-76.9230769230769,4,2,1,60,0,0
91367,-100,4,2,1,60,0,0
94367,-76.9230769230769,4,2,1,60,0,0
94701,-100,4,2,1,60,0,0
96367,-76.9230769230769,4,2,1,60,0,0
96701,-100,4,2,1,60,0,0
98701,-166.666666666667,4,2,1,45,0,0
109367,-100,4,2,1,60,0,0
120034,-125,4,2,1,60,0,0
121034,-200,4,2,1,60,0,0
122701,-125,4,2,1,60,0,0
123701,-200,4,2,1,60,0,0
127034,-100,4,2,1,60,0,0
129367,-100,4,2,99,60,0,0
129701,-166.666666666667,4,2,7,60,0,0
129742,-166.666666666667,4,2,1,20,0,0
130034,-125,4,2,1,40,0,0
130367,-100,4,2,1,60,0,0
130701,-100,4,2,1,80,0,1
131701,-76.9230769230769,4,2,1,80,0,1
132034,-100,4,2,1,80,0,1
133034,-76.9230769230769,4,2,1,80,0,1
133367,-100,4,2,1,80,0,1
134367,-76.9230769230769,4,2,1,80,0,1
134701,-100,4,2,1,80,0,1
137034,-76.9230769230769,4,2,1,80,0,1
137367,-100,4,2,1,80,0,1
138367,-76.9230769230769,4,2,1,80,0,1
138701,-100,4,2,1,80,0,1
141284,-100,4,2,1,80,0,0
141367,-100,4,2,1,80,0,1
142367,-76.9230769230769,4,2,1,80,0,1
142701,-100,4,2,1,80,0,1
143701,-76.9230769230769,4,2,1,80,0,1
144034,-100,4,2,1,80,0,1
145034,-76.9230769230769,4,2,1,80,0,1
145367,-100,4,2,1,80,0,1
147701,-76.9230769230769,4,2,1,80,0,1
148034,-100,4,2,1,80,0,1
152034,-100,4,2,1,60,0,0
153034,-76.9230769230769,4,2,1,60,0,0
153367,-100,4,2,1,60,0,0
154367,-76.9230769230769,4,2,1,60,0,0
157034,-100,4,2,1,60,0,0
157368,-100,4,2,99,60,0,0
158701,-100,4,2,1,60,0,0
180367,-76.9230769230769,4,2,1,60,0,0
180701,-100,4,2,1,60,0,0
186701,-83.3333333333333,4,2,1,60,0,0
188367,-100,4,2,1,60,0,0
194701,-100,4,2,1,10,0,0
196034,-125,4,2,1,45,0,0
213367,-100,4,2,1,60,0,0
214701,-83.3333333333333,4,2,1,60,0,0
217367,-83.3333333333333,4,2,1,80,0,1
218367,-71.4285714285714,4,2,1,80,0,1
218701,-83.3333333333333,4,2,1,80,0,1
219701,-71.4285714285714,4,2,1,80,0,1
220034,-83.3333333333333,4,2,1,80,0,1
221034,-71.4285714285714,4,2,1,80,0,1
221367,-83.3333333333333,4,2,1,80,0,1
223701,-71.4285714285714,4,2,1,80,0,1
224034,-83.3333333333333,4,2,1,80,0,1
227951,-83.3333333333333,4,2,1,80,0,0
228034,-83.3333333333333,4,2,1,80,0,1
229034,-71.4285714285714,4,2,1,80,0,1
229367,-83.3333333333333,4,2,1,80,0,1
230367,-71.4285714285714,4,2,1,80,0,1
230701,-83.3333333333333,4,2,1,80,0,1
231701,-71.4285714285714,4,2,1,80,0,1
232034,-83.3333333333333,4,2,1,80,0,1
234367,-71.4285714285714,4,2,1,80,0,1
234701,-83.3333333333333,4,2,1,80,0,1
235701,-71.4285714285714,4,2,1,80,0,1
236034,-83.3333333333333,4,2,1,80,0,1
238701,-100,4,2,1,60,0,0
239701,-76.9230769230769,4,2,1,60,0,0
240034,-100,4,2,1,60,0,0
241034,-76.9230769230769,4,2,1,60,0,0
243701,-100,4,2,1,60,0,0
244034,-100,4,2,99,60,0,0
245367,-100,4,2,1,60,0,0
258701,-100,4,2,1,45,0,0
260034,-100,4,2,1,30,0,0
261367,-100,4,2,1,15,0,0
262701,-100,4,2,1,5,0,0

[Colours]
Combo1 : 45,255,45
Combo2 : 0,64,128
Combo3 : 106,106,255
Combo4 : 168,12,243
Combo5 : 255,47,255
Combo6 : 0,128,0

[HitObjects]
144,140,1368,6,0,P|164:96|128:16,1,119.999996337891,2|0,0:0|0:0,0:0:0:0:
56,84,1867,1,0,0:0:0:0:
84,180,2034,2,0,L|216:168,1,119.999996337891,2|0,0:0|0:0,0:0:0:0:
396,100,2701,6,0,L|392:80,1,14.9999995422363,2|0,0:0|0:0,0:0:0:0:
320,44,3367,2,0,P|356:12|472:64,1,179.999994506836,2|0,0:0|0:0,0:0:0:0:
384,168,4034,5,2,0:0:0:0:
372,188,4201,2,0,P|368:224|392:260,1,59.9999981689454,0|2,0:0|0:0,0:0:0:0:
488,320,4534,2,0,P|456:292|320:312,1,179.999994506836,2|2,0:0|0:0,0:0:0:0:
328,304,5367,1,2,0:0:0:0:
260,256,6034,6,0,B|244:116,1,119.999996337891,2|0,0:0|0:0,0:0:0:0:
416,32,6534,1,2,0:0:0:0:
416,32,6617,1,2,0:0:0:0:
416,32,6701,6,0,P|436:76|424:132,1,80,4|0,0:0|0:0,0:0:0:0:
338,263,7034,2,0,L|259:255,1,80,2|0,0:0|0:0,0:0:0:0:
48,268,7367,5,2,0:0:0:0:
256,156,7534,1,0,0:0:0:0:
220,328,7701,1,2,0:0:0:0:
220,328,7867,1,2,0:0:0:0:
88,164,8034,6,0,P|84:120|104:76,1,80,4|0,0:0|0:0,0:0:0:0:
236,249,8367,2,0,L|216:341,1,80,2|0,0:0|0:0,0:0:0:0:
328,300,8701,1,2,0:0:0:0:
108,352,8867,1,0,0:0:0:0:
256,156,9034,1,2,0:0:0:0:
256,156,9201,1,2,0:0:0:0:
392,256,9367,6,0,P|404:304|392:344,1,80,4|0,0:0|0:0,0:0:0:0:
120,256,9701,2,0,P|108:293|114:332,1,80,2|0,0:0|0:0,0:0:0:0:
392,144,10034,2,0,P|444:152|476:172,1,80,2|0,0:0|0:0,0:0:0:0:
120,144,10367,2,0,P|68:152|36:172,1,80,2|0,0:0|0:0,0:0:0:0:
312,320,10701,5,2,0:0:0:0:
112,236,10867,1,2,0:0:0:0:
324,192,11034,1,2,0:0:0:0:
88,352,11201,1,2,0:0:0:0:
392,276,11367,5,8,0:0:0:0:
44,165,11534,1,8,0:0:0:0:
236,124,11701,1,2,0:0:0:0:
236,124,11784,1,2,0:0:0:0:
236,124,11867,1,2,0:0:0:0:
236,124,11951,1,2,0:0:0:0:
236,124,12034,6,0,B|180:112|128:152|128:152|120:96|48:80,1,200,4|8,0:0|0:0,0:0:0:0:
208,224,12534,1,0,0:0:0:0:
208,224,12617,1,2,0:0:0:0:
208,224,12701,6,0,P|204:260|180:280,1,50,2|0,0:0|0:0,0:0:0:0:
104,356,12867,1,2,0:0:0:0:
4,240,13034,2,0,P|72:216|156:224,1,129.999994049073,8|0,0:0|0:0,0:0:0:0:
388,212,13367,6,0,B|372:344|372:344|332:252,1,200,2|8,0:0|0:0,0:0:0:0:
352,132,13867,1,0,0:0:0:0:
352,132,13951,1,2,0:0:0:0:
352,132,14034,6,0,P|380:124|424:132,1,50,2|0,0:0|0:0,0:0:0:0:
488,176,14201,1,2,0:0:0:0:
401,340,14367,2,0,L|387:211,1,129.999994049073,8|2,0:0|0:0,0:0:0:0:
352,132,14617,1,2,0:0:0:0:
352,132,14701,6,0,B|388:48|472:40|472:40|456:96,1,200,2|8,0:0|0:0,0:0:0:0:
264,200,15201,1,0,0:0:0:0:
264,200,15284,1,2,0:0:0:0:
264,200,15367,2,0,L|192:192,1,50,2|0,0:0|0:0,0:0:0:0:
60,172,15534,1,2,0:0:0:0:
216,348,15701,1,8,0:0:0:0:
264,200,15867,1,0,0:0:0:0:
48,288,16034,6,0,L|168:268,1,100,2|0,0:0|0:0,0:0:0:0:
300,332,16367,2,0,L|420:312,1,100,10|2,0:0|0:0,0:0:0:0:
398,315,16617,1,2,0:0:0:0:
398,315,16701,1,2,0:0:0:0:
264,200,16867,1,2,0:0:0:0:
460,148,17034,1,10,0:0:0:0:
236,40,17201,1,0,0:0:0:0:
236,40,17284,1,0,0:0:0:0:
236,40,17367,5,4,0:0:0:0:
264,200,17534,1,0,0:0:0:0:
236,40,17701,1,8,0:0:0:0:
344,100,17867,1,0,0:0:0:0:
344,100,17951,1,0,0:0:0:0:
344,100,18034,6,0,L|336:172,1,50,2|0,0:0|0:0,0:0:0:0:
264,200,18201,1,2,0:0:0:0:
472,212,18367,2,0,B|436:220|404:208|404:208|380:240|312:236,1,129.999994049073,8|0,0:0|0:0,0:0:0:0:
416,48,18701,6,0,B|468:4|468:4|444:144,1,200,2|8,0:0|0:0,0:0:0:0:
351,234,19201,1,0,0:0:0:0:
351,234,19284,1,0,0:0:0:0:
351,234,19367,2,0,L|296:248,1,50,2|0,0:0|0:0,0:0:0:0:
200,268,19534,1,2,0:0:0:0:
420,332,19701,2,0,L|440:180,1,129.999994049073,8|2,0:0|0:0,0:0:0:0:
445,133,19951,1,2,0:0:0:0:
445,133,20034,5,2,0:0:0:0:
256,168,20201,1,2,0:0:0:0:
268,38,20367,2,0,L|252:202,1,129.999994049073,8|2,0:0|0:0,0:0:0:0:
244,244,20617,1,2,0:0:0:0:
244,244,20701,5,2,0:0:0:0:
28,184,20867,1,2,0:0:0:0:
140,364,21034,1,8,0:0:0:0:
188,184,21201,1,2,0:0:0:0:
188,184,21284,1,2,0:0:0:0:
188,184,21367,6,0,P|204:136|168:72,1,100,2|0,0:0|0:0,0:0:0:0:
80,20,21701,1,4,0:0:0:0:
104,216,21867,2,0,L|112:280,2,50,0|0|4,0:0|0:0|3:0,0:0:0:0:
8,132,22201,1,2,0:0:0:0:
40,100,22284,1,2,0:0:0:0:
84,84,22367,1,2,0:0:0:0:
128,88,22451,1,2,0:0:0:0:
168,108,22534,1,2,0:0:0:0:
200,136,22617,1,2,0:0:0:0:
244,140,22701,6,0,B|300:136|320:88|320:88|340:112|340:112|364:72|404:36|500:88|472:148|424:192|392:148,1,359.999989013672,6|0,0:0|0:0,0:0:0:0:
356,312,24034,6,0,L|464:304,1,100,2|0,0:0|0:0,0:0:0:0:
256,319,24701,2,0,L|364:311,1,100,2|0,0:0|0:0,0:0:0:0:
156,326,25367,2,0,L|264:318,1,100,2|0,0:0|0:0,0:0:0:0:
56,333,26034,2,0,L|164:325,1,100,2|0,0:0|0:0,0:0:0:0:
208,228,26534,1,2,0:0:0:0:
156,132,26701,6,0,P|128:104|60:112,1,100,2|0,0:0|0:0,0:0:0:0:
241,105,27367,2,0,P|213:133|145:125,1,100,2|0,0:0|0:0,0:0:0:0:
326,131,28034,2,0,P|298:103|230:111,1,100,2|0,0:0|0:0,0:0:0:0:
411,104,28701,2,0,P|383:132|315:124,1,100,2|0,0:0|0:0,0:0:0:0:
344,48,29201,1,2,0:0:0:0:
448,216,29367,6,0,P|464:264|440:324,1,100,2|0,0:0|0:0,0:0:0:0:
379,151,30034,2,0,P|424:173|449:233,1,100,2|0,0:0|0:0,0:0:0:0:
284,153,30701,2,0,P|332:137|392:161,1,100,2|0,0:0|0:0,0:0:0:0:
220,222,31367,2,0,P|242:176|302:151,1,100,2|0,0:0|0:0,0:0:0:0:
324,256,31867,1,2,0:0:0:0:
112,264,32034,6,0,L|100:148,1,100,2|0,0:0|0:0,0:0:0:0:
56,88,32534,2,0,L|128:76,1,50,2|0,0:0|0:0,0:0:0:0:
176,16,32867,2,0,L|188:80,1,50,2|0,0:0|0:0,0:0:0:0:
204,160,33201,1,2,0:0:0:0:
272,60,33367,6,0,P|296:128|320:48,1,200
184,132,34201,5,2,0:0:0:0:
304,220,34367,1,2,0:0:0:0:
428,136,34534,1,2,0:0:0:0:
220,40,34701,6,0,B|72:56|72:56|140:88,1,200,4|8,0:0|0:0,0:0:0:0:
184,132,35201,1,0,0:0:0:0:
236,292,35367,2,0,P|256:252|236:176,1,100,2|0,0:0|0:0,0:0:0:0:
75,238,35701,1,8,0:0:0:0:
172,236,35867,6,0,B|124:224|124:224|44:248,1,100,0|2,0:0|0:0,0:0:0:0:
128,312,36201,1,0,0:0:0:0:
196,160,36367,1,8,0:0:0:0:
48,164,36534,1,0,0:0:0:0:
264,80,36701,1,2,0:0:0:0:
271,246,36867,2,0,L|171:235,1,100,2|8,0:0|0:0,0:0:0:0:
60,32,37201,5,0,1:0:0:0:
259,146,37367,6,0,L|271:246,1,100,2|0,0:0|0:0,0:0:0:0:
500,152,37701,1,8,0:0:0:0:
489,251,37867,2,0,L|500:151,1,100,0|2,0:0|0:0,0:0:0:0:
270,245,38201,1,0,0:0:0:0:
420,320,38367,1,8,0:0:0:0:
320,116,38534,5,0,0:0:0:0:
270,245,38701,1,2,0:0:0:0:
208,68,38867,1,2,0:0:0:0:
432,160,39034,1,10,0:0:0:0:
270,245,39201,2,0,L|164:232,1,100,2|0,0:0|0:0,0:0:0:0:
375,244,39534,5,0,0:0:0:0:
176,352,39701,1,8,0:0:0:0:
264,72,39867,5,0,1:0:0:0:
472,264,40034,6,0,B|332:284|332:284|384:236,1,200,4|8,0:0|0:0,0:0:0:0:
484,148,40534,1,0,0:0:0:0:
364,80,40701,2,0,L|256:72,1,100,2|0,0:0|0:0,0:0:0:0:
48,60,41034,1,8,0:0:0:0:
168,232,41201,5,0,0:0:0:0:
232,288,41367,2,0,P|253:243|236:184,1,100,2|0,0:0|0:0,0:0:0:0:
156,64,41701,1,8,0:0:0:0:
168,232,41867,1,0,0:0:0:0:
88,104,42034,5,2,0:0:0:0:
243,195,42201,1,2,0:0:0:0:
392,96,42367,1,8,0:0:0:0:
228,364,42534,5,0,1:0:0:0:
448,292,42701,6,0,L|462:162,1,100,2|0,0:0|0:0,0:0:0:0:
219,283,43034,1,8,0:0:0:0:
208,184,43201,2,0,L|224:320,1,100,0|2,0:0|0:0,0:0:0:0:
458,192,43534,1,0,0:0:0:0:
219,283,43701,1,8,0:0:0:0:
276,84,43867,1,0,0:0:0:0:
320,328,44034,1,2,0:0:0:0:
8,140,44201,5,0,0:0:0:0:
140,240,44367,1,8,0:0:0:0:
280,144,44534,1,0,0:0:0:0:
408,256,44701,2,0,L|400:196,1,50,2|0,0:0|0:0,0:0:0:0:
504,132,44867,1,2,1:2:0:0:
484,92,44951,1,0,1:0:0:0:
448,64,45034,1,10,1:2:0:0:
404,56,45117,1,0,1:0:0:0:
360,64,45201,1,2,1:2:0:0:
320,88,45284,1,0,1:0:0:0:
292,124,45367,5,4,0:0:0:0:
296,316,45534,1,0,0:0:0:0:
400,164,45701,1,2,0:0:0:0:
140,64,45867,5,4,0:0:0:0:
240,252,46034,1,0,0:0:0:0:
260,48,46201,1,2,0:0:0:0:
95,207,46367,2,0,P|150:155|134:229,1,200,4|0,0:0|0:0,0:0:0:0:
140,64,46867,5,2,0:0:0:0:
140,64,46951,1,2,0:0:0:0:
140,64,47034,2,0,P|184:72|240:128,1,100,2|0,0:0|0:0,0:0:0:0:
304,192,47367,1,2,0:0:0:0:
397,67,47534,1,2,0:0:0:0:
472,288,47701,1,2,0:0:0:0:
472,288,48034,5,4,0:0:0:0:
248,296,48201,1,0,0:0:0:0:
424,176,48367,1,2,0:0:0:0:
336,360,48534,5,4,0:0:0:0:
124,272,48701,1,0,0:0:0:0:
348,224,48867,1,2,0:0:0:0:
184,368,49034,2,0,P|76:372|8:296,1,200,4|0,0:0|0:0,0:0:0:0:
124,272,49534,5,2,0:0:0:0:
124,272,49617,1,2,0:0:0:0:
124,272,49701,2,0,L|232:276,1,100,2|0,0:0|0:0,0:0:0:0:
332,204,50034,1,2,0:0:0:0:
188,128,50201,1,2,0:0:0:0:
408,44,50367,1,2,0:0:0:0:
408,44,50701,6,0,L|420:165,1,100,4|0,0:0|0:0,0:0:0:0:
364,340,51034,1,8,0:0:0:0:
364,340,51201,1,0,0:0:0:0:
308,152,51367,1,2,0:0:0:0:
308,152,51534,1,0,0:0:0:0:
480,268,51701,5,8,0:0:0:0:
252,256,51867,1,0,0:0:0:0:
480,268,52034,1,2,0:0:0:0:
160,208,52201,1,0,0:0:0:0:
160,208,52284,1,0,0:0:0:0:
160,208,52367,6,0,P|112:208|24:236,1,100,8|0,0:0|0:0,0:0:0:0:
290,100,52701,2,0,P|314:59|333:-30,1,100,2|0,0:0|0:0,0:0:0:0:
317,267,53034,2,0,P|341:308|410:370,1,100,8|0,0:0|0:0,0:0:0:0:
256,192,53367,5,8,0:0:0:0:
136,312,53534,1,2,0:0:0:0:
317,267,53701,1,8,0:0:0:0:
124,188,53867,1,2,0:0:0:0:
348,128,54034,5,8,0:0:0:0:
208,260,54201,1,2,0:0:0:0:
432,204,54367,1,8,0:0:0:0:
180,108,54534,1,2,0:0:0:0:
456,32,54701,5,2,1:0:0:0:
384,124,56034,6,0,B|244:144|244:144|300:96,1,200,4|8,0:0|0:0,0:0:0:0:
464,92,56534,1,0,0:0:0:0:
464,92,56617,1,0,0:0:0:0:
464,92,56701,2,0,L|471:142,1,50,2|0,0:0|0:0,0:0:0:0:
408,208,56867,1,2,0:0:0:0:
254,118,57034,2,0,L|383:123,1,129.999994049073,8|0,0:0|0:0,0:0:0:0:
224,320,57367,6,0,B|196:280|224:200|224:200|180:188|172:136,1,200,2|8,0:0|0:0,0:0:0:0:
260,68,57867,1,0,0:0:0:0:
260,68,57951,1,0,0:0:0:0:
260,68,58034,2,0,L|252:128,1,50,2|0,0:0|0:0,0:0:0:0:
174,148,58201,1,2,0:0:0:0:
8,92,58367,2,0,B|36:98|60:70|60:70|88:86|127:86,1,129.999994049073,8|0,0:0|0:0,0:0:0:0:
200,60,58617,1,0,0:0:0:0:
254,118,58701,6,0,B|332:124|332:124|376:104|376:104|472:112,1,200,2|8,0:0|0:0,0:0:0:0:
168,164,59201,1,0,0:0:0:0:
168,164,59284,1,0,0:0:0:0:
168,164,59367,2,0,L|160:96,1,50,2|0,0:0|0:0,0:0:0:0:
216,48,59534,1,2,0:0:0:0:
12,60,59701,2,0,B|40:48|84:72|84:72|112:36|128:40,1,129.999994049073,8|0,0:0|0:0,0:0:0:0:
343,134,60034,6,0,B|303:146|263:118|263:118|223:142|223:142|199:114|127:111,1,200,2|8,0:0|0:0,0:0:0:0:
308,4,60534,1,0,0:0:0:0:
308,4,60617,1,0,0:0:0:0:
308,4,60701,2,0,L|328:80,1,50,2|0,0:0|0:0,0:0:0:0:
343,134,60867,1,2,0:0:0:0:
216,48,61034,1,8,0:0:0:0:
416,76,61201,1,0,0:0:0:0:
416,76,61284,1,0,0:0:0:0:
416,76,61367,6,0,P|440:124|424:188,1,100,4|0,0:0|0:0,0:0:0:0:
340,316,61701,1,8,0:0:0:0:
343,134,61867,1,0,0:0:0:0:
343,134,61951,1,0,0:0:0:0:
343,134,62034,2,0,L|332:72,1,50,2|0,0:0|0:0,0:0:0:0:
264,28,62201,1,2,0:0:0:0:
460,75,62367,2,0,B|400:95|400:95|300:79,1,129.999994049073,8|0,0:0|0:0,0:0:0:0:
152,48,62701,6,0,L|164:156,1,100,2|0,0:0|0:0,0:0:0:0:
44,344,63034,2,0,L|32:236,1,100,10|0,0:0|0:0,0:0:0:0:
32,244,63284,1,0,0:0:0:0:
32,244,63367,1,2,0:0:0:0:
232,296,63534,1,2,0:0:0:0:
88,168,63701,2,0,L|76:64,1,100,10|0,0:0|0:0,0:0:0:0:
176,160,63951,1,0,0:0:0:0:
176,192,64034,6,0,B|164:244|100:260|100:260|152:288|168:364,1,200,2|8,0:0|0:0,0:0:0:0:
236,136,64534,1,0,0:0:0:0:
236,136,64617,1,0,0:0:0:0:
236,136,64701,2,0,L|232:76,1,50,2|0,0:0|0:0,0:0:0:0:
292,20,64867,1,2,0:0:0:0:
368,204,65034,1,8,0:0:0:0:
488,56,65201,1,0,0:0:0:0:
504,88,65284,1,0,0:0:0:0:
500,124,65367,5,2,0:0:0:0:
368,204,65534,1,0,0:0:0:0:
352,236,65617,1,0,0:0:0:0:
356,272,65700,5,10,0:0:0:0:
492,364,65867,2,0,L|504:316,1,50
444,180,66034,5,2,1:2:0:0:
416,136,66117,1,0,1:0:0:0:
372,124,66201,1,2,1:2:0:0:
332,132,66284,1,0,1:0:0:0:
304,156,66367,5,10,1:2:0:0:
288,192,66451,1,0,1:0:0:0:
292,236,66534,1,2,1:2:0:0:
324,272,66617,1,0,1:0:0:0:
368,204,66701,6,0,B|328:220|288:196|288:196|240:252|160:212,1,200,4|8,0:0|0:0,0:0:0:0:
340,108,67201,1,0,0:0:0:0:
340,108,67284,1,0,0:0:0:0:
340,108,67367,2,0,P|364:100|392:104,1,50,2|0,0:0|0:0,0:0:0:0:
472,164,67534,1,2,0:0:0:0:
324,328,67701,2,0,B|288:336|248:312|248:312|220:340|164:344,1,129.999994049073,8|0,0:0|0:0,0:0:0:0:
292,168,68034,6,0,P|308:244|360:176,1,200,2|8,0:0|0:0,0:0:0:0:
116,40,68534,1,0,0:0:0:0:
116,40,68618,1,0,0:0:0:0:
116,40,68701,2,0,L|136:132,1,50,2|0,0:0|0:0,0:0:0:0:
200,128,68867,1,2,0:0:0:0:
16,160,69034,2,0,B|44:168|68:148|68:148|100:184|156:164,1,129.999994049073,8|0,0:0|0:0,0:0:0:0:
200,128,69284,1,0,0:0:0:0:
196,52,69367,6,0,B|240:48|268:88|268:88|312:40|404:56,1,200,2|8,0:0|0:0,0:0:0:0:
320,284,69867,1,0,0:0:0:0:
320,284,69951,1,0,0:0:0:0:
320,284,70034,2,0,L|332:352,1,50,2|0,0:0|0:0,0:0:0:0:
388,224,70201,1,2,0:0:0:0:
264,216,70367,2,0,B|276:176|256:144|256:144|276:128|276:60,1,129.999994049073,8|0,0:0|0:0,0:0:0:0:
44,204,70701,6,0,B|192:192|192:192|132:236,1,200,2|8,0:0|0:0,0:0:0:0:
68,108,71201,1,0,0:0:0:0:
68,108,71284,1,0,0:0:0:0:
68,108,71367,2,0,L|140:100,1,50,2|0,0:0|0:0,0:0:0:0:
240,8,71534,2,0,L|244:64,1,50,2|0,0:0|0:0,0:0:0:0:
230,241,71701,2,0,L|224:192,1,50,8|0,0:0|0:0,0:0:0:0:
424,120,71868,2,0,L|374:125,1,50
184,104,72034,6,0,B|248:88|288:124|288:124|296:52|384:48,1,200,6|8,0:0|0:0,0:0:0:0:
440,204,72534,1,0,0:0:0:0:
440,204,72617,1,0,0:0:0:0:
440,204,72701,2,0,L|428:281,1,50,2|0,0:0|0:0,0:0:0:0:
412,356,72867,1,2,0:0:0:0:
328,136,73034,1,8,0:0:0:0:
484,96,73201,1,0,0:0:0:0:
334,235,73367,6,0,L|326:107,1,100,2|0,0:0|0:0,0:0:0:0:
412,356,73701,1,8,0:0:0:0:
256,196,73867,1,0,0:0:0:0:
256,196,73951,1,0,0:0:0:0:
256,196,74034,2,0,L|197:207,1,50,2|0,0:0|0:0,0:0:0:0:
88,224,74201,1,2,0:0:0:0:
304,344,74367,1,8,0:0:0:0:
340,192,74534,1,0,0:0:0:0:
340,192,74617,1,0,0:0:0:0:
340,192,74701,6,0,B|320:60|320:60|284:128,1,200,2|8,0:0|0:0,0:0:0:0:
137,232,75201,1,0,0:0:0:0:
137,232,75284,1,0,0:0:0:0:
137,232,75367,2,0,L|88:224,1,50,2|0,0:0|0:0,0:0:0:0:
176,320,75534,1,2,0:0:0:0:
140,144,75701,5,8,0:0:0:0:
176,320,75867,1,0,0:0:0:0:
52,248,76034,5,8,0:3:0:0:
224,144,76201,1,4,0:3:0:0:
248,256,76367,1,4,0:3:0:0:
36,124,76534,1,4,0:3:0:0:
224,144,76701,5,0,1:0:0:0:
260,180,76784,1,0,1:0:0:0:
308,192,76867,1,0,1:0:0:0:
360,188,76951,1,0,1:0:0:0:
404,160,77034,1,0,1:0:0:0:
428,116,77117,1,0,1:0:0:0:
432,64,77201,1,0,1:0:0:0:
416,16,77284,1,0,1:0:0:0:
368,4,77367,6,0,B|228:24|228:24|316:56,1,200,4|8,0:0|0:0,0:0:0:0:
428,116,77867,1,0,0:0:0:0:
428,116,77951,1,0,0:0:0:0:
428,116,78034,2,0,L|416:240,1,100,2|0,0:0|0:0,0:0:0:0:
204,324,78367,2,0,B|200:284|232:256|232:256|204:244|200:216,1,129.999994049073,10|0,0:0|0:0,0:0:0:0:
296,332,78701,5,2,0:0:0:0:
64,312,78867,1,0,0:0:0:0:
276,180,79034,1,10,0:0:0:0:
76,64,79201,1,0,0:0:0:0:
76,64,79284,1,0,0:0:0:0:
76,64,79367,2,0,L|88:176,1,100,2|0,0:0|0:0,0:0:0:0:
192,364,79701,2,0,B|216:304|216:304|192:224,1,129.999994049073,10|0,0:0|0:0,0:0:0:0:
166,173,79951,1,0,0:0:0:0:
166,173,80034,5,2,0:0:0:0:
424,168,80201,1,2,0:0:0:0:
320,20,80367,2,0,B|296:80|296:80|320:160,1,129.999994049073,8|0,0:0|0:0,0:0:0:0:
346,211,80617,1,0,0:0:0:0:
346,211,80700,5,2,0:0:0:0:
208,108,80867,1,2,0:0:0:0:
424,168,81034,2,0,B|448:208|432:248|432:248|456:268|448:312,1,129.999994049073,8|0,0:0|0:0,0:0:0:0:
212,352,81367,5,2,0:0:0:0:
376,304,81534,1,0,0:0:0:0:
372,328,81617,1,0,0:0:0:0:
368,352,81701,1,10,0:0:0:0:
212,352,81867,1,0,1:0:0:0:
168,332,81951,1,0,1:0:0:0:
144,292,82034,1,2,1:2:0:0:
144,248,82117,1,0,1:0:0:0:
168,208,82201,1,2,2:0:0:0:
204,184,82284,1,0,1:0:0:0:
232,144,82367,6,0,L|224:68,1,50,2|0,1:2|1:0,1:0:0:0:
16,78,82534,2,0,L|8:128,1,50,2|0,1:2|1:0,1:0:0:0:
116,248,82701,5,2,0:1:0:0:
116,112,84034,5,8,0:0:0:0:
428,164,84201,1,8,0:0:0:0:
424,24,84701,5,8,0:0:0:0:
396,296,84867,1,8,0:0:0:0:
248,192,85034,1,0,1:0:0:0:
212,196,85117,1,0,1:0:0:0:
176,200,85201,1,0,1:0:0:0:
140,204,85284,1,0,1:0:0:0:
104,208,85367,5,8,1:2:0:0:
248,192,85534,1,0,1:0:0:0:
192,308,85701,1,8,0:0:0:0:
256,156,85867,1,0,1:0:0:0:
332,316,86034,5,8,0:0:0:0:
248,120,86201,1,0,1:0:0:0:
160,320,86367,1,8,0:0:0:0:
256,80,86534,1,0,1:0:0:0:
496,152,86701,5,8,0:0:0:0:
252,48,86867,1,8,0:0:0:0:
16,152,87034,1,8,0:0:0:0:
260,8,87201,1,8,0:0:0:0:
496,152,87367,5,8,1:2:0:0:
464,176,87451,1,0,1:0:0:0:
424,184,87534,1,8,1:2:0:0:
384,176,87617,1,0,1:0:0:0:
352,132,87701,5,8,1:2:0:0:
308,96,87784,1,0,1:0:0:0:
252,92,87867,1,8,1:2:0:0:
200,112,87951,1,0,1:0:0:0:
160,148,88034,6,0,B|184:192|172:236|172:236|136:256|132:328,1,150,4|0,0:0|0:0,0:0:0:0:
208,360,88367,2,0,P|216:296|296:292,1,129.999994049073,8|0,0:0|0:0,0:0:0:0:
344,300,88617,1,0,0:0:0:0:
344,300,88701,1,2,0:0:0:0:
208,360,88867,1,2,0:0:0:0:
465,227,89034,2,0,L|440:324,1,100,8|0,0:0|0:0,0:0:0:0:
440,324,89367,6,0,L|418:153,1,150,2|0,0:0|0:0,0:0:0:0:
280,108,89701,2,0,B|324:104|356:140|356:140|368:112|408:104,1,129.999994049073,8|0,0:0|0:0,0:0:0:0:
460,112,89951,1,0,0:0:0:0:
460,112,90034,1,2,0:0:0:0:
284,196,90201,1,2,0:0:0:0:
165,33,90367,2,0,L|273:49,1,100,8|0,0:0|0:0,0:0:0:0:
263,47,90617,1,0,0:0:0:0:
263,47,90701,6,0,L|288:232,1,150,2|0,0:0|0:0,0:0:0:0:
244,340,91034,2,0,B|228:300|252:264|252:264|224:252|212:212,1,129.999994049073,8|0,0:0|0:0,0:0:0:0:
204,152,91284,1,0,0:0:0:0:
204,152,91367,1,2,0:0:0:0:
328,312,91534,1,2,0:0:0:0:
384,80,91701,1,8,0:0:0:0:
468,200,91867,1,0,0:0:0:0:
204,152,92034,5,2,0:0:0:0:
204,152,92201,1,2,0:0:0:0:
384,80,92367,1,8,0:0:0:0:
208,40,92534,1,2,0:0:0:0:
368,180,92701,2,0,L|376:240,1,50,2|0,1:2|1:0,1:0:0:0:
488,284,92867,5,0,1:0:0:0:
468,324,92951,1,0,1:0:0:0:
432,348,93034,1,0,1:0:0:0:
388,356,93117,1,0,1:0:0:0:
344,352,93201,1,0,1:0:0:0:
304,336,93284,1,0,1:0:0:0:
272,304,93367,6,0,P|244:312|192:304,1,50,6|0,0:0|0:0,0:0:0:0:
280,144,93534,2,0,P|300:164|320:213,1,50,2|0,0:0|0:0,0:0:0:0:
140,216,93701,2,0,P|147:187|180:146,1,50,2|0,0:0|0:0,0:0:0:0:
432,212,93867,6,0,L|215:227,1,200,4|0,0:0|0:0,0:0:0:0:
140,216,94284,1,0,0:0:0:0:
140,216,94367,2,0,B|112:184|112:184|88:272,1,129.999994049073,8|0,0:0|0:0,0:0:0:0:
304,156,94701,6,0,L|280:4,1,150,2|0,0:0|0:0,0:0:0:0:
280,7,95034,1,8,0:0:0:0:
392,232,95201,1,0,0:0:0:0:
392,232,95284,1,0,0:0:0:0:
392,232,95367,2,0,L|376:300,1,50,2|0,0:0|0:0,0:0:0:0:
308,336,95534,1,2,0:0:0:0:
504,248,95701,1,8,0:0:0:0:
304,156,95867,1,0,0:0:0:0:
304,156,95951,1,0,0:0:0:0:
304,156,96034,6,0,B|260:156|240:136|240:136|208:180|136:172,1,150,2|0,0:0|0:0,0:0:0:0:
128,76,96367,2,0,B|164:96|164:96|136:-4,1,129.999994049073,12|0,0:0|0:0,0:0:0:0:
76,156,96617,1,0,0:0:0:0:
80,172,96701,2,0,L|92:220,1,50,2|0,1:2|1:0,1:0:0:0:
32,320,96867,5,0,1:0:0:0:
76,348,96951,1,0,1:0:0:0:
124,348,97034,1,8,1:2:0:0:
172,332,97117,1,0,1:0:0:0:
204,296,97201,1,0,1:0:0:0:
236,260,97284,1,0,1:0:0:0:
280,240,97367,6,0,P|312:236|340:248,3,50,4|0|0|0,0:0|0:0|0:0|0:0,0:0:0:0:
384,340,97701,2,0,P|412:344|444:332,3,50
500,240,98034,1,0,0:0:0:0:
492,216,98117,1,0,0:0:0:0:
476,196,98201,1,0,0:0:0:0:
456,184,98284,1,0,0:0:0:0:
432,180,98367,1,0,0:0:0:0:
408,184,98451,1,0,0:0:0:0:
384,196,98534,1,0,0:0:0:0:
368,216,98617,1,0,0:0:0:0:
360,240,98701,6,0,L|256:252,1,89.9999972534181,4|0,0:0|0:0,0:0:0:0:
200,256,99034,1,2,0:0:0:0:
40,368,99201,1,2,0:0:0:0:
88,220,99534,1,2,0:0:0:0:
40,368,99701,2,0,L|32:264,1,89.9999972534181
88,220,100034,6,0,L|92:120,1,89.9999972534181,2|0,0:0|0:0,0:0:0:0:
36,64,100367,1,2,0:0:0:0:
272,112,100534,1,2,0:0:0:0:
272,112,100867,2,0,L|284:64,2,29.9999990844727
268,200,101201,1,2,0:0:0:0:
264,292,101367,6,0,L|368:264,1,89.9999972534181,2|0,0:0|0:0,0:0:0:0:
424,248,101701,1,2,0:0:0:0:
264,292,101867,1,2,0:0:0:0:
424,248,102201,1,2,0:0:0:0:
264,292,102367,2,0,L|356:268,1,89.9999972534181
424,248,102701,6,0,L|432:140,1,89.9999972534181,2|0,0:0|0:0,0:0:0:0:
436,88,103034,1,2,0:0:0:0:
264,192,103201,1,2,0:0:0:0:
436,88,103534,5,0,0:0:0:0:
264,192,103701,1,2,0:0:0:0:
112,80,103867,1,2,0:0:0:0:
288,40,104034,6,0,P|304:88|284:132,1,89.9999972534181,2|0,0:0|0:0,0:0:0:0:
264,192,104367,1,2,0:0:0:0:
112,80,104534,1,2,0:0:0:0:
84,232,104867,1,2,0:0:0:0:
112,80,105034,2,0,B|128:124|128:124|116:168,1,89.9999972534181
84,232,105367,6,0,B|68:276|68:276|76:320,1,89.9999972534181,2|0,0:0|0:0,0:0:0:0:
132,372,105701,1,2,0:0:0:0:
412,204,105867,1,2,0:0:0:0:
492,168,106201,1,2,0:0:0:0:
500,204,106284,1,2,0:0:0:0:
488,240,106367,1,2,0:0:0:0:
412,300,106534,1,2,0:0:0:0:
320,92,106701,6,0,L|432:84,1,89.9999972534181,2|0,0:0|0:0,0:0:0:0:
484,80,107034,1,2,0:0:0:0:
296,224,107201,1,2,0:0:0:0:
320,92,107534,1,2,0:0:0:0:
296,224,107701,1,0,0:0:0:0:
320,92,107867,1,0,0:0:0:0:
388,168,108034,5,2,0:0:0:0:
208,252,108201,1,2,0:0:0:0:
208,72,108367,1,2,0:0:0:0:
108,312,108534,1,6,0:0:0:0:
108,312,108867,5,0,1:0:0:0:
108,312,108951,1,0,1:0:0:0:
108,312,109034,1,0,1:0:0:0:
308,240,109201,1,0,1:0:0:0:
108,312,109367,6,0,B|152:312|184:272|184:272|208:288|244:284,1,150,4|0,0:0|0:0,0:0:0:0:
308,240,109701,2,0,P|360:228|420:272,1,100,8|0,0:0|0:0,0:0:0:0:
104,224,110034,1,2,0:0:0:0:
348,308,110201,1,2,0:0:0:0:
468,140,110367,2,0,L|456:24,1,100,8|0,0:0|0:0,0:0:0:0:
252,136,110701,6,0,B|202:146|170:126|170:126|170:158|138:182,1,150,2|0,0:0|0:0,0:0:0:0:
88,112,111034,2,0,P|36:84|24:36,1,100,8|0,0:0|0:0,0:0:0:0:
100,36,111284,1,0,0:0:0:0:
100,36,111367,1,2,0:0:0:0:
208,220,111534,1,2,0:0:0:0:
392,128,111701,2,0,L|380:8,1,100,8|0,0:0|0:0,0:0:0:0:
300,100,111951,1,0,0:0:0:0:
296,128,112034,6,0,B|292:176|328:204|328:204|292:232|288:292,1,150,2|0,0:0|0:0,0:0:0:0:
376,364,112367,2,0,P|376:268|396:252,1,100,8|0,0:0|0:0,0:0:0:0:
488,104,112701,1,2,0:0:0:0:
448,316,112867,1,2,0:0:0:0:
192,192,113034,2,0,L|64:208,1,100,8|0,0:0|0:0,0:0:0:0:
192,364,113367,6,0,B|216:324|204:272|204:272|236:272|264:232,1,150,2|0,0:0|0:0,0:0:0:0:
192,192,113701,2,0,P|176:104|192:80,1,100,8|0,0:0|0:0,0:0:0:0:
232,36,113951,1,0,0:0:0:0:
232,36,114034,1,2,0:0:0:0:
424,128,114201,1,2,0:0:0:0:
260,136,114367,1,8,0:0:0:0:
456,12,114534,2,0,L|468:60,1,50
488,188,114701,6,0,B|424:212|424:212|388:164|348:172,1,150,6|0,0:0|0:0,0:0:0:0:
256,256,115034,2,0,P|308:240|360:264,1,100,8|0,0:0|0:0,0:0:0:0:
264,84,115367,1,2,0:0:0:0:
304,320,115534,1,2,0:0:0:0:
91,82,115701,2,0,L|191:70,1,100,8|0,0:0|0:0,0:0:0:0:
408,156,116034,6,0,B|364:160|332:128|332:128|312:164|244:172,1,150,2|0,0:0|0:0,0:0:0:0:
191,70,116367,2,0,B|216:84|220:108|220:108|236:88|268:84,1,100,8|0,0:0|0:0,0:0:0:0:
240,16,116617,1,0,0:0:0:0:
240,16,116701,1,2,0:0:0:0:
144,128,116867,1,2,0:0:0:0:
48,16,117034,1,8,0:0:0:0:
144,128,117201,1,0,0:0:0:0:
144,128,117284,1,0,0:0:0:0:
144,128,117367,6,0,P|180:196|140:280,1,150,2|0,0:0|0:0,0:0:0:0:
0,208,117701,2,0,P|48:192|104:200,1,100,8|0,0:0|0:0,0:0:0:0:
272,128,118034,1,2,0:0:0:0:
159,261,118201,1,2,0:0:0:0:
68,72,118367,2,0,L|192:56,1,100,8|0,0:0|0:0,0:0:0:0:
272,128,118701,6,0,P|288:232|244:288,1,150,2|0,0:0|0:0,0:0:0:0:
116,224,119034,2,0,P|168:196|232:208,1,100,8|0,0:0|0:0,0:0:0:0:
180,280,119284,1,0,0:0:0:0:
180,280,119367,1,2,0:0:0:0:
64,156,119534,1,2,1:2:0:0:
92,136,119617,1,0,1:0:0:0:
124,124,119701,1,2,1:2:0:0:
160,116,119784,1,0,1:0:0:0:
196,116,119867,1,2,1:2:0:0:
232,124,119951,1,0,1:0:0:0:
260,140,120034,5,4,1:0:0:0:
432,112,120201,2,0,L|420:28,1,80,2|0,0:0|1:0,0:0:0:0:
248,219,120534,2,0,L|260:135,1,80,2|0,0:0|0:0,0:0:0:0:
320,328,120867,5,2,1:2:0:0:
450,260,121034,2,0,L|430:96,1,150,2|0,0:0|0:0,0:0:0:0:
431,111,121617,1,0,0:0:0:0:
431,111,121701,1,2,0:0:0:0:
344,180,121867,1,0,0:0:0:0:
248,76,122034,1,2,1:2:0:0:
168,224,122201,1,2,1:2:0:0:
68,40,122367,1,2,1:2:0:0:
68,40,122701,5,4,1:2:0:0:
248,76,122867,2,0,L|236:172,1,80,2|0,0:0|1:0,0:0:0:0:
428,96,123201,2,0,L|418:16,1,80,2|0,0:0|0:0,0:0:0:0:
388,208,123534,1,2,1:2:0:0:
238,155,123701,6,0,L|254:327,1,150,2|0,0:0|0:0,0:0:0:0:
251,304,124284,1,0,0:0:0:0:
251,304,124367,1,2,0:0:0:0:
168,236,124534,1,0,0:0:0:0:
324,200,124701,1,2,1:2:0:0:
96,148,124867,1,2,1:2:0:0:
376,96,125034,1,2,1:2:0:0:
344,168,125367,6,0,P|336:32|424:160,1,400,4|0,0:0|0:0,0:0:0:0:
168,167,127034,6,0,P|144:20|85:157,1,400
376,96,128034,5,12,0:0:0:0:
292,232,128201,1,2,0:0:0:0:
256,84,128367,1,8,0:0:0:0:
416,224,128534,1,2,0:0:0:0:
224,160,128701,5,8,0:0:0:0:
128,308,128867,1,2,0:0:0:0:
92,152,129034,1,8,0:0:0:0:
256,312,129201,1,2,0:0:0:0:
0,212,129367,5,2,1:0:0:0:
156,56,129701,6,0,L|160:80,7,14.9999995422363,2|0|0|0|0|0|0|0,0:0|0:0|0:0|0:0|0:0|0:0|0:0|0:0,0:0:0:0:
228,104,130034,6,0,L|232:136,7,20
160,168,130367,6,0,L|164:212,7,25
244,216,130701,6,0,B|276:276|268:344|268:344|272:308|304:272,1,200,4|8,0:0|0:0,0:0:0:0:
400,336,131201,1,0,0:0:0:0:
400,336,131284,1,0,0:0:0:0:
400,336,131368,2,0,P|372:344|328:332,1,50,2|0,0:0|0:0,0:0:0:0:
176,264,131534,1,2,0:0:0:0:
376,164,131701,2,0,B|361:193|361:193|349:97,1,129.999994049073,8|0,0:0|0:0,0:0:0:0:
168,96,132034,6,0,B|288:28|288:28|264:52|260:104,1,200,2|8,0:0|0:0,0:0:0:0:
222,209,132534,1,0,0:0:0:0:
222,209,132618,1,0,0:0:0:0:
222,209,132701,2,0,L|228:159,1,50,2|0,0:0|0:0,0:0:0:0:
420,144,132868,1,2,0:0:0:0:
228,160,133034,2,0,B|260:176|300:144|300:144|328:176|392:164,1,129.999994049073,8|0,0:0|0:0,0:0:0:0:
420,144,133284,1,0,0:0:0:0:
480,196,133368,6,0,B|484:260|436:324|436:324|436:284|412:240,1,200,2|8,0:0|0:0,0:0:0:0:
420,144,133868,1,0,0:0:0:0:
420,144,133951,1,0,0:0:0:0:
420,144,134034,2,0,L|424:80,1,50,2|0,0:0|0:0,0:0:0:0:
236,48,134201,1,2,0:0:0:0:
436,20,134368,2,0,L|284:40,1,129.999994049073,8|0,0:0|0:0,0:0:0:0:
60,200,134701,6,0,B|128:224|156:172|200:152|264:196,1,200,2|8,0:0|0:0,0:0:0:0:
80,76,135201,1,0,0:0:0:0:
80,76,135284,1,0,0:0:0:0:
80,76,135368,2,0,L|100:152,1,50,2|0,0:0|0:0,0:0:0:0:
196,256,135534,1,2,0:0:0:0:
268,60,135701,1,8,0:0:0:0:
196,256,135868,1,0,0:0:0:0:
196,256,135951,1,0,0:0:0:0:
196,256,136034,6,0,L|72:268,1,100,6|0,0:0|0:0,0:0:0:0:
268,320,136368,1,8,0:0:0:0:
452,248,136534,1,0,0:0:0:0:
452,248,136618,1,0,0:0:0:0:
452,248,136701,2,0,L|441:186,1,50,2|0,0:0|0:0,0:0:0:0:
365,34,136868,1,2,0:0:0:0:
500,128,137034,2,0,P|440:108|356:168,1,129.999994049073,8|0,0:0|0:0,0:0:0:0:
272,344,137368,6,0,P|256:292|260:232,1,100,2|0,0:0|0:0,0:0:0:0:
365,34,137701,2,0,P|381:86|377:146,1,100,10|0,0:0|0:0,0:0:0:0:
380,131,137951,1,0,0:0:0:0:
380,131,138034,1,2,0:0:0:0:
256,246,138201,1,2,0:0:0:0:
168,108,138368,2,0,B|220:100|220:100|244:108|244:108|320:96,1,129.999994049073,10|0,0:0|0:0,0:0:0:0:
380,131,138618,1,0,0:0:0:0:
408,112,138701,6,0,B|496:68|496:68|392:34,1,200,2|8,0:0|0:0,0:0:0:0:
316,196,139201,1,0,0:0:0:0:
316,196,139284,1,0,0:0:0:0:
316,196,139368,2,0,L|319:245,1,50,2|0,0:0|0:0,0:0:0:0:
420,368,139534,1,2,0:0:0:0:
504,180,139701,1,8,0:0:0:0:
364,308,139868,1,0,0:0:0:0:
332,324,139951,1,0,0:0:0:0:
296,320,140034,5,2,0:0:0:0:
204,212,140201,1,0,0:0:0:0:
172,196,140284,1,0,0:0:0:0:
136,200,140367,5,10,0:0:0:0:
32,360,140534,2,0,P|56:372|84:368,1,50
272,252,140701,5,2,1:2:0:0:
284,204,140784,1,0,1:0:0:0:
268,160,140868,1,2,1:2:0:0:
236,135,140951,1,0,1:0:0:0:
200,129,141034,5,2,1:2:0:0:
162,140,141118,1,0,1:0:0:0:
132,172,141201,1,2,1:2:0:0:
124,220,141284,1,0,1:0:0:0:
204,212,141368,6,0,B|200:128|200:128|220:96|220:96|216:0,1,200,4|8,0:0|0:0,0:0:0:0:
296,204,141868,1,0,0:0:0:0:
296,204,141951,1,0,0:0:0:0:
296,204,142034,2,0,L|280:276,1,50,2|0,0:0|0:0,0:0:0:0:
264,344,142201,1,2,0:0:0:0:
75,227,142368,2,0,B|203:211,1,129.999994049073,8|0,0:0|0:0,0:0:0:0:
384,132,142701,6,0,B|368:80|396:36|396:36|368:92|312:104,1,200,2|8,0:0|0:0,0:0:0:0:
492,240,143201,1,0,0:0:0:0:
492,240,143285,1,0,0:0:0:0:
492,240,143368,2,0,L|481:191,1,50,2|0,0:0|0:0,0:0:0:0:
460,96,143534,1,2,0:0:0:0:
320,32,143701,2,0,B|356:28|388:52|388:52|404:24|456:8,1,129.999994049073,8|0,0:0|0:0,0:0:0:0:
460,96,143951,1,0,0:0:0:0:
404,156,144034,6,0,B|324:216|324:216|328:104,1,200,2|8,0:0|0:0,0:0:0:0:
412,256,144534,1,0,0:0:0:0:
412,256,144618,1,0,0:0:0:0:
412,256,144701,2,0,L|364:292,1,50,2|0,0:0|0:0,0:0:0:0:
240,200,144868,1,2,0:0:0:0:
288,352,145034,2,0,B|304:304|292:256|292:256|284:272|240:280,1,129.999994049073,8|0,0:0|0:0,0:0:0:0:
28,240,145368,6,0,B|96:280|172:248|172:248|156:228|152:184,1,200,2|8,0:0|0:0,0:0:0:0:
444,140,145868,1,0,0:0:0:0:
444,140,145951,1,0,0:0:0:0:
444,140,146034,2,0,P|460:168|460:200,1,50,2|0,0:0|0:0,0:0:0:0:
284,248,146201,2,0,L|272:168,1,50,2|0,0:0|0:0,0:0:0:0:
212,132,146367,2,0,P|196:160|196:192,1,50,8|0,0:0|0:0,0:0:0:0:
372,244,146534,2,0,L|384:164,1,50
444,40,146701,6,0,B|360:120|360:120|364:80|327:29,1,200,6|8,0:0|0:0,0:0:0:0:
124,60,147201,1,0,0:0:0:0:
124,60,147284,1,0,0:0:0:0:
124,60,147368,2,0,L|180:44,1,50,2|0,0:0|0:0,0:0:0:0:
280,104,147534,1,2,0:0:0:0:
100,140,147701,2,0,B|16:112|16:112|76:92,1,129.999994049073,8|0,0:0|0:0,0:0:0:0:
280,104,148034,6,0,L|384:96,1,100,2|0,0:0|0:0,0:0:0:0:
200,32,148368,1,8,0:0:0:0:
336,176,148534,1,0,0:0:0:0:
336,176,148618,1,0,0:0:0:0:
336,176,148701,2,0,L|324:240,1,50,2|0,0:0|0:0,0:0:0:0:
304,344,148868,1,2,0:0:0:0:
484,240,149034,1,8,0:0:0:0:
280,104,149201,1,0,0:0:0:0:
280,104,149284,1,0,0:0:0:0:
280,104,149368,6,0,B|412:56|412:56|360:128,1,200,2|8,0:0|0:0,0:0:0:0:
216,224,149868,1,0,0:0:0:0:
216,224,149951,1,0,0:0:0:0:
216,224,150034,2,0,L|212:172,1,50,2|0,0:0|0:0,0:0:0:0:
196,24,150201,1,2,0:0:0:0:
124,136,150368,5,8,0:0:0:0:
284,28,150534,1,0,0:0:0:0:
360,156,150701,5,8,0:3:0:0:
196,24,150868,1,4,0:3:0:0:
244,144,151034,1,4,0:3:0:0:
408,24,151201,1,4,0:3:0:0:
496,140,151367,5,0,1:0:0:0:
500,188,151451,1,0,1:0:0:0:
480,232,151534,1,0,1:0:0:0:
436,256,151618,1,0,1:0:0:0:
388,256,151701,1,0,1:0:0:0:
344,232,151784,1,0,1:0:0:0:
292,236,151868,1,0,1:0:0:0:
248,260,151951,1,0,1:0:0:0:
216,300,152034,6,0,B|168:360|72:336|72:336|100:280,1,200,4|8,0:0|0:0,0:0:0:0:
316,312,152534,1,0,0:0:0:0:
316,312,152618,1,0,0:0:0:0:
316,312,152701,2,0,L|432:296,1,100,2|0,0:0|0:0,0:0:0:0:
156,269,153034,2,0,B|60:285|60:285|124:313,1,129.999994049073,10|0,0:0|0:0,0:0:0:0:
224,212,153368,5,2,0:0:0:0:
156,352,153534,1,0,0:0:0:0:
52,200,153701,1,10,0:0:0:0:
263,291,153868,1,0,0:0:0:0:
263,291,153951,1,0,0:0:0:0:
263,291,154034,2,0,L|255:179,1,100,2|0,0:0|0:0,0:0:0:0:
128,40,154368,2,0,P|72:32|12:84,1,129.999994049073,10|0,0:0|0:0,0:0:0:0:
88,112,154618,1,0,0:0:0:0:
88,112,154701,5,2,0:0:0:0:
256,192,154868,1,2,0:0:0:0:
384,40,155034,2,0,P|440:32|500:84,1,129.999994049073,8|0,0:0|0:0,0:0:0:0:
424,112,155284,1,0,0:0:0:0:
424,112,155367,5,2,0:0:0:0:
256,192,155534,1,2,0:0:0:0:
476,336,155701,2,0,B|461:199,1,129.999994049073,8|0,0:0|0:0,0:0:0:0:
256,192,156034,5,2,0:0:0:0:
484,20,156201,1,0,0:0:0:0:
488,40,156284,1,0,0:0:0:0:
492,60,156368,1,10,0:0:0:0:
396,128,156534,1,0,1:0:0:0:
368,92,156618,1,0,1:0:0:0:
324,80,156701,1,2,1:2:0:0:
280,92,156784,1,0,1:0:0:0:
248,124,156868,1,2,1:2:0:0:
204,136,156951,1,0,1:0:0:0:
164,116,157034,6,0,L|88:108,1,50,2|0,1:2|1:0,1:0:0:0:
32,192,157201,2,0,L|96:200,1,50,2|0,1:2|1:0,1:0:0:0:
208,48,157368,1,2,0:1:0:0:
212,56,158701,5,8,0:0:0:0:
304,320,158867,1,8,0:0:0:0:
300,56,159367,5,8,0:0:0:0:
204,320,159533,1,8,0:0:0:0:
40,176,159701,1,0,1:0:0:0:
84,168,159784,1,0,1:0:0:0:
128,160,159867,1,0,1:0:0:0:
172,152,159951,1,0,1:0:0:0:
216,144,160034,5,4,1:0:0:0:
216,144,160367,1,2,0:0:0:0:
288,68,160534,2,0,L|464:48,1,150,8|0,0:0|0:0,0:0:0:0:
476,44,160867,1,2,0:0:0:0:
311,170,161034,6,0,L|215:143,1,100,8|2,0:0|0:0,0:0:0:0:
215,143,161284,1,0,0:0:0:0:
215,143,161367,1,0,0:0:0:0:
56,312,161534,5,8,0:0:0:0:
156,292,161701,1,0,0:0:0:0:
252,272,161867,1,0,0:0:0:0:
48,176,162034,5,10,0:0:0:0:
252,272,162201,1,0,0:0:0:0:
215,143,162367,5,10,0:0:0:0:
56,312,162534,1,0,0:0:0:0:
320,216,162701,6,0,L|332:92,1,100,4|0,0:0|0:0,0:0:0:0:
479,239,163034,1,2,0:0:0:0:
215,143,163201,6,0,L|203:19,1,100,8|0,0:0|0:0,0:0:0:0:
65,212,163534,1,2,0:0:0:0:
329,116,163701,6,0,L|341:-8,1,100,8|2,0:0|0:0,0:0:0:0:
338,16,163951,1,0,0:0:0:0:
338,16,164034,1,0,0:0:0:0:
52,112,164201,5,8,0:0:0:0:
206,203,164367,1,2,0:0:0:0:
44,276,164534,1,0,0:0:0:0:
200,368,164701,1,10,0:0:0:0:
272,268,164867,5,0,0:0:0:0:
272,268,164951,1,0,0:0:0:0:
272,268,165034,2,0,L|328:256,1,50,10|0,0:0|0:0,0:0:0:0:
464,316,165201,2,0,L|396:332,1,50,2|0,0:0|0:0,0:0:0:0:
188,304,165367,6,0,B|164:164|164:164|220:216,1,200,4|2,0:0|0:0,0:0:0:0:
272,268,165867,1,8,0:0:0:0:
336,112,166034,1,0,0:0:0:0:
448,240,166201,1,2,0:0:0:0:
496,28,166367,2,0,L|384:44,1,100,8|0,0:0|0:0,0:0:0:0:
360,48,166617,1,0,0:0:0:0:
360,48,166701,1,2,0:0:0:0:
92,76,166867,5,8,0:0:0:0:
168,164,167034,2,0,L|152:272,1,100
132,360,167367,5,10,0:0:0:0:
32,204,167534,1,0,0:0:0:0:
240,220,167701,5,10,0:0:0:0:
352,80,167867,1,0,0:0:0:0:
320,236,168034,5,8,0:0:0:0:
176,152,168201,1,2,0:0:0:0:
344,128,168367,5,8,0:0:0:0:
160,236,168534,1,2,0:0:0:0:
400,256,168701,5,8,0:0:0:0:
132,140,168867,1,2,0:0:0:0:
416,96,169034,5,8,0:0:0:0:
112,248,169201,1,2,0:0:0:0:
304,280,169367,5,8,0:0:0:0:
28,68,169534,1,10,0:0:0:0:
60,336,169701,5,8,0:0:0:0:
256,48,169867,1,10,0:0:0:0:
248,344,170034,5,8,1:2:0:0:
220,308,170117,1,0,1:0:0:0:
216,264,170201,1,8,1:2:0:0:
232,220,170284,1,0,1:0:0:0:
268,196,170367,1,0,1:0:0:0:
300,164,170451,1,0,1:0:0:0:
304,120,170534,1,0,1:0:0:0:
292,76,170617,1,0,1:0:0:0:
256,48,170701,6,0,L|144:64,1,100,4|0,0:0|0:0,0:0:0:0:
304,280,171034,1,8,0:0:0:0:
228,132,171201,2,0,P|168:160|56:84,1,200,2|2,0:0|0:0,0:0:0:0:
323,181,171701,2,0,L|303:279,1,100,8|0,0:0|0:0,0:0:0:0:
440,340,172034,5,2,0:0:0:0:
512,168,172201,1,0,0:0:0:0:
323,181,172367,1,8,0:0:0:0:
400,12,172534,1,2,0:0:0:0:
420,16,172617,1,0,0:0:0:0:
440,20,172701,1,2,0:0:0:0:
323,181,172867,1,2,0:0:0:0:
512,168,173034,1,10,0:0:0:0:
316,60,173201,1,2,0:0:0:0:
316,60,173284,1,0,0:0:0:0:
316,60,173367,6,0,B|220:32|220:32|104:80,1,200,2|8,0:0|0:0,0:0:0:0:
184,300,173867,1,0,0:0:0:0:
184,300,173951,1,0,0:0:0:0:
184,300,174034,1,2,0:0:0:0:
228,132,174201,1,2,0:0:0:0:
60,148,174367,2,0,P|116:172|164:164,1,100,8|0,0:0|0:0,0:0:0:0:
392,40,174701,6,0,P|444:36|496:52,1,100,2|0,0:0|0:0,0:0:0:0:
120,40,175034,2,0,P|68:36|16:52,1,100,10|0,0:0|0:0,0:0:0:0:
416,271,175367,2,0,P|438:227|443:178,1,100,2|2,0:0|0:0,0:0:0:0:
68,178,175701,2,0,P|73:227|96:272,1,100,10|0,0:0|0:0,0:0:0:0:
352,188,176034,6,0,L|189:199,1,150,4|0,0:0|0:0,0:0:0:0:
160,200,176367,1,8,0:0:0:0:
376,292,176534,1,0,0:0:0:0:
376,292,176617,1,0,0:0:0:0:
376,292,176701,1,2,0:0:0:0:
416,128,176867,1,2,0:0:0:0:
480,272,177034,5,10,0:0:0:0:
292,132,177201,1,2,0:0:0:0:
464,64,177367,6,0,L|476:225,1,150,2|0,0:0|0:0,0:0:0:0:
480,272,177701,1,8,0:0:0:0:
292,132,177867,1,2,0:0:0:0:
292,132,177951,1,0,0:0:0:0:
292,132,178034,1,2,0:0:0:0:
344,272,178201,1,2,0:0:0:0:
200,136,178367,1,10,0:0:0:0:
432,48,178534,2,0,L|376:48,1,50
281,0,178701,6,0,B|281:44|313:64|313:64|285:88|292:136,1,150,2|0,0:0|0:0,0:0:0:0:
368,120,179034,1,8,0:0:0:0:
196,64,179201,1,0,0:0:0:0:
196,64,179284,1,0,0:0:0:0:
196,64,179367,2,0,P|152:60|76:88,1,100,2|2,0:0|0:0,0:0:0:0:
152,228,179701,2,0,L|136:368,1,100,8|0,0:0|0:0,0:0:0:0:
76,176,180034,5,2,0:0:0:0:
248,164,180201,1,2,0:0:0:0:
140,327,180367,2,0,B|128:128,1,194.999991073609,4|0,0:0|0:0,0:0:0:0:
68,76,180701,5,0,1:0:0:0:
112,52,180784,1,0,1:0:0:0:
160,52,180867,1,0,1:0:0:0:
196,84,180951,1,0,1:0:0:0:
216,128,181034,5,0,1:0:0:0:
252,168,181117,1,0,1:0:0:0:
308,168,181201,1,0,1:0:0:0:
356,140,181284,1,0,1:0:0:0:
388,96,181367,6,0,L|488:92,1,100,4|0,0:0|0:0,0:0:0:0:
292,76,181701,1,10,0:0:0:0:
420,196,181867,2,0,B|412:264|448:324|448:324|428:296|360:272,1,200,2|2,0:0|0:0,0:0:0:0:
320,220,182367,5,10,0:0:0:0:
376,368,182534,1,0,0:0:0:0:
481,191,182701,2,0,L|489:71,1,100,2|0,0:0|0:0,0:0:0:0:
320,220,183034,5,10,0:0:0:0:
204,176,183201,1,2,0:0:0:0:
204,176,183284,1,0,0:0:0:0:
204,176,183367,2,0,P|184:124|188:108,1,50
184,16,183534,1,0,0:0:0:0:
328,88,183701,1,8,0:0:0:0:
128,212,183867,1,0,0:0:0:0:
128,212,183951,1,0,0:0:0:0:
128,212,184034,6,0,P|104:156|104:112,1,100,2|0,0:0|0:0,0:0:0:0:
128,16,184367,1,10,0:0:0:0:
260,196,184534,1,2,0:0:0:0:
260,196,184617,1,0,0:0:0:0:
260,196,184701,2,0,L|240:264,1,50
216,352,184867,1,0,0:0:0:0:
144,184,185034,1,10,0:0:0:0:
32,296,185201,1,0,0:0:0:0:
176,160,185367,6,0,B|152:52|152:52|120:128,1,150,2|0,0:0|0:0,0:0:0:0:
101,165,185701,2,0,P|54:179|8:164,1,100,10|0,0:0|0:0,0:0:0:0:
56,96,185951,1,0,0:0:0:0:
56,96,186034,1,2,0:0:0:0:
104,264,186201,1,2,0:0:0:0:
264,104,186367,6,0,P|292:96|328:100,1,50,0|0,1:0|1:0,1:0:0:0:
392,184,186534,2,0,P|428:180|448:168,1,50,0|0,1:0|1:0,1:0:0:0:
512,32,186701,6,0,B|424:48|396:108|396:108|396:52|344:8,1,239.999992675781,4|0,0:0|0:0,0:0:0:0:
148,116,187201,6,0,B|220:76|312:96|312:96|276:132|296:184,1,239.999992675781,4|0,0:0|0:0,0:0:0:0:
328,344,187701,6,0,B|335:304|371:288|371:288|371:252|331:232|331:232|379:208|372:144,1,239.999992675781,4|0,0:0|0:0,0:0:0:0:
384,40,188201,1,0,1:0:0:0:
288,156,188367,2,0,L|174:167,1,100,8|0,0:0|0:0,0:0:0:0:
72,88,188701,5,0,1:0:0:0:
168,268,188867,1,0,1:0:0:0:
228,32,189034,1,8,0:0:0:0:
72,192,189201,1,0,0:0:0:0:
72,192,189284,1,0,0:0:0:0:
72,192,189367,5,0,1:0:0:0:
88,312,189534,1,0,1:0:0:0:
212,152,189701,5,0,1:0:0:0:
84,172,189868,1,0,1:0:0:0:
264,304,190034,5,0,1:0:0:0:
248,160,190201,1,0,1:0:0:0:
80,352,190367,5,0,1:0:0:0:
228,328,190534,1,0,1:0:0:0:
440,192,190701,5,0,1:0:0:0:
424,72,190868,1,0,1:0:0:0:
300,232,191035,5,0,1:0:0:0:
428,212,191202,1,0,1:0:0:0:
248,80,191368,5,0,1:0:0:0:
264,224,191535,1,0,1:0:0:0:
432,32,191701,5,0,1:0:0:0:
284,56,191868,1,0,1:0:0:0:
92,164,192034,5,0,1:0:0:0:
184,256,192201,1,0,1:0:0:0:
84,284,192367,5,0,1:0:0:0:
196,140,192534,1,0,1:0:0:0:
60,76,192701,5,0,1:0:0:0:
256,216,192867,1,0,1:0:0:0:
16,208,193034,5,0,1:0:0:0:
256,28,193201,1,0,1:0:0:0:
464,160,193367,5,0,1:0:0:0:
256,192,193451,12,0,194701,0:0:0:0:
328,132,196034,6,0,P|384:40|380:168,1,320,4|0,0:0|0:0,0:0:0:0:
216,192,197367,2,0,B|168:200|136:184|136:184|96:224|40:216,1,160,2|0,0:0|0:0,0:0:0:0:
168,56,197867,1,0,0:0:0:0:
168,56,197951,1,0,0:0:0:0:
168,56,198034,2,0,B|188:108|188:108|240:84,2,106.666666666667,2|2|2,0:0|0:0|0:0,0:0:0:0:
224,288,198701,6,0,B|184:284|160:308|160:308|104:280|44:332|44:332|96:276|56:208,1,320,4|0,0:0|0:0,0:0:0:0:
428,48,199701,2,0,B|460:124|460:124|416:216,1,160,2|0,0:0|0:0,0:0:0:0:
264,80,200367,5,2,0:0:0:0:
144,152,200534,1,0,1:0:0:0:
204,24,200701,2,0,L|224:196,1,160,8|0,0:0|0:0,0:0:0:0:
236,324,201201,1,0,0:0:0:0:
100,204,201367,6,0,B|116:168|88:132|88:132|152:120|180:-4|80:-24|4:32|60:80,1,320,4|0,0:0|0:0,0:0:0:0:
28,184,202367,1,2,0:0:0:0:
200,232,202701,6,0,B|220:320|220:320|136:368,1,160,2|2,0:0|0:0,0:0:0:0:
144,156,203367,2,0,B|124:68|124:68|184:33,1,160,2|2,0:0|0:0,0:0:0:0:
256,100,203867,1,0,1:0:0:0:
256,100,204034,6,0,L|436:64,1,160,2|0,0:0|0:0,0:0:0:0:
488,48,204701,1,2,0:0:0:0:
256,100,205034,1,2,0:0:0:0:
408,176,205201,1,0,0:0:0:0:
308,288,205367,5,2,0:0:0:0:
228,232,205534,1,0,0:0:0:0:
116,240,205701,1,2,0:0:0:0:
36,340,205867,1,0,0:0:0:0:
149,94,206034,5,2,0:0:0:0:
258,160,206200,1,0,0:0:0:0:
366,129,206367,1,2,0:0:0:0:
422,49,206534,1,2,0:0:0:0:
292,60,206701,6,0,B|192:52|192:52|140:104,1,160,4|8,0:0|0:0,0:0:0:0:
280,168,207201,1,0,0:0:0:0:
280,168,207284,1,0,0:0:0:0:
280,168,207367,2,0,L|364:160,1,80,2|0,0:0|0:0,0:0:0:0:
457,312,207701,2,0,L|373:320,1,80,10|0,0:0|0:0,0:0:0:0:
377,319,207951,1,0,0:0:0:0:
377,319,208034,6,0,L|357:140,1,160,2|8,0:0|0:0,0:0:0:0:
232,48,208534,1,0,0:0:0:0:
232,48,208617,1,0,0:0:0:0:
232,48,208701,2,0,L|220:148,1,80,2|0,0:0|0:0,0:0:0:0:
53,201,209034,2,0,L|65:101,1,80,10|0,0:0|0:0,0:0:0:0:
62,121,209284,1,0,0:0:0:0:
62,121,209367,6,0,L|239:128,1,160,2|8,0:0|0:0,0:0:0:0:
366,23,209867,1,0,0:0:0:0:
366,23,209951,1,0,0:0:0:0:
366,23,210034,2,0,L|382:123,1,80,2|0,0:0|0:0,0:0:0:0:
233,205,210367,2,0,L|217:105,1,80,10|0,0:0|0:0,0:0:0:0:
221,127,210617,1,0,0:0:0:0:
221,127,210701,6,0,L|406:98,1,160,2|8,0:0|0:0,0:0:0:0:
488,168,211201,1,0,0:0:0:0:
492,196,211284,1,0,0:0:0:0:
496,224,211367,1,2,0:0:0:0:
324,328,211534,1,0,0:0:0:0:
328,300,211617,1,0,0:0:0:0:
332,272,211700,1,10,0:0:0:0:
168,180,211867,1,0,0:0:0:0:
172,208,211950,1,0,0:0:0:0:
176,236,212034,6,0,L|160:296,1,40,4|0,0:0|0:0,0:0:0:0:
112,104,212201,1,0,0:0:0:0:
85,93,212284,1,0,0:0:0:0:
60,80,212368,2,0,L|16:36,1,40,10|0,0:0|0:0,0:0:0:0:
208,92,212534,1,0,0:0:0:0:
230,74,212617,1,0,0:0:0:0:
252,56,212701,2,0,L|311:39,1,40,2|0,0:0|0:0,0:0:0:0:
344,144,212867,5,0,1:0:0:0:
376,168,212951,1,0,1:0:0:0:
416,168,213034,1,10,1:2:0:0:
452,156,213117,1,0,1:0:0:0:
480,128,213201,1,0,1:0:0:0:
488,88,213284,1,0,1:0:0:0:
472,52,213367,6,0,L|412:60,1,50,2|0,1:2|1:0,1:0:0:0:
336,48,213534,2,0,L|299:96,1,50,0|0,1:0|1:0,1:0:0:0:
224,120,213701,2,0,L|232:180,1,50,10|0,1:2|1:0,1:0:0:0:
188,244,213867,2,0,L|229:287,1,50,0|0,1:0|1:0,1:0:0:0:
352,352,214034,5,2,1:2:0:0:
384,316,214117,1,0,1:0:0:0:
384,264,214201,1,0,1:0:0:0:
364,220,214284,1,0,1:0:0:0:
324,192,214367,1,10,1:2:0:0:
304,144,214451,1,0,1:0:0:0:
316,96,214534,1,0,1:0:0:0:
352,64,214617,1,0,1:0:0:0:
396,52,214701,6,0,L|464:72,1,59.9999981689454,2|0,1:2|1:0,1:0:0:0:
441,280,214867,2,0,L|383:263,1,59.9999981689454,2|0,1:2|1:0,1:0:0:0:
224,128,215034,2,0,L|292:148,1,59.9999981689454,10|0,1:2|1:0,1:0:0:0:
269,356,215200,2,0,L|211:339,1,59.9999981689454,2|0,1:2|1:0,1:0:0:0:
28,204,215367,5,2,1:2:0:0:
72,236,215451,1,0,1:0:0:0:
124,244,215534,1,2,1:2:0:0:
176,228,215617,1,0,1:0:0:0:
216,192,215701,1,10,1:2:0:0:
236,140,215784,1,0,1:0:0:0:
232,88,215867,1,2,1:2:0:0:
204,40,215951,1,0,1:0:0:0:
156,16,216034,5,4,1:0:0:0:
236,140,216367,2,0,L|444:120,1,179.999994506836
448,56,216701,5,0,1:0:0:0:
484,88,216784,1,0,1:0:0:0:
492,136,216867,1,0,1:0:0:0:
472,180,216951,1,0,1:0:0:0:
424,200,217034,5,0,1:0:0:0:
384,240,217117,1,0,1:0:0:0:
380,296,217201,1,0,1:0:0:0:
408,340,217284,1,0,1:0:0:0:
460,352,217367,6,0,B|228:340,1,179.999994506836,4|0,0:0|0:0,0:0:0:0:
208,336,217701,1,8,0:0:0:0:
80,128,217867,1,0,0:0:0:0:
80,128,217951,1,0,0:0:0:0:
80,128,218034,2,0,L|88:64,1,59.9999981689454,2|0,0:0|0:0,0:0:0:0:
236,68,218201,2,0,L|244:132,1,59.9999981689454,2|0,0:0|0:0,0:0:0:0:
80,220,218367,6,0,B|136:220|168:168|168:168|196:220|276:212,1,209.999993591309,8|0,0:0|0:0,0:0:0:0:
293,60,218701,6,0,B|265:8|265:8|241:136,1,179.999994506836,2|0,0:0|0:0,0:0:0:0:
254,213,219034,1,8,0:0:0:0:
376,200,219201,5,0,0:0:0:0:
376,200,219284,1,0,0:0:0:0:
376,200,219367,2,0,L|440:192,1,59.9999981689454,2|0,0:0|0:0,0:0:0:0:
368,348,219534,2,0,L|304:356,1,59.9999981689454,2|0,0:0|0:0,0:0:0:0:
272,160,219701,6,0,B|304:212|304:212|268:292,1,139.999995727539,8|0,0:0|0:0,0:0:0:0:
204,352,219951,1,0,0:0:0:0:
196,276,220034,6,0,B|174:92,1,179.999994506836,2|0,0:0|0:0,0:0:0:0:
164,24,220367,1,8,0:0:0:0:
412,60,220534,1,0,0:0:0:0:
412,60,220617,1,0,0:0:0:0:
412,60,220701,2,0,L|428:140,1,59.9999981689454,2|0,0:0|0:0,0:0:0:0:
304,220,220867,2,0,L|292:161,1,59.9999981689454,2|0,0:0|0:0,0:0:0:0:
508,200,221034,6,0,B|492:188|456:192|456:192|416:208|372:180|372:180|400:224|372:264,1,209.999993591309,8|0,0:0|0:0,0:0:0:0:
236,312,221367,6,0,B|284:292|304:220|304:220|288:256|316:312,1,179.999994506836,2|0,0:0|0:0,0:0:0:0:
304,360,221701,1,8,0:0:0:0:
208,179,221867,1,0,0:0:0:0:
208,179,221951,1,0,0:0:0:0:
208,179,222034,2,0,L|144:191,1,59.9999981689454,2|0,0:0|0:0,0:0:0:0:
72,248,222201,2,0,L|8:260,1,59.9999981689454,2|0,0:0|0:0,0:0:0:0:
156,336,222367,6,0,L|170:277,1,59.9999981689454,8|0,0:0|0:0,0:0:0:0:
60,160,222534,2,0,L|45:101,1,59.9999981689454
224,0,222701,6,0,L|206:207,1,179.999994506836,4|0,0:0|0:0,0:0:0:0:
204,256,223034,1,8,0:0:0:0:
480,204,223201,1,0,0:0:0:0:
480,204,223284,1,0,0:0:0:0:
480,204,223367,2,0,P|484:168|468:124,1,59.9999981689454,2|0,0:0|0:0,0:0:0:0:
400,36,223534,2,0,P|364:32|320:48,1,59.9999981689454,2|0,0:0|0:0,0:0:0:0:
308,240,223701,6,0,B|360:200|368:112|368:112|368:152|408:192,1,209.999993591309,8|0,0:0|0:0,0:0:0:0:
512,256,224034,6,0,P|456:272|400:240,1,119.999996337891,2|0,0:0|0:0,0:0:0:0:
248,136,224367,2,0,P|192:120|136:152,1,119.999996337891,10|0,0:0|0:0,0:0:0:0:
200,204,224617,1,0,0:0:0:0:
200,204,224701,6,0,L|216:268,1,59.9999981689454,2|0,0:0|0:0,0:0:0:0:
140,372,224867,2,0,L|124:312,1,59.9999981689454,2|0,0:0|0:0,0:0:0:0:
24,240,225034,1,10,0:0:0:0:
232,328,225201,1,0,0:0:0:0:
232,328,225284,1,0,0:0:0:0:
232,328,225367,6,0,B|424:304,1,179.999994506836,2|0,0:0|0:0,0:0:0:0:
480,292,225701,1,8,0:0:0:0:
280,188,225867,1,0,0:0:0:0:
280,188,225951,1,0,0:0:0:0:
280,188,226034,2,0,P|272:152|280:124,1,59.9999981689454,2|0,0:0|0:0,0:0:0:0:
508,104,226201,2,0,P|516:140|508:168,1,59.9999981689454,2|0,0:0|0:0,0:0:0:0:
376,52,226367,5,8,0:0:0:0:
336,248,226534,1,0,0:0:0:0:
292,268,226617,1,0,0:0:0:0:
244,260,226701,5,2,0:0:0:0:
124,108,226867,1,0,0:0:0:0:
80,88,226950,1,0,0:0:0:0:
32,96,227034,5,10,0:0:0:0:
80,344,227201,2,0,L|144:340,1,59.9999981689454
316,172,227367,5,2,1:2:0:0:
288,152,227451,1,0,1:0:0:0:
252,140,227534,1,2,1:2:0:0:
216,144,227617,1,0,1:0:0:0:
184,164,227701,5,2,1:2:0:0:
200,108,227784,1,0,1:0:0:0:
240,64,227867,1,2,1:2:0:0:
296,44,227951,1,0,1:0:0:0:
352,44,228034,6,0,B|408:160|408:160|476:108,1,179.999994506836,4|0,0:0|0:0,0:0:0:0:
508,84,228367,1,8,0:0:0:0:
320,208,228534,1,0,0:0:0:0:
320,208,228617,1,0,0:0:0:0:
320,208,228701,2,0,L|340:280,1,59.9999981689454,2|0,0:0|0:0,0:0:0:0:
508,84,228867,2,0,L|448:76,1,59.9999981689454,2|0,0:0|0:0,0:0:0:0:
268,120,229034,6,0,B|332:100|388:132|388:132|356:100|364:36,1,209.999993591309,8|0,0:0|0:0,0:0:0:0:
212,60,229367,6,0,B|152:128|152:128|232:200,1,179.999994506836,2|0,0:0|0:0,0:0:0:0:
268,120,229701,1,8,0:0:0:0:
108,16,229867,1,0,0:0:0:0:
108,16,229951,1,0,0:0:0:0:
108,16,230034,2,0,L|68:60,1,59.9999981689454,2|0,0:0|0:0,0:0:0:0:
76,208,230201,2,0,L|116:252,1,59.9999981689454,2|0,0:0|0:0,0:0:0:0:
252,116,230367,6,0,B|184:92|184:92|116:128,1,139.999995727539,8|0,0:0|0:0,0:0:0:0:
188,192,230617,1,0,0:0:0:0:
260,188,230701,6,0,L|460:172,1,179.999994506836,2|0,0:0|0:0,0:0:0:0:
512,164,231034,1,8,0:0:0:0:
288,304,231201,1,0,0:0:0:0:
288,304,231284,1,0,0:0:0:0:
288,304,231367,2,0,P|264:308|228:297,1,59.9999981689454,2|0,0:0|0:0,0:0:0:0:
176,184,231534,2,0,P|152:180|116:190,1,59.9999981689454,2|0,0:0|0:0,0:0:0:0:
47,304,231701,6,0,B|109:318|153:263|153:263|181:306|231:297,1,209.999993591309,8|0,0:0|0:0,0:0:0:0:
300,164,232034,6,0,B|176:184|176:184|232:232,1,179.999994506836,2|0,0:0|0:0,0:0:0:0:
300,248,232367,1,8,0:0:0:0:
448,72,232534,1,0,0:0:0:0:
448,72,232617,1,0,0:0:0:0:
448,72,232701,2,0,L|392:36,1,59.9999981689454,2|0,0:0|0:0,0:0:0:0:
284,52,232867,2,0,L|233:84,1,59.9999981689454,2|0,0:0|0:0,0:0:0:0:
24,216,233034,6,0,L|74:248,1,59.9999981689454,8|0,0:0|0:0,0:0:0:0:
216,224,233200,2,0,L|232:164,1,59.9999981689454
32,128,233367,6,0,B|132:188|132:188|152:120,1,179.999994506836,4|0,0:0|0:0,0:0:0:0:
168,56,233701,1,8,0:0:0:0:
116,308,233867,1,0,0:0:0:0:
116,308,233951,1,0,0:0:0:0:
116,308,234034,2,0,P|164:328|204:304,1,59.9999981689454,2|0,0:0|0:0,0:0:0:0:
248,220,234201,2,0,P|277:221|301:239,1,59.9999981689454,2|0,0:0|0:0,0:0:0:0:
376,344,234367,6,0,B|308:356|252:304|252:304|264:344|228:388,1,209.999993591309,8|0,0:0|0:0,0:0:0:0:
56,336,234701,6,0,B|100:320|100:320|128:336|172:328|172:328|152:304|164:256,1,179.999994506836,2|0,0:0|0:0,0:0:0:0:
192,208,235034,1,8,0:0:0:0:
464,328,235201,1,0,0:0:0:0:
464,328,235284,1,0,0:0:0:0:
464,328,235367,2,0,P|428:336|400:332,1,59.9999981689454,2|0,0:0|0:0,0:0:0:0:
296,256,235534,2,0,P|267:248|237:250,1,59.9999981689454,2|0,0:0|0:0,0:0:0:0:
392,204,235701,6,0,B|420:244|420:244|444:120,1,139.999995727539,8|0,0:0|0:0,0:0:0:0:
336,52,235951,1,0,0:0:0:0:
344,124,236034,6,0,L|360:316,1,179.999994506836,2|0,0:0|0:0,0:0:0:0:
364,372,236367,1,8,0:0:0:0:
256,168,236534,1,0,0:0:0:0:
256,168,236617,1,0,0:0:0:0:
256,168,236701,2,0,L|268:88,1,59.9999981689454,2|0,0:0|0:0,0:0:0:0:
424,20,236867,2,0,L|444:88,1,59.9999981689454,2|0,0:0|0:0,0:0:0:0:
372,184,237034,5,8,0:0:0:0:
276,28,237201,1,0,0:0:0:0:
96,120,237367,5,8,3:0:0:0:
264,108,237534,1,4,3:0:0:0:
232,344,237701,5,4,3:0:0:0:
96,204,237867,1,4,3:0:0:0:
320,116,238034,5,0,1:0:0:0:
288,152,238117,1,0,1:0:0:0:
238,166,238201,1,0,1:0:0:0:
192,156,238284,1,0,1:0:0:0:
156,124,238367,5,0,1:0:0:0:
112,104,238451,1,0,1:0:0:0:
64,104,238534,1,0,1:0:0:0:
16,128,238617,1,0,1:0:0:0:
0,176,238701,6,0,L|24:280,1,100,4|0,0:0|0:0,0:0:0:0:
44,368,239034,1,8,0:0:0:0:
232,296,239201,1,0,0:0:0:0:
232,296,239285,1,0,0:0:0:0:
232,296,239368,2,0,P|244:252|212:172,1,100,2|0,0:0|0:0,0:0:0:0:
308,60,239701,2,0,B|312:100|280:128|280:128|308:140|312:168,1,129.999994049073,10|0,0:0|0:0,0:0:0:0:
216,52,240035,5,2,0:0:0:0:
448,72,240201,1,0,0:0:0:0:
232,199,240368,1,10,0:0:0:0:
436,320,240535,1,0,0:0:0:0:
436,320,240618,1,0,0:0:0:0:
436,320,240701,2,0,L|424:208,1,100,2|0,0:0|0:0,0:0:0:0:
320,20,241035,2,0,B|296:80|296:80|320:160,1,129.999994049073,10|0,0:0|0:0,0:0:0:0:
346,211,241285,1,0,0:0:0:0:
346,211,241368,5,2,0:0:0:0:
88,216,241535,1,2,0:0:0:0:
192,364,241701,2,0,B|216:304|216:304|192:224,1,129.999994049073,8|0,0:0|0:0,0:0:0:0:
166,173,241951,1,0,0:0:0:0:
166,173,242034,5,2,0:0:0:0:
304,276,242201,1,2,0:0:0:0:
88,216,242368,2,0,B|64:176|80:136|80:136|56:116|64:72,1,129.999994049073,8|0,0:0|0:0,0:0:0:0:
300,32,242701,5,2,0:0:0:0:
136,80,242868,1,0,0:0:0:0:
140,56,242951,1,0,0:0:0:0:
144,32,243035,1,10,0:0:0:0:
300,32,243201,1,0,0:0:0:0:
344,52,243285,1,0,0:0:0:0:
368,92,243368,1,2,1:2:0:0:
368,136,243451,1,0,1:0:0:0:
344,176,243535,1,2,1:2:0:0:
308,200,243618,1,0,1:0:0:0:
280,240,243701,6,0,L|288:316,1,50,10|0,1:2|1:0,1:0:0:0:
496,306,243868,2,0,L|504:256,1,50,2|0,1:2|1:0,1:0:0:0:
396,140,244035,5,2,0:1:0:0:
396,272,245368,5,8,0:0:0:0:
84,220,245535,1,8,0:0:0:0:
88,360,246035,5,8,0:0:0:0:
116,88,246201,1,8,0:0:0:0:
264,192,246368,1,0,1:0:0:0:
300,188,246451,1,0,1:0:0:0:
336,184,246535,1,0,1:0:0:0:
372,180,246618,1,0,1:0:0:0:
408,176,246701,5,8,1:2:0:0:
264,192,246868,1,0,1:0:0:0:
320,76,247035,1,8,0:0:0:0:
256,228,247201,1,0,1:0:0:0:
180,68,247368,5,8,0:0:0:0:
264,264,247535,1,0,1:0:0:0:
352,64,247701,1,8,0:0:0:0:
256,304,247868,1,0,0:0:0:0:
8,240,248035,5,8,0:0:0:0:
260,336,248201,1,8,0:0:0:0:
504,240,248367,1,8,0:0:0:0:
252,376,248535,1,8,0:0:0:0:
8,240,248701,5,8,1:2:0:0:
48,208,248785,1,0,1:0:0:0:
96,200,248868,1,8,1:2:0:0:
144,212,248951,1,0,1:0:0:0:
180,260,249035,5,8,1:2:0:0:
228,296,249118,1,0,1:0:0:0:
288,304,249201,1,8,1:2:0:0:
344,280,249285,1,0,1:0:0:0:
384,236,249367,5,4,1:0:0:0:
256,192,257367,12,0,262701,0:0:0:0:
