osu file format v14

[General]
AudioFilename: primastella.mp3
AudioLeadIn: 0
PreviewTime: 55798
Countdown: 0
SampleSet: Soft
StackLeniency: 0.7
Mode: 0
LetterboxInBreaks: 0
WidescreenStoryboard: 1

[Editor]
Bookmarks: 82798,196131
DistanceSpacing: 0.8
BeatDivisor: 4
GridSize: 4
TimelineZoom: 1.5

[Metadata]
Title:Prima Stella
TitleUnicode:プリマステラ
Artist:Kano
ArtistUnicode:鹿乃
Creator:Fycho
Version:Freedom
Source:
Tags:nowhere samfree ゆうゆ kibbleru alacat lami intoon thzz cah-m
BeatmapID:957971
BeatmapSetID:445983

[Difficulty]
HPDrainRate:7
CircleSize:4.5
OverallDifficulty:8.7
ApproachRate:9.3
SliderMultiplier:1.8
SliderTickRate:1

[Events]
//Background and Video events
0,0,"BG.png",0,0
Video,0,"primastella.avi"
//Break Periods
//Storyboard Layer 0 (Background)
//Storyboard Layer 1 (Fail)
//Storyboard Layer 2 (Pass)
//Storyboard Layer 3 (Foreground)
//Storyboard Sound Samples

[TimingPoints]
1465,333.333333333333,4,2,1,30,1,0
1465,-166.666666666667,4,2,1,30,0,0
6798,-125,4,2,1,40,0,0
9464,-111.111111111111,4,2,1,50,0,0
11464,-111.111111111111,4,2,1,70,0,0
11798,-111.111111111111,4,2,1,50,0,0
12131,-100,4,2,1,70,0,0
21798,-100,4,2,1,60,0,0
22798,-133.333333333333,4,2,1,50,0,0
24131,-166.666666666667,4,2,1,30,0,0
34298,-166.666666666667,4,2,1,45,0,0
34798,-100,4,2,1,60,0,0
50798,-100,4,2,1,50,0,0
53464,-100,4,2,1,40,0,0
53798,-100,4,2,1,50,0,0
54131,-100,4,2,1,60,0,0
54464,-100,4,2,1,70,0,0
54798,-100,4,2,1,80,0,0
56131,-100,4,2,1,80,0,1
77464,-100,4,2,1,80,0,0
82798,-100,4,2,1,55,0,0
84131,-100,4,2,1,70,0,0
97464,-125,4,2,1,50,0,0
98798,-111.111111111111,4,2,1,60,0,0
109464,-100,4,2,1,70,0,0
120131,-100,4,2,1,60,0,0
125464,-133.333333333333,4,2,1,40,0,0
128131,-133.333333333333,4,2,1,50,0,0
128464,-133.333333333333,4,2,1,60,0,0
128798,-133.333333333333,4,2,1,70,0,0
129131,-133.333333333333,4,2,1,80,0,0
129464,-133.333333333333,4,2,1,90,0,0
129798,-133.333333333333,4,2,1,40,0,0
130798,-100,4,2,1,90,0,1
152131,-100,4,2,1,80,0,0
157464,-100,4,2,1,55,0,0
158798,-100,4,2,1,70,0,0
160131,-100,4,2,1,80,0,0
165464,-100,4,2,1,85,0,0
168131,-100,4,2,1,70,0,0
168798,-100,4,2,1,80,0,0
169464,-100,4,2,1,90,0,0
170798,-100,4,2,1,80,0,0
180464,-83.3333333333333,4,2,1,80,0,0
180798,-100,4,2,1,80,0,0
189298,-100,4,2,1,55,0,0
192131,-100,4,2,1,60,0,0
193464,-100,4,2,1,40,0,0
194131,-100,4,2,1,20,0,0
194798,-100,4,2,1,5,0,0
196131,-133.333333333333,4,2,1,60,0,0
213131,-133.333333333333,4,2,1,45,0,0
213464,-100,4,1,1,50,0,0
214131,-90.9090909090909,4,1,1,60,0,0
214798,-83.3333333333333,4,1,1,70,0,0
215464,-76.9230769230769,4,1,1,80,0,0
216131,-76.9230769230769,4,2,1,80,0,0
217464,-83.3333333333333,4,1,1,90,0,1
238798,-100,4,1,1,80,0,0
244131,-100,4,2,1,60,0,0
249631,-133.333333333333,4,1,1,20,0,0

[Colours]
Combo1 : 0,128,255
Combo2 : 223,0,112
Combo3 : 81,255,255
Combo4 : 255,89,255

[HitObjects]
89,225,1298,5,0,0:0:0:0:
89,225,1381,1,0,0:0:0:0:
89,225,1465,2,0,P|154:212|210:220,1,107.999996704102,2|0,0:0|0:0,0:0:0:0:
289,281,1964,1,0,0:0:0:0:
289,281,2131,2,0,P|309:249|313:218,1,53.9999983520508
291,109,2464,2,0,P|270:140|266:171,1,53.9999983520508,2|0,0:0|0:0,0:0:0:0:
267,156,2714,1,0,0:0:0:0:
267,156,2798,5,2,0:0:0:0:
179,123,2964,1,0,0:0:0:0:
106,192,3131,2,0,L|94:254,1,53.9999983520508
37,116,3464,2,0,P|12:77|45:15,1,107.999996704102,2|0,0:0|0:0,0:0:0:0:
293,178,4131,6,0,L|219:189,1,53.9999983520508,2|0,0:0|0:0,0:0:0:0:
206,280,4464,2,0,L|259:272,1,53.9999983520508
371,237,4798,2,0,P|394:188|376:134,1,107.999996704102,0|2,0:0|0:0,0:0:0:0:
299,90,5298,1,0,0:0:0:0:
216,179,5464,6,0,P|177:196|149:200,1,53.9999983520508
77,127,5798,2,0,P|116:110|144:106,1,53.9999983520508
218,55,6131,2,0,P|253:54|343:138,1,161.999995056153,4|8,0:3|0:0,0:0:0:0:
331,160,6714,1,8,0:0:0:0:
331,160,6798,6,0,P|321:191|310:248,1,72,4|0,0:0|0:0,0:0:0:0:
295,336,7131,1,0,0:0:0:0:
295,336,7298,1,0,0:0:0:0:
170,372,7464,2,0,P|180:341|191:284,1,72,2|0,0:0|0:0,0:0:0:0:
206,195,7798,1,0,0:0:0:0:
206,195,7964,1,0,0:0:0:0:
25,297,8131,6,0,L|95:280,1,72,4|0,0:0|0:0,0:0:0:0:
194,133,8464,2,0,L|118:153,1,72
223,296,8798,2,0,P|241:246|233:209,1,72,2|0,0:0|0:0,0:0:0:0:
15,145,9131,2,0,P|15:180|31:212,1,72
179,80,9464,6,0,L|79:63,1,80.9999975280763,4|0,0:0|0:0,0:0:0:0:
328,77,9798,2,0,L|419:55,1,80.9999975280763,2|0,0:0|0:0,0:0:0:0:
163,184,10131,2,0,L|81:226,1,80.9999975280763
349,184,10464,2,0,L|431:226,1,80.9999975280763,2|0,0:0|0:0,0:0:0:0:
193,276,10798,5,0,0:0:0:0:
341,358,10964,1,0,1:0:0:0:
183,361,11131,1,0,1:0:0:0:
335,262,11298,1,0,1:0:0:0:
119,185,11464,5,0,1:0:0:0:
367,121,11631,1,0,1:0:0:0:
143,81,11798,1,2,0:0:0:0:
143,81,11881,1,0,0:0:0:0:
143,81,11964,1,2,0:0:0:0:
143,81,12048,1,0,0:0:0:0:
143,81,12131,6,0,P|231:77|328:68,1,180,4|0,0:0|1:2,0:0:0:0:
324,212,12631,1,2,0:0:0:0:
324,212,12714,1,2,0:0:0:0:
324,212,12798,1,0,0:0:0:0:
417,63,12964,1,2,0:0:0:0:
474,183,13131,1,0,1:2:0:0:
314,99,13298,1,0,0:0:0:0:
240,203,13464,6,0,P|144:219|98:156,1,180,2|0,0:0|1:2,0:0:0:0:
157,56,13964,1,2,0:0:0:0:
157,56,14048,1,0,0:0:0:0:
157,56,14131,2,0,P|167:91|177:150,1,90,2|0,0:0|0:0,0:0:0:0:
50,311,14464,2,0,P|36:263|27:222,1,90,0|0,1:2|0:0,0:0:0:0:
25,197,14714,1,0,1:0:0:0:
25,197,14798,6,0,P|33:101|45:19,1,180,0|0,0:0|1:2,0:0:0:0:
176,143,15298,1,2,0:0:0:0:
176,143,15381,1,2,0:0:0:0:
176,143,15464,2,0,L|272:123,1,90
150,237,15798,1,0,1:2:0:0:
242,46,15964,1,2,0:0:0:0:
333,196,16131,6,0,P|420:201|477:132,1,180,2|0,0:0|1:2,0:0:0:0:
264,124,16631,1,2,0:0:0:0:
264,124,16714,1,2,0:0:0:0:
264,124,16798,2,0,L|247:218,1,90
277,324,17131,1,0,1:2:0:0:
449,276,17298,1,0,1:0:0:0:
449,276,17381,1,0,1:0:0:0:
449,276,17464,6,0,P|400:255|357:258,1,90
204,356,17798,1,0,1:2:0:0:
217,170,17964,5,2,0:0:0:0:
217,170,18048,1,2,0:0:0:0:
217,170,18131,1,0,0:0:0:0:
282,263,18298,1,2,0:0:0:0:
92,361,18464,2,0,P|100:303|104:262,1,90,0|0,1:2|0:0,0:0:0:0:
51,104,18798,6,0,P|88:148|205:149,1,180,2|0,0:0|1:2,0:0:0:0:
322,76,19298,1,2,0:0:0:0:
322,76,19381,1,0,0:0:0:0:
322,76,19464,2,0,L|349:182,1,90,2|0,0:0|0:0,0:0:0:0:
234,310,19798,2,0,L|211:222,1,90,0|0,1:2|0:0,0:0:0:0:
212,223,20048,1,0,1:0:0:0:
212,223,20131,5,0,0:0:0:0:
337,241,20298,1,2,0:0:0:0:
458,147,20464,2,0,L|442:243,1,90,0|2,1:0|0:0,0:0:0:0:
443,235,20714,1,2,0:0:0:0:
443,235,20798,5,0,0:0:0:0:
263,330,20964,1,0,0:0:0:0:
429,342,21131,1,0,1:0:0:0:
290,228,21298,1,2,0:0:0:0:
290,228,21381,1,2,0:0:0:0:
290,228,21464,6,0,P|279:127|262:28,1,180,2|4,0:0|1:2,0:0:0:0:
92,183,21964,1,0,1:0:0:0:
92,183,22048,1,0,1:0:0:0:
92,183,22131,1,0,1:0:0:0:
130,356,22298,1,0,1:0:0:0:
164,367,22381,1,0,1:0:0:0:
198,358,22464,1,0,1:0:0:0:
229,340,22548,1,0,1:0:0:0:
263,330,22631,1,0,1:0:0:0:
298,336,22714,1,0,1:0:0:0:
327,358,22798,6,0,B|368:364|368:364|400:352|400:352|438:359|438:359|472:340|485:266|442:213,1,270.000010299683,4|0,0:0|0:0,0:0:0:0:
284,186,23631,5,0,0:0:0:0:
292,269,23798,1,2,0:0:0:0:
213,237,23964,1,0,0:0:0:0:
136,271,24131,6,0,P|131:315|122:386,1,107.999996704102,2|0,0:0|0:0,0:0:0:0:
213,237,24631,1,0,0:0:0:0:
286,186,24798,2,0,P|282:138|275:69,1,107.999996704102,2|0,0:0|0:0,0:0:0:0:
189,153,25298,1,0,0:0:0:0:
416,82,25464,6,0,L|404:194,1,107.999996704102,2|0,0:0|0:0,0:0:0:0:
286,186,26131,2,0,L|274:298,1,107.999996704102,2|0,0:0|0:0,0:0:0:0:
477,261,26631,1,0,0:0:0:0:
404,189,26798,1,2,0:0:0:0:
404,189,27131,5,0,0:0:0:0:
307,221,27298,2,0,L|252:235,1,53.9999983520508,0|2,0:0|0:0,0:0:0:0:
158,239,27631,2,0,L|97:214,1,53.9999983520508
36,156,27964,1,0,0:0:0:0:
108,87,28131,6,0,P|157:76|226:64,1,107.999996704102,2|0,0:0|0:0,0:0:0:0:
337,200,28798,2,0,P|293:207|268:211,1,53.9999983520508,2|0,0:0|0:0,0:0:0:0:
138,160,29131,1,0,0:0:0:0:
195,230,29298,1,0,0:0:0:0:
54,169,29464,6,0,P|41:243|49:278,1,107.999996704102,2|0,0:0|0:0,0:0:0:0:
166,229,29964,1,0,0:0:0:0:
166,229,30131,2,0,L|190:165,1,53.9999983520508,2|0,0:0|0:0,0:0:0:0:
244,312,30464,2,0,L|260:363,1,53.9999983520508
310,243,30798,6,0,L|425:219,1,107.999996704102,2|0,0:0|0:0,0:0:0:0:
218,165,31464,2,0,L|182:266,1,107.999996704102,2|0,0:0|0:0,0:0:0:0:
307,158,31964,1,0,0:0:0:0:
377,109,32131,6,0,L|476:163,1,107.999996704102,2|0,0:0|0:0,0:0:0:0:
453,289,32631,2,0,L|479:216,1,53.9999983520508,0|2,0:0|0:0,0:0:0:0:
339,266,32964,2,0,L|315:200,1,53.9999983520508
223,228,33298,1,0,0:0:0:0:
184,316,33464,6,0,B|126:288|79:313|79:313|78:252|58:208,1,215.999993408203,2|0,0:0|0:0,0:0:0:0:
168,189,34298,5,0,0:0:0:0:
262,174,34464,1,2,0:0:0:0:
355,155,34631,1,2,0:0:0:0:
414,23,34798,6,0,P|325:12|264:73,1,180,4|0,0:0|0:0,0:0:0:0:
222,167,35298,1,2,0:0:0:0:
126,143,35464,2,0,P|134:186|146:239,1,90,0|2,0:0|0:0,0:0:0:0:
251,289,35798,1,8,0:2:0:0:
87,359,35964,6,0,P|27:295|48:206,1,180,2|0,0:0|0:0,0:0:0:0:
185,246,36464,1,0,0:0:0:0:
217,103,36631,1,2,0:0:0:0:
358,167,36798,2,0,P|314:171|269:174,1,90,2|0,0:0|0:0,0:0:0:0:
297,261,37131,1,0,0:0:0:0:
383,71,37298,1,8,0:0:0:0:
466,135,37464,6,0,P|489:173|485:224,1,90,2|0,0:0|0:0,0:0:0:0:
372,164,37798,1,0,0:0:0:0:
345,271,37964,2,0,L|320:358,1,90,2|0,0:0|0:0,0:0:0:0:
270,205,38298,5,2,0:0:0:0:
160,348,38464,1,8,0:0:0:0:
252,313,38631,1,2,0:0:0:0:
150,215,38798,1,0,0:0:0:0:
24,282,38964,5,2,0:0:0:0:
118,290,39131,1,2,0:0:0:0:
243,148,39298,1,0,0:0:0:0:
145,134,39464,5,0,0:0:0:0:
306,72,39631,1,2,0:0:0:0:
195,220,39798,1,0,0:0:0:0:
401,148,39964,1,8,0:0:0:0:
343,317,40131,6,0,P|293:232|319:151,1,180,4|0,0:0|0:0,0:0:0:0:
501,69,40631,1,2,0:0:0:0:
431,229,40798,2,0,L|444:121,1,90,0|2,0:0|0:0,0:0:0:0:
290,31,41131,2,0,P|303:110|307:134,1,90,8|0,0:0|0:0,0:0:0:0:
335,216,41464,5,0,0:0:0:0:
147,222,41631,1,2,0:0:0:0:
228,160,41798,1,2,0:0:0:0:
58,129,41964,1,0,0:0:0:0:
236,55,42131,5,2,0:0:0:0:
107,135,42298,1,0,0:0:0:0:
267,171,42464,1,0,0:0:0:0:
61,249,42631,1,8,0:0:0:0:
170,263,42798,6,0,P|176:308|170:365,1,90,2|0,0:0|0:0,0:0:0:0:
267,171,43131,1,0,0:0:0:0:
296,288,43298,2,0,P|403:262|490:275,1,180,2|2,0:0|0:0,0:0:0:0:
512,367,43798,2,0,P|469:377|423:381,1,90,8|0,0:0|0:0,0:0:0:0:
312,84,44131,5,0,0:0:0:0:
151,244,44298,1,2,0:0:0:0:
214,48,44464,1,2,0:0:0:0:
342,202,44631,1,0,0:0:0:0:
167,129,44798,1,0,0:0:0:0:
36,248,44964,1,0,1:2:0:0:
27,287,45048,1,0,1:2:0:0:
47,321,45131,1,0,1:2:0:0:
80,343,45214,1,0,1:2:0:0:
120,346,45298,1,0,1:2:0:0:
156,328,45381,1,0,1:2:0:0:
179,295,45464,5,4,1:2:0:0:
182,161,45631,1,2,1:2:0:0:
62,183,45798,1,8,0:0:0:0:
284,139,45964,5,4,1:2:0:0:
223,37,46131,1,2,0:0:0:0:
138,120,46298,1,8,0:0:0:0:
243,288,46464,2,0,P|301:223|284:139,1,180,4|0,1:2|0:0,0:0:0:0:
139,263,46964,5,0,1:0:0:0:
139,263,47048,1,0,1:0:0:0:
139,263,47131,2,0,L|121:369,1,90,0|0,1:0|0:0,0:0:0:0:
205,199,47464,1,4,0:3:0:0:
272,271,47631,1,4,0:3:0:0:
397,67,47798,1,4,0:3:0:0:
397,67,48131,5,4,1:2:0:0:
463,165,48298,1,2,1:2:0:0:
282,138,48464,1,8,0:0:0:0:
441,97,48631,5,4,1:2:0:0:
311,155,48798,1,2,0:0:0:0:
464,215,48964,1,8,0:0:0:0:
360,312,49131,2,0,P|312:316|180:322,1,180,4|0,1:2|0:0,0:0:0:0:
57,245,49631,5,8,0:3:0:0:
57,245,49714,1,8,0:3:0:0:
57,245,49798,2,0,P|53:193|51:149,1,90,0|8,0:0|0:3,0:0:0:0:
147,68,50131,1,4,0:3:0:0:
147,68,50298,1,4,0:3:0:0:
267,260,50464,1,4,0:2:0:0:
267,260,50798,6,0,P|281:236|281:176,1,90,4|0,0:0|0:0,0:0:0:0:
348,43,51131,1,2,0:0:0:0:
452,94,51298,1,0,0:0:0:0:
360,151,51464,1,2,0:0:0:0:
464,240,51631,1,0,0:0:0:0:
464,240,51714,1,0,0:0:0:0:
464,240,51798,1,2,0:0:0:0:
335,278,51964,6,0,L|325:325,2,45,0|2|2,0:0|0:0|0:0,0:0:0:0:
221,230,52298,1,0,0:0:0:0:
221,230,52381,1,2,0:0:0:0:
221,230,52464,1,2,0:0:0:0:
148,126,52631,2,0,L|161:64,2,45,0|2|2,0:0|0:0|0:0,0:0:0:0:
37,203,52964,1,0,0:0:0:0:
52,236,53048,1,2,0:0:0:0:
55,271,53131,1,2,0:0:0:0:
76,90,53298,1,2,0:0:0:0:
239,141,53464,5,4,1:2:0:0:
130,202,53631,1,0,1:2:0:0:
254,52,53798,1,0,1:0:0:0:
365,174,53964,1,0,1:2:0:0:
125,116,54131,1,8,1:2:0:0:
392,165,54298,1,8,1:2:0:0:
139,218,54464,1,8,1:2:0:0:
348,50,54631,1,8,1:2:0:0:
470,335,54798,5,8,1:2:0:0:
99,362,56131,6,0,P|146:287|123:203,1,180,4|0,0:2|1:0,0:0:0:0:
185,82,56631,1,2,0:0:0:0:
185,82,56714,1,2,1:2:0:0:
185,82,56798,2,0,L|306:109,1,90
427,187,57131,2,0,L|309:215,1,90,0|0,1:0|2:0,0:0:0:0:
237,300,57464,6,0,P|169:320|74:238,1,180,2|0,0:0|1:0,0:0:0:0:
62,92,57964,2,0,L|86:34,2,45,2|0|0,0:0|1:0|0:0,0:0:0:0:
250,136,58298,1,2,0:0:0:0:
183,33,58464,1,0,1:0:0:0:
94,177,58631,1,2,0:0:0:0:
94,177,58714,1,2,1:2:0:0:
94,177,58798,6,0,P|70:257|102:354,1,180,2|0,0:0|1:0,0:0:0:0:
242,360,59298,1,2,0:0:0:0:
242,360,59381,1,2,1:2:0:0:
242,360,59464,2,0,L|351:334,1,90
390,116,59798,1,0,1:0:0:0:
470,198,59964,1,2,0:0:0:0:
301,252,60131,6,0,P|245:147|264:97,1,180,2|0,0:0|1:0,0:0:0:0:
137,233,60631,1,2,0:0:0:0:
137,233,60714,1,2,1:2:0:0:
137,233,60798,2,0,L|101:344,1,90,0|2,0:0|0:0,0:0:0:0:
71,144,61131,1,0,1:0:0:0:
213,181,61298,1,0,1:0:0:0:
213,181,61381,1,0,1:2:0:0:
213,181,61464,6,0,P|223:116|199:83,1,90,4|0,0:0|0:0,0:0:0:0:
109,43,61798,1,0,1:0:0:0:
80,294,61964,2,0,P|237:262|268:261,1,180,2|0,0:0|0:0,0:0:0:0:
455,149,62464,2,0,L|339:135,1,90,0|0,1:0|0:0,0:0:0:0:
212,177,62798,6,0,L|203:80,1,90,2|0,0:0|0:0,0:0:0:0:
349,326,63131,2,0,L|369:229,1,90,0|2,1:0|0:0,0:0:0:0:
367,237,63381,1,2,1:2:0:0:
367,237,63464,1,0,0:0:0:0:
478,325,63631,1,2,0:0:0:0:
241,377,63798,2,0,L|228:286,1,90,0|0,1:0|0:0,0:0:0:0:
124,84,64131,6,0,P|62:154|90:249,1,180,4|0,0:0|1:0,0:0:0:0:
232,176,64631,2,0,L|246:128,1,45,2|0,0:0|1:0,0:0:0:0:
270,53,64798,1,0,1:0:0:0:
484,132,64964,1,0,1:2:0:0:
339,226,65131,6,0,L|367:121,1,90,8|0,1:2|1:0,0:0:0:0:
362,139,65381,1,0,1:0:0:0:
362,139,65464,1,4,0:0:0:0:
437,296,65631,6,0,L|450:242,1,45,0|0,1:0|1:0,0:0:0:0:
463,168,65798,1,0,1:0:0:0:
306,30,65964,2,0,L|294:73,1,45,0|0,1:0|1:0,0:0:0:0:
275,156,66131,5,0,1:0:0:0:
240,145,66214,1,0,1:0:0:0:
204,145,66298,1,0,1:0:0:0:
169,156,66381,1,0,1:0:0:0:
139,176,66464,1,0,1:0:0:0:
108,195,66548,1,0,1:0:0:0:
71,198,66631,1,0,1:0:0:0:
36,188,66714,1,0,1:0:0:0:
9,163,66798,6,0,P|10:243|12:353,1,180,4|0,0:0|1:0,0:0:0:0:
203,243,67298,1,2,0:0:0:0:
203,243,67381,1,2,1:2:0:0:
203,243,67464,2,0,L|206:126,1,90
345,253,67798,2,0,L|359:362,1,90,0|0,1:0|0:0,0:0:0:0:
485,193,68131,6,0,P|496:106|399:46,1,180,2|0,0:0|1:0,0:0:0:0:
279,140,68631,1,2,0:0:0:0:
272,114,68715,1,2,1:2:0:0:
265,88,68798,1,0,0:0:0:0:
139,51,68964,1,2,0:0:0:0:
56,156,69131,1,0,1:0:0:0:
130,349,69298,1,2,0:0:0:0:
130,349,69381,1,2,1:2:0:0:
130,349,69464,6,0,P|181:268|146:174,1,180,0|0,0:0|1:0,0:0:0:0:
61,105,69964,2,0,L|4:119,2,45,2|2|0,0:0|1:2|0:0,0:0:0:0:
239,58,70298,1,2,0:0:0:0:
74,212,70464,1,0,1:0:0:0:
152,80,70631,1,0,0:0:0:0:
269,222,70798,6,0,P|352:234|420:157,1,180,2|0,0:0|1:0,0:0:0:0:
456,342,71298,1,2,0:0:0:0:
456,342,71381,1,2,1:2:0:0:
456,342,71464,2,0,L|476:233,1,90
250,215,71798,2,0,L|269:329,1,90,0|0,1:0|0:0,0:0:0:0:
264,303,72048,1,0,0:0:0:0:
264,303,72131,6,0,L|79:288,1,180,4|0,0:0|1:0,0:0:0:0:
180,139,72631,1,2,0:0:0:0:
180,139,72714,1,2,1:2:0:0:
180,139,72798,2,0,P|183:97|166:45,1,90
5,179,73131,1,0,1:0:0:0:
81,10,73298,1,2,0:0:0:0:
157,240,73464,6,0,P|207:238|247:215,1,90
431,181,73798,1,0,1:0:0:0:
323,45,73964,1,2,0:0:0:0:
323,45,74048,1,2,0:0:0:0:
323,45,74131,2,0,L|305:142,1,90
161,143,74464,1,0,1:0:0:0:
323,45,74631,1,0,0:0:0:0:
466,246,74798,6,0,P|418:318|315:308,1,180,2|0,0:0|1:0,0:0:0:0:
253,250,75298,1,2,0:0:0:0:
253,250,75381,1,2,0:0:0:0:
253,250,75464,2,0,L|158:236,1,90,2|0,0:0|0:0,0:0:0:0:
33,317,75798,5,0,1:0:0:0:
161,144,75964,1,4,0:0:0:0:
250,350,76131,5,0,1:0:0:0:
60,207,76298,1,4,0:3:0:0:
242,154,76464,1,0,1:0:0:0:
73,90,76631,1,4,0:3:0:0:
257,17,76798,5,0,1:2:0:0:
296,6,76881,1,0,1:2:0:0:
335,14,76964,1,0,1:2:0:0:
374,23,77048,1,0,1:2:0:0:
401,52,77131,1,0,1:0:0:0:
412,90,77214,1,0,1:0:0:0:
414,130,77298,1,0,1:0:0:0:
393,171,77381,1,0,1:0:0:0:
361,195,77464,6,0,L|350:380,1,180,4|0,0:0|1:0,0:0:0:0:
182,181,77964,1,2,0:0:0:0:
182,181,78048,1,2,1:2:0:0:
182,181,78131,2,0,L|271:167,1,90
120,377,78464,2,0,L|108:273,1,90,0|0,1:0|0:0,0:0:0:0:
98,111,78798,5,0,0:0:0:0:
259,264,78964,1,2,0:0:0:0:
179,60,79131,1,0,1:0:0:0:
41,235,79298,1,2,0:0:0:0:
41,235,79381,1,0,1:2:0:0:
41,235,79464,5,0,0:0:0:0:
252,152,79631,1,2,0:0:0:0:
41,235,79798,2,0,L|55:146,1,90,0|2,1:0|0:0,0:0:0:0:
55,146,80048,1,0,1:0:0:0:
55,146,80131,5,2,0:0:0:0:
290,80,80298,1,0,0:0:0:0:
124,21,80464,1,0,1:0:0:0:
166,173,80631,1,2,0:0:0:0:
166,173,80714,1,2,1:2:0:0:
166,173,80798,6,0,P|174:221|177:270,1,90
29,369,81131,2,0,P|34:324|44:280,1,90,0|2,1:0|0:0,0:0:0:0:
301,175,81464,5,0,0:0:0:0:
254,339,81631,1,0,1:0:0:0:
254,339,81714,1,0,1:0:0:0:
254,339,81798,1,0,1:0:0:0:
455,255,81964,1,0,1:0:0:0:
455,255,82048,1,0,1:0:0:0:
455,255,82131,1,0,1:0:0:0:
455,255,82214,1,0,1:0:0:0:
455,255,82298,2,0,L|362:247,1,90,0|0,1:0|1:0,0:0:0:0:
314,71,82631,1,0,1:0:0:0:
314,71,82714,1,0,1:0:0:0:
314,71,82798,5,4,1:2:0:0:
196,312,83131,1,0,0:0:0:0:
197,3,83464,1,2,0:0:0:0:
312,232,83798,1,0,0:0:0:0:
307,47,84131,5,0,1:0:0:0:
312,352,84298,1,0,1:0:0:0:
468,118,84798,5,0,1:0:0:0:
174,78,84964,1,0,1:0:0:0:
261,191,85131,1,0,1:0:0:0:
280,221,85214,1,0,1:0:0:0:
274,256,85298,1,0,1:0:0:0:
255,286,85381,1,0,1:0:0:0:
219,293,85464,5,4,1:2:0:0:
94,295,85631,1,0,1:0:0:0:
96,167,85798,1,0,1:0:0:0:
221,162,85964,1,0,1:0:0:0:
94,295,86131,5,0,1:0:0:0:
0,171,86298,1,0,1:0:0:0:
121,75,86464,1,0,1:0:0:0:
214,201,86631,1,0,1:0:0:0:
89,172,86798,5,0,1:0:0:0:
243,57,86964,1,0,1:0:0:0:
350,214,87131,1,0,1:0:0:0:
197,321,87298,1,0,1:0:0:0:
25,149,87464,5,0,1:0:0:0:
54,170,87548,1,0,1:0:0:0:
89,172,87631,1,0,1:0:0:0:
124,167,87714,1,0,1:0:0:0:
156,151,87798,1,0,1:0:0:0:
187,132,87881,1,0,1:0:0:0:
222,129,87964,1,0,1:0:0:0:
257,138,88048,1,0,1:0:0:0:
281,163,88131,6,0,L|454:222,1,180,4|0,0:0|1:0,0:0:0:0:
320,320,88631,1,0,0:0:0:0:
292,325,88714,1,2,0:0:0:0:
266,329,88798,5,2,0:0:0:0:
281,163,88964,1,2,0:0:0:0:
122,218,89131,1,0,1:0:0:0:
122,218,89464,6,0,L|137:114,1,90
46,286,89798,1,0,1:0:0:0:
201,230,89964,5,2,0:0:0:0:
227,236,90048,1,0,1:0:0:0:
254,243,90131,1,0,0:0:0:0:
152,380,90298,1,2,0:0:0:0:
312,323,90464,1,0,1:0:0:0:
479,359,90631,1,2,0:0:0:0:
474,333,90714,1,0,1:0:0:0:
466,308,90798,6,0,P|323:298|258:295,1,180,0|0,0:0|1:0,0:0:0:0:
141,122,91298,1,2,0:0:0:0:
152,97,91381,1,2,0:0:0:0:
164,72,91464,5,0,0:0:0:0:
165,242,91631,1,0,0:0:0:0:
22,146,91798,1,0,1:0:0:0:
22,146,92131,6,0,L|0:251,1,90,2|0,0:0|0:0,0:0:0:0:
90,57,92464,1,0,1:0:0:0:
225,163,92631,1,2,0:0:0:0:
22,146,92798,1,4,1:2:0:0:
181,70,92964,1,0,1:0:0:0:
214,55,93048,1,0,1:0:0:0:
249,56,93131,1,0,1:0:0:0:
281,71,93214,1,0,1:0:0:0:
314,83,93298,1,0,1:0:0:0:
349,84,93381,1,0,1:0:0:0:
383,74,93464,5,4,0:0:0:0:
225,163,93631,1,0,1:0:0:0:
429,171,93798,1,2,0:0:0:0:
314,372,93964,6,0,P|266:323|292:202,1,180,4|0,0:0|0:0,0:0:0:0:
126,297,94464,2,0,P|142:360|137:394,1,90,0|0,1:0|0:0,0:0:0:0:
180,136,94798,6,0,L|172:237,1,90,2|0,0:0|0:0,0:0:0:0:
366,176,95131,2,0,L|348:68,1,90,0|2,1:0|0:0,0:0:0:0:
351,87,95381,1,2,0:0:0:0:
351,87,95464,5,0,0:0:0:0:
484,117,95631,1,0,0:0:0:0:
268,199,95798,2,0,P|303:263|333:271,1,90,0|0,1:0|0:0,0:0:0:0:
484,117,96131,6,0,L|376:126,1,90,2|0,0:0|0:0,0:0:0:0:
187,40,96464,2,0,L|381:30,1,180,4|0,0:0|0:0,0:0:0:0:
447,204,96964,1,0,1:0:0:0:
462,236,97048,1,0,1:0:0:0:
464,271,97131,1,0,1:0:0:0:
450,304,97214,1,0,1:0:0:0:
424,330,97298,1,0,1:0:0:0:
388,337,97381,1,0,1:0:0:0:
353,328,97464,6,0,L|300:346,3,36,2|0|0|0,0:0|0:0|0:0|0:0,0:0:0:0:
207,339,97798,2,0,L|172:332,3,36,2|0|0|0,0:0|0:0|0:0|0:0,0:0:0:0:
327,233,98131,2,0,L|294:245,3,36,2|0|0|0,0:0|0:0|0:0|0:0,0:0:0:0:
181,245,98464,2,0,L|98:224,1,72,2|0,0:0|0:0,0:0:0:0:
288,108,98798,6,0,P|375:120|415:196,1,161.999995056153,4|2,0:0|0:0,0:0:0:0:
216,361,99298,2,0,L|230:182,1,161.999995056153,0|0,1:0|1:0,0:0:0:0:
423,96,99798,2,0,L|412:182,1,80.9999975280763,2|0,0:0|0:0,0:0:0:0:
438,307,100131,5,2,0:0:0:0:
294,222,100298,1,0,0:0:0:0:
412,176,100464,1,2,0:0:0:0:
240,312,100631,2,0,L|52:295,1,161.999995056153,0|0,1:0|1:0,0:0:0:0:
126,72,101131,1,2,0:0:0:0:
137,166,101298,1,0,1:0:0:0:
268,64,101464,6,0,P|303:45|344:44,1,80.9999975280763,2|0,0:0|0:0,0:0:0:0:
279,157,101798,1,2,0:0:0:0:
381,330,101964,2,0,P|431:265|414:169,1,161.999995056153,0|0,1:0|1:0,0:0:0:0:
288,268,102464,1,2,0:0:0:0:
288,268,102798,6,0,L|270:357,1,80.9999975280763,2|0,0:0|0:0,0:0:0:0:
383,176,103131,1,2,0:0:0:0:
243,169,103298,2,0,P|160:181|85:240,1,161.999995056153,0|2,1:0|0:0,0:0:0:0:
20,311,103798,1,0,1:0:0:0:
49,145,103964,1,0,1:0:0:0:
204,361,104131,5,2,0:0:0:0:
204,361,104464,1,2,0:0:0:0:
332,302,104631,2,0,P|365:236|360:143,1,161.999995056153,0|0,1:0|1:0,0:0:0:0:
178,52,105131,2,0,P|180:92|192:130,1,80.9999975280763,2|0,0:0|0:0,0:0:0:0:
288,49,105464,6,0,P|361:18|442:21,1,161.999995056153,2|2,0:0|0:0,0:0:0:0:
478,199,105964,2,0,P|492:162|496:121,1,80.9999975280763,0|0,1:0|0:0,0:0:0:0:
365,151,106298,2,0,L|409:145,2,40.4999987640381,0|0|2,0:0|0:0|0:0,0:0:0:0:
385,255,106631,1,2,0:0:0:0:
219,374,106798,6,0,P|241:286|203:218,1,161.999995056153,2|2,0:0|0:0,0:0:0:0:
60,146,107298,2,0,P|37:237|83:298,1,161.999995056153,0|0,1:0|1:0,0:0:0:0:
232,104,107798,2,0,L|140:131,1,80.9999975280763,2|8,0:0|0:0,0:0:0:0:
340,34,108131,5,8,0:3:0:0:
500,185,108298,1,4,0:3:0:0:
458,72,108464,1,4,0:3:0:0:
215,216,108631,1,4,0:0:0:0:
215,216,108964,6,0,L|203:169,2,40.4999987640381,0|0|0,1:1|1:1|1:1,0:0:0:0:
328,166,109298,1,0,1:0:0:0:
417,350,109464,6,0,P|328:361|267:300,1,180,4|0,0:0|1:0,0:0:0:0:
328,166,109964,1,2,0:0:0:0:
173,272,110131,2,0,L|193:176,1,90,0|2,0:0|0:0,0:0:0:0:
230,81,110464,1,0,1:0:0:0:
444,152,110631,6,0,P|358:135|296:195,1,180,2|0,0:0|0:0,0:0:0:0:
221,342,111131,1,0,1:0:0:0:
68,270,111298,1,2,0:0:0:0:
188,158,111464,2,0,L|168:246,1,90,2|0,0:0|0:0,0:0:0:0:
259,76,111798,5,0,1:0:0:0:
359,260,111964,1,0,1:0:0:0:
359,260,112048,1,0,1:0:0:0:
359,260,112131,6,0,P|382:222|378:171,1,90,0|0,1:0|0:0,0:0:0:0:
271,105,112464,1,0,1:0:0:0:
173,220,112631,2,0,P|127:239|74:239,1,90,2|0,0:0|0:0,0:0:0:0:
106,141,112964,1,2,0:0:0:0:
142,326,113131,1,0,1:0:0:0:
0,251,113298,1,0,0:0:0:0:
173,220,113464,5,0,0:0:0:0:
98,158,113631,1,2,0:0:0:0:
279,64,113798,1,0,1:0:0:0:
266,161,113964,1,2,0:0:0:0:
116,51,114131,1,2,0:0:0:0:
197,4,114298,1,0,0:0:0:0:
173,220,114464,5,0,1:0:0:0:
279,64,114631,1,2,0:0:0:0:
445,171,114798,6,0,L|243:159,1,180,4|0,0:0|1:0,0:0:0:0:
361,18,115298,1,2,0:0:0:0:
434,81,115464,2,0,L|447:189,1,90,0|2,0:0|0:0,0:0:0:0:
302,335,115798,2,0,P|315:256|319:232,1,90,0|2,1:0|0:0,0:0:0:0:
307,123,116131,5,0,0:0:0:0:
229,210,116298,1,2,0:0:0:0:
381,177,116464,1,0,1:0:0:0:
226,299,116631,1,2,0:0:0:0:
406,268,116798,1,2,0:0:0:0:
200,138,116964,1,0,0:0:0:0:
387,92,117131,1,0,1:0:0:0:
306,194,117298,1,0,1:0:0:0:
306,194,117381,1,0,1:0:0:0:
306,194,117464,6,0,L|290:104,1,90
118,10,117798,1,0,1:0:0:0:
2,170,117964,2,0,P|71:185|156:109,1,180,2|2,0:0|0:0,0:0:0:0:
204,317,118464,2,0,L|234:225,1,90,0|2,1:0|0:0,0:0:0:0:
282,112,118798,5,0,0:0:0:0:
204,317,118964,1,2,0:0:0:0:
411,261,119131,1,0,1:0:0:0:
270,213,119298,1,2,0:0:0:0:
403,92,119464,1,2,0:0:0:0:
211,61,119631,1,0,1:0:0:0:
190,96,119714,1,0,1:0:0:0:
191,136,119798,1,0,1:0:0:0:
209,171,119881,1,0,1:0:0:0:
222,209,119964,1,0,1:0:0:0:
212,248,120048,1,0,1:0:0:0:
184,278,120131,5,4,1:2:0:0:
83,131,120298,1,0,1:0:0:0:
81,367,120464,1,8,0:0:0:0:
163,166,120631,6,0,B|201:117|312:142|314:213,1,180,4|8,1:2|0:0,0:0:0:0:
163,346,121131,2,0,L|163:141,1,180,4|0,1:2|0:0,0:0:0:0:
22,57,121631,5,0,1:0:0:0:
22,57,121714,1,0,1:0:0:0:
22,57,121798,2,0,L|115:81,1,90,0|0,1:0|0:0,0:0:0:0:
163,166,122131,1,4,0:3:0:0:
253,116,122298,1,4,0:3:0:0:
215,325,122464,1,4,0:3:0:0:
215,325,122798,5,4,1:2:0:0:
366,302,122964,1,0,1:0:0:0:
454,182,123131,1,8,0:0:0:0:
407,35,123298,2,0,P|359:31|227:25,1,180,4|8,1:2|0:0,0:0:0:0:
199,250,123798,2,0,P|261:244|299:140,1,180,4|0,1:2|0:0,0:0:0:0:
92,192,124298,5,8,0:3:0:0:
92,192,124381,1,8,0:3:0:0:
92,192,124464,2,0,P|88:244|86:288,1,90,8|0,0:3|0:0,0:0:0:0:
159,138,124798,1,4,0:3:0:0:
199,250,124964,1,4,0:3:0:0:
0,244,125131,1,4,0:0:0:0:
0,244,125464,6,0,L|32:105,1,135.000005149842,4|0,0:0|0:0,0:0:0:0:
137,60,125964,2,0,L|106:191,1,135.000005149842,2|0,0:0|0:0,0:0:0:0:
199,224,126464,2,0,L|266:217,2,67.5000025749208,2|0|0,0:0|0:0|0:0,0:0:0:0:
60,328,127131,6,0,L|204:320,1,135.000005149842,2|0,0:0|0:0,0:0:0:0:
286,259,127631,1,0,0:0:0:0:
365,376,127798,2,0,L|374:293,1,67.5000025749208,2|0,0:0|0:0,0:0:0:0:
407,90,128131,5,0,1:0:0:0:
449,194,128298,1,8,1:2:0:0:
248,255,128464,1,0,1:0:0:0:
313,63,128631,1,8,1:2:0:0:
343,177,128798,1,8,1:2:0:0:
101,240,128964,1,8,1:2:0:0:
199,29,129131,1,8,1:2:0:0:
250,164,129298,1,8,1:2:0:0:
16,11,129464,5,0,1:0:0:0:
280,110,129798,5,2,0:0:0:0:
151,18,130131,5,0,0:0:0:0:
34,300,130464,5,2,0:0:0:0:
298,120,130798,6,0,L|483:90,1,180,4|0,0:0|1:0,0:0:0:0:
353,289,131298,1,0,0:0:0:0:
353,289,131381,1,2,1:2:0:0:
353,289,131464,1,0,0:0:0:0:
198,147,131631,1,0,0:0:0:0:
177,288,131798,2,0,L|148:386,1,90,0|0,1:0|0:0,0:0:0:0:
40,220,132131,6,0,P|37:178|62:130,1,90,2|0,0:0|0:0,0:0:0:0:
177,288,132464,1,0,1:0:0:0:
251,66,132631,5,2,0:0:0:0:
251,66,132714,1,2,1:2:0:0:
251,66,132798,1,0,0:0:0:0:
323,216,132964,1,0,0:0:0:0:
173,149,133131,1,0,1:0:0:0:
295,365,133298,1,2,0:0:0:0:
295,365,133381,1,0,1:0:0:0:
295,365,133464,6,0,P|374:376|452:302,1,180,0|0,1:0|1:0,0:0:0:0:
361,101,133964,1,2,0:0:0:0:
361,101,134048,1,2,1:2:0:0:
362,101,134131,1,0,0:0:0:0:
436,203,134298,1,0,0:0:0:0:
206,361,134464,2,0,L|224:263,1,90,0|0,1:0|0:0,0:0:0:0:
112,73,134798,6,0,P|86:108|85:152,1,90,2|0,0:0|0:0,0:0:0:0:
224,32,135131,1,0,1:0:0:0:
94,251,135298,5,2,0:0:0:0:
94,251,135381,1,2,1:2:0:0:
94,251,135464,1,0,0:0:0:0:
238,181,135631,1,2,0:0:0:0:
112,73,135798,1,0,1:0:0:0:
325,18,135964,1,0,1:0:0:0:
325,18,136048,1,0,1:0:0:0:
325,18,136131,6,0,P|355:75|345:201,1,180,4|0,0:0|1:0,0:0:0:0:
429,363,136631,1,2,0:0:0:0:
429,363,136714,1,2,1:2:0:0:
429,363,136798,2,0,P|435:314|444:266,1,90
140,361,137131,1,0,1:0:0:0:
321,284,137298,1,0,0:0:0:0:
200,175,137464,6,0,L|110:165,1,90,2|0,0:0|0:0,0:0:0:0:
321,22,137798,1,0,1:0:0:0:
424,103,137964,5,2,0:0:0:0:
424,103,138048,1,2,1:2:0:0:
424,103,138131,2,0,P|430:145|432:195,1,90,0|2,0:0|0:0,0:0:0:0:
400,375,138464,1,0,1:0:0:0:
217,342,138631,1,0,1:0:0:0:
217,342,138714,1,0,1:0:0:0:
217,342,138798,6,0,L|223:244,1,90
279,132,139131,1,0,1:0:0:0:
72,206,139298,1,2,0:0:0:0:
302,120,139464,5,0,1:0:0:0:
69,81,139631,1,8,1:2:0:0:
297,17,139798,1,8,1:2:0:0:
74,11,139964,5,2,0:0:0:0:
71,46,140048,1,2,1:2:0:0:
69,81,140131,1,0,1:0:0:0:
243,146,140298,1,2,0:0:0:0:
239,110,140381,1,2,1:2:0:0:
235,74,140464,1,0,1:0:0:0:
416,117,140631,5,2,0:0:0:0:
416,117,140714,1,2,0:0:0:0:
416,117,140798,2,0,L|404:187,1,45,0|0,1:0|1:0,0:0:0:0:
336,256,140964,2,0,L|323:203,1,45,0|0,1:0|1:0,0:0:0:0:
243,146,141131,2,0,L|181:141,1,45,0|0,1:0|1:0,0:0:0:0:
95,217,141298,2,0,L|149:224,1,45,0|0,1:0|1:0,0:0:0:0:
229,336,141464,6,0,P|299:344|333:249,1,180,4|0,0:0|1:0,0:0:0:0:
140,223,141964,1,2,0:0:0:0:
140,223,142048,1,2,1:2:0:0:
140,223,142131,1,0,0:0:0:0:
328,113,142298,1,0,0:0:0:0:
152,40,142464,2,0,L|146:129,1,90,0|0,1:0|0:0,0:0:0:0:
392,178,142798,6,0,P|417:141|415:97,1,90,2|0,0:0|0:0,0:0:0:0:
243,236,143131,1,0,1:0:0:0:
351,18,143298,5,2,0:0:0:0:
351,18,143381,1,2,1:2:0:0:
351,18,143464,1,0,0:0:0:0:
224,133,143631,1,2,0:0:0:0:
415,97,143798,1,0,1:0:0:0:
467,298,143964,1,0,1:0:0:0:
467,298,144048,1,0,0:0:0:0:
467,298,144131,6,0,P|403:366|320:351,1,180,2|0,0:0|1:0,0:0:0:0:
198,148,144631,1,2,0:0:0:0:
198,148,144714,1,0,1:0:0:0:
198,148,144798,1,0,0:0:0:0:
111,269,144964,1,2,0:0:0:0:
309,255,145131,2,0,P|315:212|294:157,1,90,0|0,1:0|0:0,0:0:0:0:
431,7,145464,6,0,P|417:59|414:108,1,90,2|0,0:0|0:0,0:0:0:0:
291,44,145798,1,0,1:0:0:0:
454,169,145964,1,2,0:0:0:0:
454,169,146048,1,2,1:2:0:0:
454,169,146131,5,0,0:2:0:0:
379,353,146298,1,2,0:0:0:0:
221,261,146464,2,0,P|202:217|208:176,1,90,0|2,1:0|0:0,0:0:0:0:
208,177,146714,1,0,1:0:0:0:
208,177,146798,5,4,0:0:0:0:
38,339,146964,1,2,0:0:0:0:
20,131,147131,2,0,P|26:175|33:222,1,90,0|2,1:0|0:0,0:0:0:0:
36,242,147381,1,2,0:0:0:0:
36,242,147464,5,0,0:0:0:0:
210,131,147631,1,0,0:0:0:0:
420,106,147798,2,0,P|426:197|424:298,1,180,0|2,1:0|0:0,0:0:0:0:
298,80,148298,5,0,0:0:0:0:
303,319,148464,2,0,P|311:273|299:213,1,90,0|2,1:0|0:0,0:0:0:0:
306,231,148714,1,2,1:2:0:0:
306,231,148798,1,0,0:0:0:0:
441,274,148964,1,0,0:0:0:0:
167,182,149131,5,0,1:0:0:0:
405,159,149298,1,2,0:0:0:0:
439,167,149381,1,2,0:0:0:0:
475,170,149464,2,0,L|471:276,1,90
306,231,149798,5,0,1:0:0:0:
419,18,149964,1,4,0:0:0:0:
200,167,150131,5,0,1:0:0:0:
310,87,150298,1,0,1:0:0:0:
206,31,150464,1,8,0:0:0:0:
206,31,150548,1,8,0:0:0:0:
206,31,150631,1,8,0:0:0:0:
301,233,150798,5,0,1:0:0:0:
389,129,150964,1,4,0:3:0:0:
458,249,151131,1,0,1:0:0:0:
324,35,151298,1,4,0:3:0:0:
187,194,151464,6,0,L|175:237,1,45,0|0,1:0|1:0,0:0:0:0:
76,306,151631,2,0,L|61:264,1,45,0|0,1:0|1:0,0:0:0:0:
140,72,151798,2,0,L|150:115,1,45,0|0,1:0|1:0,0:0:0:0:
28,184,151964,2,0,L|42:141,1,45,0|0,1:0|1:0,0:0:0:0:
233,157,152131,6,0,L|433:100,1,180,4|0,0:0|1:0,0:0:0:0:
381,290,152631,1,2,0:0:0:0:
381,290,152714,1,2,1:2:0:0:
380,289,152798,2,0,P|376:244|374:197,1,90
505,42,153131,2,0,P|509:86|512:132,1,90,0|0,1:0|0:0,0:0:0:0:
289,238,153464,5,0,0:0:0:0:
399,90,153631,1,2,0:0:0:0:
470,261,153798,1,0,1:0:0:0:
290,81,153964,5,2,0:0:0:0:
290,81,154048,1,2,1:2:0:0:
290,81,154131,1,0,0:0:0:0:
211,168,154298,1,2,0:0:0:0:
348,250,154464,2,0,P|360:292|354:337,1,90,0|0,1:0|0:0,0:0:0:0:
354,337,154714,1,0,1:0:0:0:
354,337,154798,5,2,0:0:0:0:
212,299,154964,1,0,0:0:0:0:
337,160,155131,1,0,1:0:0:0:
212,299,155298,1,2,0:0:0:0:
212,299,155381,1,0,1:0:0:0:
212,299,155464,6,0,P|164:291|115:288,1,90,0|2,0:0|0:0,0:0:0:0:
124,154,155798,2,0,P|71:165|29:170,1,90,0|2,1:0|0:0,0:0:0:0:
128,38,156131,5,2,1:2:0:0:
254,157,156298,1,0,1:0:0:0:
254,157,156381,1,0,1:0:0:0:
254,157,156464,1,0,1:0:0:0:
387,38,156631,5,0,1:0:0:0:
425,50,156714,1,0,1:0:0:0:
447,83,156798,1,0,1:0:0:0:
459,123,156881,1,0,1:0:0:0:
460,161,156964,1,0,1:0:0:0:
443,197,157048,1,0,1:0:0:0:
416,227,157131,1,0,1:0:0:0:
376,236,157214,1,0,1:0:0:0:
335,240,157298,1,0,1:0:0:0:
296,229,157381,1,0,1:0:0:0:
268,199,157464,5,4,1:2:0:0:
83,297,157798,1,0,0:0:0:0:
361,142,158131,1,2,0:0:0:0:
114,203,158464,1,0,0:0:0:0:
418,300,158798,5,0,1:0:0:0:
415,65,158964,1,0,1:0:0:0:
415,65,159464,5,0,1:0:0:0:
176,102,159631,1,0,1:0:0:0:
297,87,159798,1,2,0:0:0:0:
336,79,159881,1,0,0:0:0:0:
375,72,159964,1,2,0:0:0:0:
415,65,160048,1,0,0:0:0:0:
454,58,160131,5,4,1:2:0:0:
454,58,160464,1,2,0:0:0:0:
222,26,160631,2,0,P|166:91|188:203,1,180,4|2,1:2|0:0,0:0:0:0:
301,343,161131,6,0,P|322:280|317:240,1,90,4|0,1:2|0:0,0:0:0:0:
320,257,161381,1,0,1:0:0:0:
320,257,161464,1,0,1:0:0:0:
167,314,161631,5,4,1:2:0:0:
59,195,161798,1,0,0:0:0:0:
11,347,161964,1,0,0:0:0:0:
166,207,162131,5,0,1:0:0:0:
290,345,162298,1,0,0:0:0:0:
400,180,162464,5,4,0:0:0:0:
275,257,162631,1,0,0:0:0:0:
275,257,162714,1,0,0:0:0:0:
275,257,162798,6,0,L|287:136,1,90,4|0,0:0|0:0,0:0:0:0:
396,318,163131,1,2,0:0:0:0:
173,343,163298,6,0,L|169:233,1,90,4|0,1:2|0:0,0:0:0:0:
428,335,163631,1,2,0:0:0:0:
60,294,163798,6,0,L|68:173,1,90,4|0,1:2|1:0,0:0:0:0:
65,204,164048,1,0,1:0:0:0:
65,204,164131,1,0,1:0:0:0:
262,33,164298,5,4,1:2:0:0:
130,90,164464,1,0,0:0:0:0:
277,191,164631,1,0,1:0:0:0:
277,191,164714,1,0,1:0:0:0:
277,191,164798,1,4,1:2:0:0:
132,255,164964,5,0,1:0:0:0:
132,255,165048,1,0,1:0:0:0:
132,255,165131,2,0,L|136:301,1,45,0|0,1:0|1:0,0:0:0:0:
270,384,165298,2,0,L|284:314,1,45,0|0,1:0|1:0,1:0:0:0:
417,335,165464,6,0,P|462:293|458:174,1,180,4|0,1:2|0:0,0:0:0:0:
222,137,165964,1,4,1:2:0:0:
372,70,166131,1,0,0:0:0:0:
263,7,166298,1,0,0:0:0:0:
85,192,166464,2,0,L|104:104,1,90,4|0,1:2|1:0,0:0:0:0:
104,104,166714,1,0,1:0:0:0:
104,104,166798,1,0,1:0:0:0:
78,292,166964,5,4,1:2:0:0:
275,144,167131,1,0,0:0:0:0:
323,240,167298,1,0,0:0:0:0:
192,61,167464,5,0,1:0:0:0:
383,130,167631,1,0,0:0:0:0:
151,178,167798,5,4,1:2:0:0:
324,22,167964,1,0,0:0:0:0:
411,278,168131,5,0,1:0:0:0:
428,180,168298,1,0,1:0:0:0:
295,285,168464,5,0,1:0:0:0:
322,151,168631,1,0,1:0:0:0:
181,297,168798,5,0,1:0:0:0:
219,121,168964,1,0,1:0:0:0:
66,307,169131,5,0,1:0:0:0:
114,94,169298,1,0,1:0:0:0:
387,27,169464,5,0,1:0:0:0:
130,108,169631,1,0,1:0:0:0:
439,179,169798,5,0,1:0:0:0:
123,248,169964,1,0,1:0:0:0:
476,335,170131,5,0,1:0:0:0:
444,310,170214,1,0,1:0:0:0:
403,309,170298,1,0,1:0:0:0:
363,316,170381,1,0,1:0:0:0:
330,339,170464,1,0,1:0:0:0:
290,348,170548,1,0,1:0:0:0:
249,344,170631,1,0,1:0:0:0:
211,330,170714,1,0,1:0:0:0:
191,294,170798,6,0,L|203:193,1,90,4|0,0:0|0:0,0:0:0:0:
88,167,171131,1,0,1:0:0:0:
352,61,171298,2,0,B|288:80|239:59|239:59|204:65|182:89,1,180,2|0,0:0|0:0,0:0:0:0:
450,124,171798,2,0,P|468:71|454:24,1,90,0|0,1:2|0:0,0:0:0:0:
372,160,172131,5,0,0:0:0:0:
286,317,172298,1,2,0:0:0:0:
466,263,172464,1,0,1:0:0:0:
291,191,172631,1,2,0:0:0:0:
291,191,172714,1,2,1:2:0:0:
291,191,172798,2,0,L|204:217,1,90,0|2,0:0|0:0,0:0:0:0:
121,104,173131,2,0,L|207:77,1,90,0|2,1:0|0:0,0:0:0:0:
239,68,173381,1,0,1:0:0:0:
239,68,173464,6,0,P|364:78|398:115,1,180,2|0,0:0|1:0,0:0:0:0:
178,276,173964,1,2,0:0:0:0:
178,276,174048,1,2,0:0:0:0:
178,276,174131,2,0,L|164:172,1,90
293,320,174464,5,0,1:0:0:0:
165,186,174631,1,0,0:0:0:0:
95,309,174798,6,0,P|33:293|-8:291,1,90,2|0,0:0|0:0,0:0:0:0:
257,211,175131,2,0,L|292:113,1,90,0|0,1:0|0:0,0:0:0:0:
121,116,175464,2,0,P|58:130|21:148,1,90,2|0,0:0|0:0,0:0:0:0:
187,349,175797,2,0,L|186:245,1,90,0|0,1:0|0:0,0:0:0:0:
179,37,176131,6,0,P|254:104|334:82,1,180,2|0,0:0|1:0,0:0:0:0:
438,133,176631,1,2,0:0:0:0:
438,133,176714,1,2,0:0:0:0:
438,133,176798,2,0,P|452:208|452:245,1,90,0|2,0:0|0:0,0:0:0:0:
268,312,177131,5,0,1:0:0:0:
438,133,177298,1,2,0:0:0:0:
236,199,177464,6,0,P|188:126|217:43,1,180,2|0,0:0|1:0,0:0:0:0:
67,16,177964,1,2,0:0:0:0:
67,16,178048,1,2,0:0:0:0:
67,16,178131,2,0,P|76:74|60:119,1,90
23,200,178464,5,0,1:0:0:0:
169,81,178631,2,0,L|243:108,2,45,2|0|2,0:0|0:0|0:0,0:0:0:0:
187,230,178964,5,0,0:0:0:0:
304,76,179131,1,0,1:0:0:0:
395,263,179298,1,2,0:0:0:0:
395,263,179381,1,2,0:0:0:0:
395,263,179464,2,0,P|401:218|390:175,1,90
211,96,179798,2,0,P|201:133|213:194,1,90,0|0,1:0|0:0,0:0:0:0:
342,332,180131,5,2,0:0:0:0:
299,156,180298,1,0,0:0:0:0:
192,298,180464,6,0,B|137:270|88:300|88:300|65:284|50:247,1,161.999995056153,4|0,1:2|1:0,0:0:0:0:
22,188,180798,5,0,1:0:0:0:
20,152,180881,1,0,1:0:0:0:
35,119,180964,1,0,1:0:0:0:
68,105,181048,1,0,1:0:0:0:
103,99,181131,1,0,1:0:0:0:
138,105,181214,1,0,1:0:0:0:
168,127,181298,1,0,1:0:0:0:
203,127,181381,1,0,1:0:0:0:
236,115,181464,6,0,L|254:15,1,90,4|0,0:0|0:0,0:0:0:0:
106,180,181798,1,0,1:0:0:0:
336,75,181964,2,0,P|384:131|344:229,1,180,2|0,0:0|0:0,0:0:0:0:
427,331,182464,5,0,1:0:0:0:
222,250,182631,1,0,0:0:0:0:
455,210,182798,2,0,P|468:157|457:112,1,90,2|0,0:0|0:0,0:0:0:0:
303,47,183131,5,0,1:0:0:0:
271,168,183298,1,2,0:0:0:0:
271,168,183381,1,0,1:0:0:0:
271,168,183464,1,0,0:0:0:0:
370,131,183631,1,2,0:0:0:0:
199,89,183798,1,0,1:0:0:0:
334,256,183964,1,2,0:0:0:0:
334,256,184048,1,2,0:0:0:0:
334,256,184131,6,0,L|311:353,1,90,2|0,0:0|0:0,0:0:0:0:
199,89,184464,1,0,1:0:0:0:
172,270,184631,1,2,0:0:0:0:
172,270,184714,1,2,0:0:0:0:
172,270,184798,2,0,B|107:277|72:252|72:252|27:252|-14:281,1,180,0|0,0:0|1:0,0:0:0:0:
55,341,185298,1,2,0:0:0:0:
132,187,185464,6,0,P|145:132|130:91,1,90,2|0,0:0|0:0,0:0:0:0:
211,8,185798,2,0,L|305:19,1,90,0|2,1:0|0:0,0:0:0:0:
300,18,186048,1,0,1:0:0:0:
300,18,186131,1,0,0:0:0:0:
135,101,186298,1,2,0:0:0:0:
367,122,186464,6,0,L|378:78,1,45,0|0,1:0|1:0,0:0:0:0:
245,151,186631,2,0,L|254:194,1,45,0|0,1:0|1:0,0:0:0:0:
302,322,186798,6,0,P|316:266|422:214,1,180,4|0,0:0|0:0,0:0:0:0:
195,306,187298,2,0,P|196:248|202:198,1,90,4|0,0:0|0:0,0:0:0:0:
211,104,187631,1,2,0:0:0:0:
68,343,187798,6,0,L|96:148,1,180,4|0,0:0|0:0,0:0:0:0:
154,38,188298,1,2,0:0:0:0:
168,190,188464,2,0,P|77:187|28:102,1,180,0|2,1:0|0:0,0:0:0:0:
210,101,188964,5,2,0:0:0:0:
292,48,189131,1,0,1:0:0:0:
388,186,189298,5,2,0:0:0:0:
388,186,189381,1,2,0:0:0:0:
388,186,189464,2,0,P|407:139|401:95,1,90,6|0,0:0|0:0,0:0:0:0:
285,254,189798,2,0,L|263:371,1,90,2|0,0:0|0:0,0:0:0:0:
255,164,190131,2,0,P|193:164|157:178,1,90,2|0,0:0|0:0,0:0:0:0:
393,276,190464,2,0,L|493:231,1,90,2|0,0:0|0:0,0:0:0:0:
405,57,190798,5,2,0:0:0:0:
382,167,190964,1,0,0:0:0:0:
488,116,191131,1,2,0:0:0:0:
284,221,191298,2,0,L|275:318,1,90,2|0,0:0|0:0,0:0:0:0:
207,167,191630,5,2,0:0:0:0:
71,277,191797,1,0,0:0:0:0:
159,83,191964,1,2,0:0:0:0:
284,221,192131,5,2,0:0:0:0:
296,133,192298,1,0,0:0:0:0:
213,255,192464,5,2,0:0:0:0:
368,89,192631,1,0,0:0:0:0:
203,125,192798,5,2,0:0:0:0:
368,244,192964,1,0,0:0:0:0:
150,194,193131,5,2,0:0:0:0:
421,165,193298,1,0,0:0:0:0:
279,182,193464,5,6,0:0:0:0:
256,192,193548,12,0,194798,2:0:0:0:
200,67,196131,6,0,B|144:72|107:48|107:48|120:96|82:156,1,202.500007724762,4|2,0:0|0:0,0:0:0:0:
318,316,197131,2,0,B|364:301|405:323|405:323|409:286|422:263,1,135.000005149842,0|2,0:0|0:0,0:0:0:0:
243,242,197798,5,2,0:0:0:0:
272,64,197964,1,0,1:0:0:0:
272,64,198048,1,0,1:0:0:0:
272,64,198131,2,0,L|257:177,2,90.0000034332277,8|8|8,1:3|0:3|0:3,0:0:0:0:
151,270,198798,6,0,B|95:264|58:288|58:288|71:240|33:180,1,202.500007724762,4|2,0:0|0:0,0:0:0:0:
361,147,199798,2,0,B|398:126|448:140|448:140|461:177|465:200,1,135.000005149842,0|2,0:0|0:0,0:0:0:0:
285,98,200464,5,0,0:0:0:0:
285,98,200631,1,2,0:0:0:0:
272,195,200798,2,0,L|251:354,1,135.000005149842,0|0,1:0|0:0,0:0:0:0:
59,342,201298,1,2,0:0:0:0:
59,342,201464,6,0,P|99:263|21:163,1,202.500007724762,4|2,0:0|0:0,0:0:0:0:
45,172,202131,1,2,0:0:0:0:
217,221,202464,1,0,0:0:0:0:
113,57,202798,6,0,B|152:38|152:38|263:38,1,135.000005149842,2|0,0:0|0:0,0:0:0:0:
373,144,203464,2,0,B|334:163|334:163|242:163,1,135.000005149842,2|0,0:0|0:0,0:0:0:0:
148,255,203964,1,2,0:0:0:0:
148,255,204131,6,0,P|175:300|325:342,1,202.500007724762,2|0,0:0|0:0,0:0:0:0:
310,345,204798,1,2,0:0:0:0:
484,293,205131,1,0,0:0:0:0:
484,293,205298,1,2,0:0:0:0:
317,250,205464,5,2,0:0:0:0:
471,188,205631,1,0,0:0:0:0:
342,160,205798,1,2,0:0:0:0:
453,100,205964,1,2,0:0:0:0:
261,45,206131,5,0,1:0:0:0:
150,140,206298,1,0,1:0:0:0:
67,53,206464,1,2,0:0:0:0:
31,139,206631,1,0,0:0:0:0:
62,286,206798,6,0,P|91:331|185:347,1,135.000005149842,0|0,1:0|1:0,0:0:0:0:
243,273,207298,1,2,0:0:0:0:
324,301,207464,2,0,L|318:369,1,67.5000025749208,0|2,1:0|0:0,0:0:0:0:
170,230,207798,2,0,L|170:140,1,67.5000025749208,0|2,1:0|0:0,0:0:0:0:
170,162,208048,1,2,0:0:0:0:
170,162,208131,6,0,L|21:148,1,135.000005149842,0|0,1:0|1:0,0:0:0:0:
112,62,208631,1,2,0:0:0:0:
112,62,208714,1,2,0:0:0:0:
112,62,208798,2,0,L|205:77,1,67.5000025749208,0|2,1:0|0:0,0:0:0:0:
153,246,209131,2,0,L|86:250,1,67.5000025749208,0|2,1:0|0:0,0:0:0:0:
231,149,209464,6,0,P|274:228|267:272,1,135.000005149842,0|0,1:0|1:0,0:0:0:0:
317,358,209964,1,2,0:0:0:0:
317,358,210048,1,2,0:0:0:0:
317,358,210131,2,0,L|410:338,1,67.5000025749208,0|2,1:0|0:0,0:0:0:0:
475,238,210464,2,0,L|403:254,1,67.5000025749208,0|2,1:0|0:0,0:0:0:0:
336,198,210798,5,0,1:0:0:0:
418,84,210964,6,0,L|411:117,2,33.7500012874604,2|2|0,0:0|0:0|1:0,0:0:0:0:
255,82,211298,6,0,L|263:115,2,33.7500012874604,2|2|0,0:0|0:0|1:0,0:0:0:0:
191,230,211631,6,0,L|225:226,2,33.7500012874604,2|2|0,0:0|0:0|1:0,0:0:0:0:
297,326,211964,5,2,0:0:0:0:
297,326,212048,1,2,0:0:0:0:
297,326,212131,1,4,1:2:0:0:
149,302,212298,5,2,0:0:0:0:
149,302,212381,1,2,0:0:0:0:
149,302,212464,1,0,1:0:0:0:
195,151,212631,5,2,0:0:0:0:
195,151,212714,1,2,0:0:0:0:
195,151,212798,1,0,1:0:0:0:
348,192,212964,5,2,0:0:0:0:
348,192,213048,1,2,0:0:0:0:
348,192,213131,2,0,L|364:144,1,33.7500012874604,0|0,1:0|1:0,0:0:0:0:
220,21,213298,2,0,L|210:53,1,33.7500012874604,0|0,1:0|1:0,0:0:0:0:
195,151,213464,6,0,L|264:147,1,45
350,59,213631,2,0,L|280:69,1,45
348,192,213798,2,0,L|417:188,1,45
511,104,213965,2,0,L|441:114,1,45
507,239,214131,6,0,L|513:291,1,49.5000015106202
383,286,214298,2,0,L|380:335,1,49.5000015106202
262,284,214464,2,0,L|251:333,1,49.5000015106202
153,212,214631,2,0,L|128:258,1,49.5000015106202
97,107,214798,6,0,L|88:51,1,53.9999983520508
235,122,214964,2,0,L|255:62,1,53.9999983520508
53,202,215131,2,0,L|-1:200,1,53.9999983520508
243,228,215298,2,0,L|296:236,1,53.9999983520508
78,292,215464,6,0,L|68:349,1,58.4999973220826
201,312,215631,2,0,L|209:396,1,58.4999973220826
314,287,215798,2,0,L|331:348,1,58.4999973220826
385,179,215965,2,0,L|421:251,1,58.4999973220826
362,43,216131,5,4,1:0:0:0:
85,157,216464,5,2,0:0:0:0:
270,20,216798,5,0,1:2:0:0:
254,57,216881,1,0,1:2:0:0:
261,97,216964,1,0,1:2:0:0:
280,133,217048,1,0,1:2:0:0:
302,167,217131,1,0,1:2:0:0:
304,207,217214,1,0,1:2:0:0:
293,246,217298,1,0,1:2:0:0:
265,275,217381,1,0,1:2:0:0:
231,281,217464,6,0,B|165:286|165:286|122:273|122:273|46:278,1,161.999995056153,4|0,0:2|0:0,0:0:0:0:
39,281,217798,1,10,0:2:0:0:
148,75,217964,2,0,P|174:103|177:128,1,53.9999983520508,2|0,0:0|0:0,0:0:0:0:
181,205,218131,1,2,0:0:0:0:
36,135,218298,1,0,0:0:0:0:
257,20,218464,5,10,0:2:0:0:
347,134,218631,1,2,2:2:0:0:
152,279,218798,2,0,L|183:86,1,161.999995056153,2|0,0:0|0:0,0:0:0:0:
185,87,219131,1,10,0:2:0:0:
54,246,219298,5,2,0:0:0:0:
54,246,219381,1,2,0:0:0:0:
54,246,219464,2,0,L|33:357,1,107.999996704102
300,299,219798,2,0,P|311:208|244:167,1,161.999995056153,12|0,0:2|0:0,0:0:0:0:
238,164,220131,6,0,B|403:115,1,161.999995056153,2|0,0:0|0:0,0:0:0:0:
424,108,220464,1,10,0:2:0:0:
504,236,220631,2,0,L|423:223,1,53.9999983520508,2|2,0:0|0:0,0:0:0:0:
364,216,220798,1,2,0:0:0:0:
187,266,220964,1,0,0:0:0:0:
311,382,221131,2,0,B|326:326|326:326|307:275,1,107.999996704102,10|0,0:2|2:0,0:0:0:0:
123,75,221464,6,0,B|105:125|105:125|110:173|110:173|86:246,1,161.999995056153,2|0,0:0|0:0,0:0:0:0:
80,261,221798,1,10,0:2:0:0:
268,131,221964,1,2,0:0:0:0:
268,131,222048,2,0,L|214:132,1,53.9999983520508,0|2,0:0|0:0,0:0:0:0:
410,72,222298,1,0,0:0:0:0:
284,255,222464,5,12,0:2:0:0:
254,34,222631,1,2,0:0:0:0:
254,34,222714,1,2,0:0:0:0:
254,34,222798,6,0,B|188:40|157:-1|157:-1|139:13|103:43,1,161.999995056153,4|0,0:0|0:0,0:0:0:0:
89,53,223131,1,10,0:2:0:0:
164,280,223298,2,0,P|189:231|185:213,1,53.9999983520508,2|0,0:0|0:0,0:0:0:0:
183,129,223464,1,2,0:0:0:0:
0,281,223631,1,0,0:0:0:0:
82,139,223798,5,10,0:2:0:0:
273,176,223964,1,2,2:0:0:0:
86,262,224131,2,0,L|59:369,1,107.999996704102,2|0,0:0|0:0,0:0:0:0:
296,288,224464,1,10,0:2:0:0:
190,188,224631,2,0,L|213:106,1,53.9999983520508
259,51,224798,5,2,0:0:0:0:
423,274,224964,1,0,0:0:0:0:
166,276,225131,5,14,0:2:0:0:
412,139,225298,1,2,0:0:0:0:
412,139,225381,1,2,0:0:0:0:
412,139,225464,6,0,B|294:118|294:118|266:151,1,161.999995056153,4|0,0:2|0:0,0:0:0:0:
254,180,225798,1,8,0:2:0:0:
418,351,225964,2,0,L|423:288,1,53.9999983520508,2|0,0:0|0:0,0:0:0:0:
390,214,226131,1,2,0:0:0:0:
173,362,226298,1,0,0:0:0:0:
254,180,226464,5,8,0:2:0:0:
418,351,226631,1,2,0:0:0:0:
418,351,226714,1,2,0:0:0:0:
418,351,226798,1,12,0:2:0:0:
474,146,226964,1,2,0:0:0:0:
474,146,227048,1,2,0:0:0:0:
474,146,227131,1,8,0:2:0:0:
279,227,227298,1,2,0:0:0:0:
279,227,227381,1,2,0:0:0:0:
279,227,227464,6,0,L|203:220,1,53.9999983520508,2|0,0:0|0:0,0:0:0:0:
52,303,227631,2,0,L|140:305,1,53.9999983520508,10|0,0:2|0:0,0:0:0:0:
119,149,227798,2,0,L|102:230,1,53.9999983520508,10|0,0:2|0:0,0:0:0:0:
214,375,227964,2,0,L|225:318,1,53.9999983520508,10|0,0:2|0:0,0:0:0:0:
279,124,228131,6,0,L|116:149,1,161.999995056153,4|0,0:2|0:0,0:0:0:0:
87,156,228464,1,10,0:2:0:0:
330,56,228631,2,0,P|348:80|356:108,1,53.9999983520508,2|0,0:0|0:0,0:0:0:0:
310,203,228798,1,2,0:0:0:0:
258,23,228964,1,0,0:0:0:0:
441,56,229131,5,10,0:2:0:0:
235,100,229298,1,2,2:0:0:0:
264,304,229464,6,0,P|340:360|429:337,1,161.999995056153,2|0,0:0|0:0,0:0:0:0:
437,337,229798,1,10,0:2:0:0:
200,232,229964,2,0,P|181:255|172:288,1,53.9999983520508,2|0,0:0|0:0,0:0:0:0:
207,366,230131,1,2,0:0:0:0:
288,189,230298,1,2,0:0:0:0:
89,214,230464,5,14,0:2:0:0:
172,60,230631,1,2,0:0:0:0:
172,60,230714,1,2,0:0:0:0:
172,60,230798,6,0,B|235:52|266:100|266:100|289:84|332:82,1,161.999995056153,2|0,0:0|0:0,0:0:0:0:
348,84,231131,1,10,0:2:0:0:
454,224,231298,2,0,P|443:249|421:265,1,53.9999983520508,2|0,0:0|0:0,0:0:0:0:
322,261,231464,1,2,0:0:0:0:
465,122,231631,1,0,0:0:0:0:
491,341,231798,5,10,0:2:0:0:
331,159,231964,1,2,2:0:0:0:
262,331,232131,6,0,P|183:330|123:274,1,161.999995056153,2|0,0:0|0:0,0:0:0:0:
121,246,232464,2,0,L|172:138,1,107.999996704102,10|0,0:2|0:0,0:0:0:0:
167,148,232714,1,2,0:0:0:0:
167,148,232798,1,2,0:0:0:0:
49,137,232964,1,0,0:0:0:0:
236,38,233131,5,12,0:2:0:0:
44,23,233298,1,0,0:0:0:0:
44,23,233381,1,0,0:0:0:0:
44,23,233464,6,0,L|45:229,1,161.999995056153,4|0,0:0|0:0,0:0:0:0:
68,207,233798,2,0,L|37:320,1,107.999996704102,10|0,0:2|0:0,0:0:0:0:
269,196,234131,1,2,0:0:0:0:
136,278,234298,1,0,0:0:0:0:
179,141,234464,5,10,0:2:0:0:
243,347,234631,1,2,2:0:0:0:
456,374,234798,6,0,P|518:290|510:232,1,161.999995056153,2|0,0:0|0:0,0:0:0:0:
492,212,235131,1,10,0:2:0:0:
328,84,235298,2,0,L|319:145,1,53.9999983520508,2|0,0:0|0:0,0:0:0:0:
309,225,235464,1,2,0:0:0:0:
419,29,235631,1,0,0:0:0:0:
202,63,235798,2,0,P|183:114|180:168,1,107.999996704102,10|0,0:2|2:0,0:0:0:0:
38,367,236131,6,0,P|67:248|67:209,1,161.999995056153,4|0,0:2|0:0,0:0:0:0:
63,176,236464,1,10,0:2:0:0:
191,261,236631,2,0,L|169:336,1,53.9999983520508,6|0,0:2|0:0,0:0:0:0:
224,380,236798,1,2,0:0:0:0:
333,189,236964,5,0,0:0:0:0:
441,288,237131,1,10,0:2:0:0:
441,288,237214,1,2,0:0:0:0:
441,288,237298,1,0,0:0:0:0:
233,256,237464,5,4,0:0:0:0:
426,163,237631,1,12,0:2:0:0:
263,100,237798,5,0,0:0:0:0:
403,33,237964,1,8,0:2:0:0:
185,33,238131,5,2,0:0:0:0:
166,65,238214,1,0,0:0:0:0:
161,102,238298,1,2,0:0:0:0:
173,137,238381,1,0,0:0:0:0:
190,170,238464,1,2,0:0:0:0:
190,208,238548,1,0,0:0:0:0:
175,242,238631,1,2,0:0:0:0:
150,270,238714,1,0,0:0:0:0:
120,279,238798,6,0,P|95:242|72:203,1,90,4|0,0:0|2:0,0:0:0:0:
49,353,239131,1,8,0:2:0:0:
231,358,239298,1,2,2:0:0:0:
231,358,239381,1,0,0:0:0:0:
231,358,239464,2,0,P|296:333|310:302,1,90,0|2,2:0|2:0,0:0:0:0:
276,100,239798,2,0,P|253:142|266:202,1,90,8|2,0:2|2:0,0:0:0:0:
468,102,240131,6,0,L|366:120,1,90,0|0,0:0|2:0,0:0:0:0:
271,323,240464,2,0,L|359:310,1,90,8|2,0:2|2:0,0:0:0:0:
360,311,240714,1,0,0:0:0:0:
360,311,240798,5,0,2:0:0:0:
379,117,240964,1,2,2:0:0:0:
240,216,241131,1,8,0:2:0:0:
240,216,241214,1,8,0:2:0:0:
240,216,241298,1,2,2:0:0:0:
144,83,241464,6,0,P|104:64|59:61,1,90,0|0,0:0|2:0,0:0:0:0:
0,204,241798,1,8,0:2:0:0:
127,347,241964,2,0,L|143:288,1,45,2|0,2:0|0:0,0:0:0:0:
161,219,242131,1,0,0:0:0:0:
347,315,242298,1,2,2:0:0:0:
127,347,242464,5,8,0:2:0:0:
297,209,242631,1,2,2:0:0:0:
210,112,242798,6,0,L|87:93,1,90
121,98,243048,1,0,0:0:0:0:
121,98,243131,1,8,0:2:0:0:
302,11,243298,1,0,0:0:0:0:
302,11,243381,1,0,0:0:0:0:
302,11,243464,1,8,0:2:0:0:
423,148,243631,5,0,0:0:0:0:
423,148,243714,1,0,0:0:0:0:
423,148,243798,2,0,L|423:208,1,45
331,310,243964,2,0,L|332:255,1,45
509,269,244131,5,4,2:2:0:0:
291,131,244464,1,0,0:0:0:0:
99,319,244798,1,2,0:0:0:0:
367,200,245131,1,0,0:0:0:0:
123,230,245464,5,0,1:0:0:0:
301,6,245631,1,0,1:0:0:0:
66,117,246131,5,0,1:0:0:0:
349,106,246298,1,0,1:0:0:0:
214,174,246464,1,0,1:0:0:0:
184,202,246548,1,0,1:0:0:0:
145,214,246631,1,0,1:0:0:0:
104,212,246714,1,0,1:0:0:0:
69,189,246798,5,4,1:2:0:0:
23,313,246964,1,0,1:0:0:0:
195,280,247131,1,0,1:0:0:0:
141,116,247298,1,0,1:0:0:0:
106,248,247464,5,0,1:0:0:0:
290,330,247631,1,0,1:0:0:0:
274,82,247798,1,0,1:0:0:0:
164,129,247964,1,0,1:0:0:0:
365,262,248131,5,0,1:0:0:0:
431,53,248298,1,0,1:0:0:0:
208,11,248464,1,0,1:0:0:0:
158,204,248631,1,0,1:0:0:0:
324,30,248798,5,0,1:0:0:0:
284,20,248881,1,0,1:0:0:0:
243,24,248964,1,0,1:0:0:0:
205,41,249048,1,0,1:0:0:0:
179,72,249131,1,0,1:0:0:0:
145,94,249214,1,0,1:0:0:0:
106,108,249298,1,0,1:0:0:0:
66,102,249381,1,0,1:0:0:0:
31,80,249464,5,4,1:2:0:0:
78,283,249798,2,0,L|99:222,2,45.0000017166138
145,322,250131,2,0,L|285:301,1,135.000005149842
360,302,250576,2,0,L|363:364,1,45.0000017166138
445,282,250798,6,0,P|468:246|459:205,1,67.5000025749208,0|0,0:0|2:0,0:0:0:0:
418,94,251131,2,0,L|390:97,6,22.5000008583069
179,177,251798,2,0,L|256:179,2,45.0000017166138
113,134,252131,5,0,0:0:0:0:
169,334,252464,2,0,L|177:270,2,45.0000017166138
92,344,252798,2,0,P|52:325|46:232,1,135.000005149842
68,171,253242,2,0,L|39:117,1,45.0000017166138
61,58,253464,5,0,0:0:0:0:
291,36,253798,2,0,L|331:42,6,22.5000008583069
223,104,254298,2,0,P|218:140|214:194,2,67.5000025749208
367,130,254798,5,2,2:0:0:0:
62,192,256131,5,2,2:0:0:0:
256,192,257464,12,0,261464,2:0:0:0:
