osu file format v14

[General]
AudioFilename: audio.mp3
AudioLeadIn: 0
PreviewTime: 130031
Countdown: 0
SampleSet: Soft
StackLeniency: 0.7
Mode: 0
LetterboxInBreaks: 0
WidescreenStoryboard: 0

[Editor]
Bookmarks: 698,11531,22198,34198,44864,55531,66198,76864,87531,98198,108864,119531,130198,140864,151531,170198,180864,195531,206198,216864,227531,238198,248864,262198
DistanceSpacing: 1.4
BeatDivisor: 4
GridSize: 4
TimelineZoom: 1.5

[Metadata]
Title:Prima Stella
TitleUnicode:プリマステラ
Artist:Kano
ArtistUnicode:鹿乃
Creator:Andrea
Version:Luminous
Source:
Tags:japanese pop jpop j-pop utaite nowhere samfree ゆうゆ osuplayer111 Sekai-nyan Sekaii Sekai Collab Collaboration
BeatmapID:2637815
BeatmapSetID:1269319

[Difficulty]
HPDrainRate:7
CircleSize:4.5
OverallDifficulty:8
ApproachRate:9
SliderMultiplier:1.6
SliderTickRate:1

[Events]
//Background and Video events
0,0,"bgbgbgbbgkano.jpg",0,0
Video,-600,"primastella.avi"
//Break Periods
2,193064,194931
//Storyboard Layer 0 (Background)
//Storyboard Layer 1 (Fail)
//Storyboard Layer 2 (Pass)
//Storyboard Layer 3 (Foreground)
//Storyboard Layer 4 (Overlay)
//Storyboard Sound Samples

[TimingPoints]
865,333.333333333333,4,2,2,40,1,0
865,-133.333333333333,4,2,2,40,0,0
6031,-133.333333333333,4,2,1,50,0,0
6198,-100,4,2,1,60,0,0
11198,-100,4,2,1,40,0,0
11531,-100,4,2,1,70,0,0
23031,-133.333333333333,4,2,1,50,0,0
33198,-133.333333333333,4,2,1,5,0,0
33281,-133.333333333333,4,2,1,50,0,0
33531,-133.333333333333,4,2,1,30,0,0
33698,-133.333333333333,4,2,1,50,0,0
34198,-100,4,2,1,60,0,0
47448,-100,4,2,1,5,0,0
47531,-100,4,2,1,60,0,0
55531,-100,4,2,1,80,0,1
87531,-100,4,2,1,70,0,0
95781,-100,4,2,1,5,0,0
95864,-100,4,2,1,70,0,0
97031,-100,4,2,1,50,0,0
98198,-100,4,2,1,45,0,0
108864,-100,4,2,1,60,0,0
122114,-100,4,2,1,5,0,0
122198,-100,4,2,1,60,0,0
124864,-133.333333333333,4,2,1,50,0,0
127531,-100,4,2,1,60,0,0
128864,-133.333333333333,4,2,1,60,0,0
129198,-133.333333333333,4,2,1,50,0,0
130198,-100,4,2,1,80,0,1
167531,-100,4,2,1,60,0,1
168198,-100,4,2,1,70,0,1
168864,-100,4,2,1,80,0,1
170198,-100,4,2,1,70,0,0
188864,-100,4,2,1,60,0,0
195531,-133.333333333333,4,2,1,60,0,0
203864,-133.333333333333,4,2,1,5,0,0
203948,-133.333333333333,4,2,1,60,0,0
206198,-117.647058823529,4,2,1,60,0,0
211531,-100,4,2,1,60,0,0
214198,-100,4,2,1,70,0,0
216864,-100,4,2,1,80,0,1
246198,-100,4,2,1,60,0,1
246864,-100,4,2,1,70,0,1
247531,-100,4,2,1,80,0,1
248864,-133.333333333333,4,2,1,35,0,0
250198,-133.333333333333,4,2,2,35,0,0
250364,-133.333333333333,4,2,1,35,0,0
250864,-133.333333333333,4,2,2,35,0,0
251198,-133.333333333333,4,2,1,35,0,0
251531,-133.333333333333,4,2,2,35,0,0
251614,-133.333333333333,4,2,1,35,0,0
252864,-133.333333333333,4,2,2,35,0,0
253198,-133.333333333333,4,2,1,35,0,0
253531,-133.333333333333,4,2,2,35,0,0
253698,-133.333333333333,4,2,1,35,0,0
254198,-133.333333333333,4,2,2,35,0,0
259531,-133.333333333333,4,2,1,30,0,0
260198,-133.333333333333,4,2,1,25,0,0
260864,-133.333333333333,4,2,1,20,0,0
261531,-133.333333333333,4,2,1,15,0,0
261864,-133.333333333333,4,2,1,10,0,0
262198,-133.333333333333,4,2,1,5,0,0

[Colours]
Combo1 : 128,191,255
Combo2 : 213,170,170
SliderBorder : 128,191,255
SliderTrackOverride : 213,170,170

[HitObjects]
112,48,698,5,0,0:0:0:0:
112,48,781,1,0,0:0:0:0:
112,48,865,2,0,P|140:38|168:48,1,60.0000022888184,2|0,0:0|0:0,0:0:0:0:
284,112,1198,2,0,P|256:122|228:112,1,60.0000022888184,0|0,0:0|0:0,0:0:0:0:
344,47,1531,1,0,0:0:0:0:
344,47,1864,2,0,P|372:38|400:48,1,60.0000022888184,2|0,0:0|0:0,0:0:0:0:
408,132,2198,6,0,B|386:170|386:170|359:191|359:191|337:229,1,120.000004577637,2|0,0:0|0:0,0:0:0:0:
174,227,2864,2,0,B|153:190|153:190|126:169|126:169|105:131,1,120.000004577637,2|0,0:0|0:0,0:0:0:0:
60,60,3364,1,0,0:0:0:0:
228,28,3531,6,0,B|256:40|256:40|284:28,1,60.0000022888184,2|0,0:0|0:0,0:0:0:0:
448,76,3864,2,0,B|420:64|420:64|392:76,1,60.0000022888184
326,128,4198,1,0,0:0:0:0:
326,128,4531,1,2,0:0:0:0:
256,176,4698,1,0,0:0:0:0:
180,212,4864,6,0,B|120:192|120:232|60:212,1,120.000004577637,2|0,0:0|0:0,0:0:0:0:
144,280,5364,1,0,0:0:0:0:
92,144,5531,1,2,0:0:0:0:
231,101,5698,1,0,0:0:0:0:
283,237,5865,1,0,0:0:0:0:
150,285,6031,5,8,1:2:0:0:
150,285,6114,1,8,1:2:0:0:
150,285,6198,2,0,P|172:358|246:381,1,160,4|0,3:2|0:0,0:0:0:0:
283,237,6698,1,0,0:0:0:0:
283,237,6864,2,0,P|260:163|186:140,1,160,2|0,3:2|0:0,0:0:0:0:
96,108,7364,1,0,0:0:0:0:
204,224,7531,6,0,L|316:108,1,160,4|0,3:2|0:0,0:0:0:0:
444,216,8031,1,0,0:0:0:0:
444,216,8198,2,0,L|332:332,1,160,2|0,3:2|0:0,0:0:0:0:
256,272,8698,1,0,0:0:0:0:
180,331,8864,6,0,L|124:272,1,80,4|0,3:2|0:0,0:0:0:0:
120,112,9198,2,0,L|176:171,1,80,2|0,3:2|0:0,0:0:0:0:
332,331,9531,2,0,L|387:272,1,80,0|0,3:2|0:0,0:0:0:0:
392,112,9865,2,0,L|336:170,1,80,2|0,3:2|0:0,0:0:0:0:
256,272,10198,1,0,3:0:0:0:
175,170,10364,5,0,1:0:0:0:
256,24,10531,1,0,1:0:0:0:
337,170,10698,1,0,1:0:0:0:
175,80,10864,1,0,1:0:0:0:
337,80,11031,1,0,1:0:0:0:
256,144,11198,5,2,0:0:0:0:
256,176,11281,1,2,0:0:0:0:
256,208,11364,1,2,0:0:0:0:
256,240,11448,1,2,0:0:0:0:
256,272,11531,6,0,P|188:308|120:272,1,160,4|8,0:0|1:2,0:0:0:0:
60,192,12031,1,2,0:0:0:0:
60,192,12114,1,2,1:2:0:0:
60,192,12198,2,0,L|4:256,1,80,0|2,3:0|0:0,0:0:0:0:
120,272,12531,2,0,L|172:211,1,80,8|0,1:2|0:0,0:0:0:0:
256,112,12864,6,0,P|324:76|392:112,1,160,2|8,3:2|1:2,0:0:0:0:
324,280,13364,1,2,0:0:0:0:
324,280,13447,1,0,1:2:0:0:
324,280,13531,2,0,L|324:196,1,80,2|0,3:2|0:0,0:0:0:0:
391,111,13864,1,8,1:2:0:0:
256,112,14031,1,0,0:0:0:0:
256,112,14114,1,8,1:2:0:0:
256,112,14198,6,0,B|222:93|222:93|183:113,1,80,0|0,3:0|0:0,0:0:0:0:
120,192,14531,1,8,1:2:0:0:
185,272,14698,1,2,0:0:0:0:
185,272,14781,1,2,1:2:0:0:
185,272,14864,2,0,B|222:291|222:291|256:272,1,80,0|0,3:0|0:0,0:0:0:0:
331,157,15198,2,0,B|350:191|350:191|332:228,1,80,8|2,1:2|0:0,0:0:0:0:
185,272,15531,6,0,L|148:352,1,80,2|0,3:2|0:0,0:0:0:0:
256,372,15864,1,8,1:2:0:0:
68,320,16031,1,2,0:0:0:0:
68,320,16114,1,2,1:2:0:0:
68,320,16198,2,0,L|102:247,1,80,0|0,3:0|0:0,0:0:0:0:
144,160,16531,1,8,1:2:0:0:
188,272,16698,1,0,1:0:0:0:
188,272,16781,1,0,1:2:0:0:
188,272,16864,6,0,P|256:308|324:272,1,160,0|8,3:0|1:2,0:0:0:0:
256,156,17364,1,2,0:0:0:0:
256,156,17448,1,2,1:2:0:0:
256,156,17531,2,0,L|256:240,1,80,0|2,3:0|0:0,0:0:0:0:
340,152,17864,2,0,L|340:72,1,80,8|0,1:2|0:0,0:0:0:0:
455,115,18198,6,0,B|418:185|418:185|455:256,1,160,2|8,3:2|1:2,0:0:0:0:
339,222,18698,1,2,0:0:0:0:
339,222,18781,1,0,1:2:0:0:
339,222,18864,2,0,B|320:185|320:185|339:151,1,80,2|0,3:2|0:0,0:0:0:0:
256,72,19198,1,8,1:2:0:0:
172,151,19364,1,0,0:0:0:0:
172,151,19448,1,0,1:2:0:0:
172,151,19531,6,0,B|128:151|128:151|98:125,1,80,0|2,3:0|0:0,0:0:0:0:
16,192,19864,1,8,1:2:0:0:
101,256,20031,1,2,0:0:0:0:
101,256,20114,1,2,1:2:0:0:
101,256,20198,2,0,B|128:233|128:233|172:232,1,80,0|0,3:0|0:0,0:0:0:0:
256,158,20531,2,0,B|275:192|275:192|256:228,1,80,8|2,1:2|0:0,0:0:0:0:
416,228,20864,6,0,L|248:228,1,160,2|12,3:2|1:2,0:0:0:0:
360,312,21364,1,0,1:0:0:0:
416,228,21531,2,0,L|452:256,1,40,0|0,1:0|0:0,0:0:0:0:
432,152,21698,2,0,L|400:127,1,40,0|0,1:0|1:0,0:0:0:0:
392,28,21864,2,0,L|428:56,1,40,8|0,1:2|1:0,0:0:0:0:
324,80,22031,1,0,1:0:0:0:
324,80,22114,1,0,1:0:0:0:
324,80,22198,1,4,1:2:0:0:
188,80,23031,6,0,P|156:80|132:92,1,60.0000022888184,0|2,0:0|0:0,0:0:0:0:
56,132,23364,1,0,0:0:0:0:
56,132,23531,2,0,L|112:240,1,120.000004577637,2|0,0:0|0:0,0:0:0:0:
156,312,24031,1,0,0:0:0:0:
156,312,24198,2,0,L|188:364,1,60.0000022888184,2|0,0:0|0:0,0:0:0:0:
356,312,24531,2,0,L|324:364,1,60.0000022888184,0|0,0:0|0:0,0:0:0:0:
256,316,24864,6,0,B|236:256|276:256|256:196,1,120.000004577637,2|0,0:0|0:0,0:0:0:0:
204,136,25364,1,0,0:0:0:0:
204,136,25531,2,0,P|256:110|308:136,1,120.000004577637,2|0,0:0|0:0,0:0:0:0:
384,224,26031,1,0,0:0:0:0:
384,224,26198,6,0,P|435:249|487:223,1,120.000004577637,2|0,0:0|0:0,0:0:0:0:
488,140,26698,1,0,0:0:0:0:
488,140,26864,2,0,P|497:112|487:84,1,60.0000022888184,2|0,0:0|0:0,0:0:0:0:
384,20,27198,2,0,P|374:47|384:75,1,60.0000022888184,0|0,0:0|0:0,0:0:0:0:
280,140,27531,6,0,P|216:140|176:180,1,120.000004577637,2|0,0:0|0:0,0:0:0:0:
220,252,28031,1,0,0:0:0:0:
220,252,28198,2,0,L|256:312,1,60.0000022888184,2|0,0:0|0:0,0:0:0:0:
128,296,28531,2,0,L|92:236,1,60.0000022888184,0|0,0:0|0:0,0:0:0:0:
36,140,28864,6,0,B|75:112|75:112|99:105|99:105|138:77,1,120.000004577637,2|0,0:0|0:0,0:0:0:0:
168,156,29364,1,0,0:0:0:0:
168,156,29531,2,0,L|220:116,1,60.0000022888184,2|0,0:0|0:0,0:0:0:0:
296,119,29864,2,0,L|344:156,1,60.0000022888184,0|0,0:0|0:0,0:0:0:0:
256,192,30198,6,0,B|232:248|280:248|256:308,1,120.000004577637,2|0,0:0|0:0,0:0:0:0:
204,360,30698,1,0,0:0:0:0:
204,360,30864,2,0,P|256:386|308:360,1,120.000004577637,2|0,0:0|0:0,0:0:0:0:
384,256,31364,1,0,0:0:0:0:
384,256,31531,6,0,P|435:230|487:256,1,120.000004577637,2|0,0:0|0:0,0:0:0:0:
436,324,32031,1,0,0:0:0:0:
384,256,32198,2,0,L|344:204,1,60.0000022888184,2|0,0:0|0:0,0:0:0:0:
228,184,32531,2,0,L|268:236,1,60.0000022888184,0|0,0:0|0:0,0:0:0:0:
294,96,32864,6,0,P|179:113|123:215,1,240.000009155274,2|0,0:0|0:0,0:0:0:0:
156,292,33698,1,0,0:0:0:0:
298,351,33864,1,2,0:0:0:0:
214,351,34031,1,2,0:0:0:0:
356,292,34198,6,0,L|404:228,1,80,4|0,3:2|0:0,0:0:0:0:
352,128,34531,2,0,L|304:192,1,80,0|2,3:0|0:0,0:0:0:0:
208,192,34864,2,0,L|160:128,1,80,0|2,3:0|0:0,0:0:0:0:
108,228,35197,2,0,L|156:292,1,80,8|2,0:2|0:0,0:0:0:0:
274,266,35531,5,0,3:0:0:0:
258,106,35698,1,2,0:0:0:0:
365,225,35864,1,0,3:0:0:0:
208,192,36031,1,2,0:0:0:0:
352,128,36198,2,0,B|386:109|386:109|422:128,1,80,2|0,3:0|0:0,0:0:0:0:
278,192,36531,2,0,B|244:211|244:211|208:192,1,80,0|8,3:0|0:0,0:0:0:0:
179,355,36864,6,0,P|167:318|179:281,1,80,2|0,3:0|0:0,0:0:0:0:
332,281,37198,2,0,P|344:318|332:356,1,80,0|2,3:0|0:0,0:0:0:0:
179,281,37531,2,0,P|166:243|178:206,1,80,0|2,3:0|0:0,0:0:0:0:
332,206,37865,2,0,P|344:243|331:280,1,80,8|2,0:0|0:0,0:0:0:0:
256,168,38198,5,0,3:0:0:0:
206,14,38364,1,2,0:0:0:0:
336,109,38531,1,2,3:0:0:0:
175,109,38698,1,0,0:0:0:0:
306,14,38864,2,0,L|392:24,1,80,0|2,3:0|0:0,0:0:0:0:
415,118,39198,2,0,L|335:108,1,80,0|8,3:0|0:0,0:0:0:0:
175,183,39531,6,0,P|162:145|174:108,1,80,4|0,3:2|0:0,0:0:0:0:
200,260,39864,2,0,P|162:272|125:260,1,80,0|2,3:0|0:0,0:0:0:0:
256,192,40198,2,0,P|291:209|309:244,1,80,0|2,3:0|0:0,0:0:0:0:
160,184,40531,2,0,P|147:146|159:109,1,80,8|0,0:0|0:0,0:0:0:0:
256,192,40864,5,0,3:0:0:0:
231,289,41031,1,2,0:0:0:0:
393,277,41198,1,2,3:0:0:0:
355,185,41364,1,0,0:0:0:0:
316,342,41531,2,0,L|400:368,1,80,2|0,3:0|0:0,0:0:0:0:
469,300,41864,2,0,L|392:276,1,80,0|8,3:0|0:0,0:0:0:0:
231,289,42198,6,0,P|193:301|156:289,1,80,2|0,3:0|0:0,0:0:0:0:
88,156,42531,2,0,B|69:192|69:192|88:226,1,80,0|2,3:0|0:0,0:0:0:0:
156,94,42864,2,0,P|193:82|231:95,1,80,0|2,3:0|0:0,0:0:0:0:
304,226,43198,2,0,B|323:192|323:192|304:156,1,80,8|0,0:0|0:0,0:0:0:0:
231,289,43531,5,0,3:0:0:0:
77,339,43698,1,2,0:0:0:0:
172,209,43864,1,2,3:0:0:0:
172,370,44031,1,0,0:0:0:0:
77,239,44198,2,0,L|48:204,1,40,0|0,3:0|0:0,0:0:0:0:
76,116,44364,2,0,L|101:146,1,40,0|0,1:2|1:2,0:0:0:0:
128,52,44531,2,0,L|102:21,1,40,0|0,1:2|1:2,0:0:0:0:
184,112,44698,1,0,1:2:0:0:
184,112,44781,1,0,1:2:0:0:
184,112,44864,6,0,B|184:144|184:144|180:148|180:148|188:148|188:148|184:152|184:152|184:184,1,80,4|2,1:2|1:2,0:0:0:0:
256,36,45198,1,8,0:0:0:0:
328,180,45364,2,0,B|328:152|328:152|324:148|324:148|332:148|332:148|328:144|328:144|328:112,1,80,4|2,1:2|0:0,0:0:0:0:
256,256,45698,1,8,0:0:0:0:
328,112,45864,2,0,P|396:76|464:112,1,160,4|0,1:2|0:0,0:0:0:0:
463,273,46364,5,0,1:0:0:0:
463,273,46448,1,0,1:0:0:0:
463,273,46531,2,0,P|475:310|463:347,1,80,0|0,1:0|0:0,0:0:0:0:
328,186,46864,2,0,P|315:148|327:111,1,80,4|4,0:3|0:3,0:0:0:0:
184,36,47198,2,0,P|136:4|76:4,1,120,4|0,0:3|0:0,0:0:0:0:
40,40,47531,5,4,1:2:0:0:
178,112,47698,2,0,B|144:131|144:131|108:112,1,80,2|8,2:0|0:0,0:0:0:0:
256,24,48031,1,4,1:2:0:0:
404,112,48198,2,0,B|368:131|368:131|334:112,1,80,2|8,0:0|0:0,0:0:0:0:
480,160,48531,2,0,L|340:244,1,160,4|0,1:2|0:0,0:0:0:0:
204,320,49031,5,8,0:3:0:0:
204,320,49114,1,8,0:3:0:0:
204,320,49198,2,0,P|160:320|128:296,1,80,0|8,0:0|0:3,0:0:0:0:
131,83,49531,2,0,P|164:62|204:64,1,80,4|4,0:3|0:3,0:0:0:0:
256,192,49864,2,0,B|224:192|224:192|220:188|220:188|220:196|220:196|216:192|216:192|184:192,1,80,4|0,1:2|0:0,0:0:0:0:
340,120,50198,6,0,B|340:152|372:192|372:192|340:232|340:264,1,160,4|2,3:2|3:0,0:0:0:0:
424,124,50698,1,0,0:0:0:0:
424,260,50864,2,0,L|496:304,1,80,2|0,3:0|0:0,0:0:0:0:
424,124,51198,2,0,L|496:80,1,80,2|0,3:0|0:0,0:0:0:0:
256,208,51531,6,0,B|176:180|176:236|100:208,1,160,2|2,3:0|3:0,0:0:0:0:
212,276,52031,1,0,0:0:0:0:
212,276,52198,2,0,P|224:313|212:350,1,80,2|0,3:0|0:0,0:0:0:0:
144,140,52531,2,0,P|132:103|144:66,1,80,2|0,3:0|0:0,0:0:0:0:
212,276,52864,5,4,1:2:0:0:
212,276,53031,1,0,1:2:0:0:
144,140,53198,1,0,1:2:0:0:
144,140,53364,1,0,1:2:0:0:
284,80,53531,1,0,1:2:0:0:
284,80,53698,1,0,1:2:0:0:
352,216,53864,1,0,1:2:0:0:
352,216,54031,1,0,1:2:0:0:
248,180,54198,1,0,1:2:0:0:
248,180,55531,6,0,B|168:152|168:208|92:180,1,160,4|8,3:2|1:2,0:0:0:0:
204,324,56031,1,2,0:0:0:0:
204,324,56114,1,2,1:2:0:0:
204,324,56198,2,0,P|216:287|204:250,1,80,0|0,3:0|0:0,0:0:0:0:
92,180,56531,2,0,P|79:217|91:254,1,80,8|0,1:2|2:0,0:0:0:0:
184,60,56864,6,0,B|216:60|256:92|256:92|296:60|328:60,1,160,2|8,3:0|1:2,0:0:0:0:
183,134,57364,1,2,0:0:0:0:
183,134,57448,1,0,1:2:0:0:
183,134,57531,2,0,P|171:96|183:59,1,80,0|2,3:0|0:0,0:0:0:0:
328,59,57864,2,0,P|340:96|329:134,1,80,8|2,1:2|0:0,0:0:0:0:
288,196,58114,1,2,1:2:0:0:
288,196,58198,6,0,B|364:224|364:168|444:196,1,160,2|8,3:0|1:2,0:0:0:0:
396,284,58698,1,2,0:0:0:0:
396,284,58781,1,2,1:2:0:0:
396,284,58864,2,0,B|362:303|362:303|323:283,1,80,0|0,3:0|0:0,0:0:0:0:
217,196,59198,2,0,B|251:177|251:177|287:195,1,80,8|2,1:2|0:0,0:0:0:0:
187,284,59531,6,0,L|176:120,1,160,2|8,3:0|1:2,0:0:0:0:
96,64,60031,1,2,0:0:0:0:
96,64,60114,1,2,1:2:0:0:
96,64,60198,2,0,L|100:152,2,80,0|2|8,3:0|0:0|1:2,0:0:0:0:
326,120,60698,1,8,1:2:0:0:
326,120,60781,1,8,1:2:0:0:
326,120,60864,6,0,B|256:157|256:157|185:120,1,160,4|8,3:2|1:2,0:0:0:0:
360,192,61364,1,2,0:0:0:0:
360,192,61448,1,2,1:2:0:0:
360,192,61531,2,0,L|284:236,1,80,0|0,3:0|0:0,0:0:0:0:
152,192,61864,2,0,L|221:232,1,80,8|0,1:2|0:0,0:0:0:0:
316,340,62198,5,2,3:0:0:0:
196,340,62364,1,0,0:0:0:0:
290,232,62531,2,0,L|360:192,1,80,8|2,1:2|0:0,0:0:0:0:
221,232,62864,2,0,L|152:192,1,80,0|2,3:0|0:0,0:0:0:0:
256,80,63198,2,0,L|256:160,1,80,8|2,1:2|0:0,0:0:0:0:
472,128,63531,6,0,P|404:92|336:127,1,160,4|8,3:2|1:2,0:0:0:0:
404,272,64031,1,2,0:0:0:0:
404,272,64114,1,0,1:0:0:0:
404,272,64198,2,0,L|404:184,1,80,0|0,1:0|1:2,0:0:0:0:
335,127,64531,1,8,1:2:0:0:
472,128,64698,1,0,1:0:0:0:
472,128,64781,1,0,1:0:0:0:
472,128,64864,1,4,1:2:0:0:
484,224,65031,2,0,L|484:268,2,40,0|0|8,1:0|1:0|1:2,0:0:0:0:
256,88,65364,5,0,1:0:0:0:
293,100,65447,1,0,1:0:0:0:
315,132,65530,1,0,1:0:0:0:
315,172,65613,1,0,1:0:0:0:
292,203,65697,1,0,1:0:0:0:
254,215,65780,1,0,1:0:0:0:
217,203,65863,1,8,1:2:0:0:
194,171,65947,1,0,1:0:0:0:
194,132,66030,1,0,1:0:0:0:
217,100,66113,1,0,1:0:0:0:
256,88,66198,6,0,P|268:50|256:13,1,80,6|0,3:2|0:0,0:0:0:0:
191,34,66448,1,2,1:2:0:0:
191,34,66531,2,0,P|153:22|116:34,1,80,8|2,1:2|0:0,0:0:0:0:
116,200,66864,2,0,P|154:212|191:200,1,80,0|0,3:0|0:0,0:0:0:0:
256,88,67198,1,8,1:2:0:0:
320,199,67364,1,2,0:0:0:0:
320,199,67448,1,2,1:2:0:0:
320,199,67531,6,0,P|358:212|396:200,1,80,2|0,3:0|0:0,0:0:0:0:
460,88,67864,1,8,1:2:0:0:
356,12,68031,1,2,0:0:0:0:
356,12,68114,1,2,1:2:0:0:
356,12,68198,2,0,B|375:46|375:46|355:85,1,80,0|2,3:0|0:0,0:0:0:0:
222,156,68531,2,0,B|256:137|256:137|295:157,1,80,8|2,1:2|0:0,0:0:0:0:
155,82,68864,6,0,B|137:46|137:46|156:12,1,80,2|0,3:0|0:0,0:0:0:0:
68,72,69114,1,2,1:2:0:0:
68,72,69198,2,0,L|108:144,1,80,8|2,1:2|0:0,0:0:0:0:
160,228,69531,1,0,3:0:0:0:
255,358,69698,1,2,3:2:0:0:
255,197,69864,1,8,1:2:0:0:
160,328,70031,1,0,0:0:0:0:
313,278,70198,6,0,B|369:278|369:278|417:254|417:254|469:254,1,160,2|8,3:0|1:2,0:0:0:0:
467,130,70698,1,2,0:0:0:0:
467,130,70781,1,2,1:2:0:0:
467,130,70864,2,0,B|428:128|428:128|392:104,1,80,0|0,3:0|0:0,0:0:0:0:
256,40,71198,1,8,1:2:0:0:
118,105,71364,1,2,3:2:0:0:
118,105,71448,1,0,1:2:0:0:
118,105,71531,6,0,B|84:128|84:128|45:130,1,80,4|0,3:2|0:0,0:0:0:0:
45,254,71864,1,8,1:2:0:0:
132,344,72031,1,2,0:0:0:0:
132,344,72114,1,2,1:2:0:0:
132,344,72198,2,0,P|172:344|204:320,1,80,0|0,3:0|0:0,0:0:0:0:
294,180,72531,2,0,P|256:168|219:180,1,80,8|2,1:2|0:0,0:0:0:0:
328,256,72864,6,0,L|328:92,1,160,0|8,3:0|1:2,0:0:0:0:
184,96,73364,1,2,0:0:0:0:
184,96,73448,1,2,1:2:0:0:
184,96,73531,2,0,B|152:96|152:96|148:92|148:92|148:100|148:100|144:96|144:96|116:96,1,80,0|0,3:0|0:0,0:0:0:0:
16,192,73864,2,0,B|48:192|48:192|52:196|52:196|52:188|52:188|56:192|56:192|84:192,1,80,8|2,1:2|0:0,0:0:0:0:
184,288,74198,6,0,P|256:318|328:288,1,160,2|8,3:0|1:2,0:0:0:0:
256,148,74698,1,2,0:0:0:0:
256,148,74781,1,2,1:2:0:0:
256,148,74864,2,0,L|256:232,1,80,0|0,1:0|1:0,0:0:0:0:
344,112,75198,2,0,L|344:28,1,80,8|0,1:2|0:0,0:0:0:0:
168,32,75531,1,0,1:0:0:0:
52,108,75698,1,4,0:3:0:0:
128,224,75864,1,8,1:2:0:0:
244,148,76031,1,4,0:3:0:0:
365,82,76198,5,0,1:2:0:0:
401,98,76281,1,0,1:2:0:0:
433,122,76364,1,0,1:2:0:0:
457,154,76448,1,0,1:2:0:0:
467,192,76531,1,8,1:2:0:0:
457,230,76614,1,0,1:0:0:0:
433,262,76698,1,0,1:0:0:0:
401,286,76781,1,0,1:0:0:0:
365,302,76864,6,0,B|328:283|328:283|294:302,1,80,4|0,3:2|0:0,0:0:0:0:
192,352,77198,1,8,1:2:0:0:
232,240,77364,1,2,0:0:0:0:
232,240,77448,1,2,1:2:0:0:
232,240,77531,2,0,L|312:196,1,80,0|0,3:0|0:0,0:0:0:0:
302,105,77864,2,0,L|231:143,1,80,8|0,1:2|0:0,0:0:0:0:
120,196,78198,5,2,3:0:0:0:
232,240,78364,1,0,0:0:0:0:
232,144,78531,1,8,1:2:0:0:
120,196,78698,1,2,0:0:0:0:
120,196,78781,1,0,1:2:0:0:
120,196,78864,2,0,P|82:184|45:196,1,80,0|2,3:0|0:0,0:0:0:0:
144,272,79198,1,8,1:2:0:0:
232,144,79364,5,2,0:0:0:0:
232,144,79448,1,0,1:2:0:0:
231,143,79531,2,0,L|302:105,1,80,2|0,3:0|0:0,0:0:0:0:
184,72,79864,1,8,1:2:0:0:
300,192,80031,1,2,0:0:0:0:
300,192,80114,1,2,1:2:0:0:
300,192,80198,2,0,L|370:153,1,80,0|0,3:0|0:0,0:0:0:0:
184,72,80531,2,0,L|113:110,1,80,8|2,1:2|0:0,0:0:0:0:
48,248,80864,5,0,3:0:0:0:
136,196,81031,2,0,L|176:172,2,40,0|0|8,1:0|1:0|1:2,0:0:0:0:
256,272,81364,2,0,L|256:232,1,40,0|0,1:0|1:0,0:0:0:0:
332,288,81531,2,0,L|332:328,1,40,0|0,1:0|1:0,0:0:0:0:
408,360,81698,2,0,L|408:320,1,40,0|0,1:0|1:0,0:0:0:0:
488,344,81864,2,0,L|488:384,1,40,8|0,1:2|1:0,0:0:0:0:
488,252,82031,1,0,1:0:0:0:
488,252,82114,1,0,1:0:0:0:
488,252,82198,5,4,1:2:0:0:
488,252,83531,5,8,1:2:0:0:
432,120,83698,1,8,1:2:0:0:
80,120,84198,5,8,1:2:0:0:
24,252,84365,1,8,1:2:0:0:
80,120,84531,5,0,1:0:0:0:
112,97,84614,1,0,1:0:0:0:
151,90,84697,1,0,1:0:0:0:
190,97,84780,1,0,1:0:0:0:
223,120,84864,6,0,P|235:157|223:195,1,80,4|0,1:2|1:0,0:0:0:0:
79,195,85198,2,0,P|66:157|79:119,1,80,0|0,1:0|1:0,0:0:0:0:
148,240,85531,2,0,L|88:308,1,80,0|0,1:0|1:0,0:0:0:0:
151,90,85864,2,0,L|203:30,1,80,0|0,1:0|1:0,0:0:0:0:
396,40,86198,5,0,1:0:0:0:
446,194,86364,1,0,1:0:0:0:
316,99,86531,1,0,1:0:0:0:
477,99,86698,1,0,1:0:0:0:
346,194,86864,1,0,1:0:0:0:
327,228,86947,1,0,1:0:0:0:
331,268,87030,1,0,1:0:0:0:
356,298,87113,1,0,1:0:0:0:
394,310,87197,1,0,1:0:0:0:
432,299,87280,1,0,1:0:0:0:
457,268,87363,1,0,1:0:0:0:
460,230,87447,1,0,1:0:0:0:
446,194,87531,6,0,P|458:156|446:119,1,80,4|0,3:2|0:0,0:0:0:0:
308,8,87864,2,0,P|296:46|308:83,1,80,8|0,1:2|0:0,0:0:0:0:
371,46,88114,1,2,1:2:0:0:
371,46,88198,2,0,P|408:33|446:45,1,80,2|2,3:0|0:0,0:0:0:0:
328,164,88531,6,0,P|256:193|184:163,1,160,8|2,1:2|3:0,0:0:0:0:
92,116,89031,1,0,0:0:0:0:
24,192,89198,1,8,1:2:0:0:
92,268,89364,1,2,0:0:0:0:
92,268,89448,1,0,1:2:0:0:
92,268,89531,2,0,B|136:268|136:268|164:292,1,80,0|2,3:0|0:0,0:0:0:0:
256,352,89864,1,8,1:2:0:0:
348,292,90031,1,2,0:0:0:0:
348,292,90114,1,0,1:2:0:0:
348,292,90198,6,0,B|376:268|376:268|420:268,1,80,0|0,3:0|0:0,0:0:0:0:
293,179,90531,2,0,B|256:160|256:160|222:179,1,80,8|2,1:2|0:0,0:0:0:0:
213,101,90781,1,2,1:2:0:0:
213,101,90864,2,0,L|144:140,1,80,0|0,3:0|0:0,0:0:0:0:
298,101,91198,2,0,L|368:140,1,80,8|0,1:2|0:0,0:0:0:0:
328,292,91531,6,0,B|296:292|256:324|256:324|216:292|184:292,1,160,2|8,3:0|1:2,0:0:0:0:
88,328,92031,1,2,3:2:0:0:
88,328,92114,1,2,0:0:0:0:
88,328,92198,1,4,1:2:0:0:
32,240,92364,1,0,1:0:0:0:
56,208,92448,1,0,1:0:0:0:
80,176,92531,1,8,1:2:0:0:
104,144,92614,1,0,1:0:0:0:
128,112,92698,1,0,1:0:0:0:
152,80,92781,1,0,1:0:0:0:
176,48,92864,6,0,P|216:48|252:72,1,80,4|0,0:0|1:0,0:0:0:0:
256,192,93198,1,8,1:2:0:0:
184,20,93364,2,0,P|223:19|257:40,1,80,4|2,0:0|3:0,0:0:0:0:
290,64,93614,1,0,1:0:0:0:
320,91,93698,1,0,1:0:0:0:
351,116,93781,1,0,1:0:0:0:
383,139,93864,1,8,1:2:0:0:
492,200,94031,1,0,0:0:0:0:
428,307,94198,5,2,3:0:0:0:
319,246,94365,1,0,0:0:0:0:
319,246,94448,1,0,1:2:0:0:
319,246,94531,2,0,P|281:234|244:246,1,80,8|2,1:2|0:0,0:0:0:0:
160,284,94864,2,0,P|147:246|159:208,1,80,0|0,3:0|0:0,0:0:0:0:
281,307,95198,2,0,P|293:344|281:382,1,80,8|2,1:2|0:0,0:0:0:0:
217,345,95448,1,0,1:2:0:0:
217,345,95531,6,0,B|160:324|160:368|101:345,1,120,2|0,3:0|0:0,0:0:0:0:
56,328,95864,2,0,P|32:292|36:256,1,80,12|2,1:2|0:0,0:0:0:0:
88,176,96198,1,0,3:0:0:0:
160,100,96364,1,0,1:0:0:0:
188,72,96448,1,0,1:0:0:0:
220,48,96531,1,8,1:2:0:0:
256,29,96614,1,0,1:0:0:0:
292,48,96698,1,0,1:0:0:0:
324,72,96781,1,0,1:0:0:0:
352,100,96865,1,6,1:2:0:0:
296,184,97031,5,0,0:0:0:0:
296,184,97114,1,0,0:0:0:0:
296,184,97198,2,0,L|320:220,3,40,2|0|0|0,0:0|0:0|0:0|0:0,0:0:0:0:
216,184,97531,2,0,L|192:220,3,40,2|0|0|0,0:0|0:0|0:0|0:0,0:0:0:0:
143,279,97864,1,2,0:0:0:0:
143,279,98031,1,0,0:0:0:0:
256,352,98198,6,0,B|332:380|332:324|412:352,1,160,4|2,1:2|3:0,0:0:0:0:
299,279,98698,2,0,B|223:251|223:307|143:279,1,160,8|8,1:2|1:2,0:0:0:0:
80,156,99198,2,0,B|61:193|61:193|80:227,1,80,2|0,3:0|0:0,0:0:0:0:
128,72,99531,6,0,P|166:59|204:71,1,80,2|0,3:0|0:0,0:0:0:0:
256,152,99864,1,2,3:0:0:0:
309,70,100031,2,0,P|381:41|453:71,1,160,8|8,1:2|1:2,0:0:0:0:
381,199,100531,2,0,L|381:119,1,80,2|0,3:0|1:0,0:0:0:0:
256,192,100864,6,0,B|176:164|176:220|100:192,1,160,2|2,3:0|3:0,0:0:0:0:
180,268,101364,2,0,B|208:192|152:192|180:112,1,160,8|8,1:2|1:2,0:0:0:0:
290,30,101864,2,0,P|253:19|216:32,1,80,2|0,3:0|0:0,0:0:0:0:
332,112,102198,6,0,B|351:146|351:146|332:183,1,80,2|0,3:0|0:0,0:0:0:0:
256,272,102531,1,2,3:0:0:0:
256,164,102698,2,0,L|408:248,1,160,8|2,1:2|3:0,0:0:0:0:
256,272,103198,2,0,L|180:228,1,80,8|0,1:2|0:0,0:0:0:0:
104,120,103531,6,0,P|74:192|104:264,1,160,2|2,3:0|3:0,0:0:0:0:
184,344,104031,2,0,B|216:344|256:312|256:312|296:344|328:344,1,160,8|8,1:2|1:2,0:0:0:0:
335,269,104531,2,0,P|343:313|315:353,1,80,2|0,3:0|0:0,0:0:0:0:
184,343,104864,2,0,P|168:307|177:269,1,80,2|0,3:0|0:0,0:0:0:0:
256,192,105198,1,2,3:0:0:0:
256,192,105364,2,0,B|284:116|228:116|256:36,1,160,8|0,1:2|0:0,0:0:0:0:
328,80,105781,1,0,0:0:0:0:
328,80,105864,2,0,B|372:80|372:80|400:104,1,80,2|2,3:0|0:0,0:0:0:0:
496,192,106198,6,0,B|445:192|445:192|397:216|397:216|341:216,1,160,2|2,3:0|3:0,0:0:0:0:
216,268,106698,2,0,B|266:268|266:268|314:292|314:292|370:292,1,160,8|8,1:2|1:2,0:0:0:0:
216,268,107198,1,2,3:0:0:0:
140,125,107364,1,4,0:3:0:0:
285,196,107531,1,8,0:3:0:0:
126,224,107698,1,4,0:3:0:0:
238,107,107864,1,8,0:3:0:0:
216,268,108031,5,12,1:2:0:0:
216,268,108364,2,0,L|216:312,2,40,0|0|8,1:1|1:1|1:2,0:0:0:0:
285,196,108698,1,0,1:0:0:0:
396,84,108864,6,0,B|436:84|436:84|468:108,1,80,4|0,3:2|0:0,0:0:0:0:
432,196,109198,1,8,1:2:0:0:
432,196,109364,2,0,B|397:245|397:245|388:292|388:292|356:338,1,160,2|2,0:0|0:0,0:0:0:0:
468,280,109864,2,0,L|512:208,1,80,8|2,1:2|0:0,0:0:0:0:
316,264,110198,2,0,L|272:336,1,80,0|0,3:0|0:0,0:0:0:0:
164,228,110531,5,8,1:2:0:0:
158,66,110698,1,2,0:0:0:0:
257,193,110864,1,2,3:0:0:0:
102,149,111031,1,0,0:0:0:0:
254,93,111198,1,8,1:2:0:0:
164,228,111364,1,0,1:2:0:0:
164,228,111448,1,0,1:2:0:0:
164,228,111531,6,0,B|134:241|85:229|85:229|62:275|33:288,1,160,0|8,1:0|1:2,0:0:0:0:
102,149,112031,2,0,B|131:135|180:147|180:147|203:101|232:88,1,160,2|2,0:0|0:0,0:0:0:0:
328,208,112531,2,0,L|256:156,1,80,8|0,1:2|0:0,0:0:0:0:
276,288,112864,2,0,L|348:340,1,80,0|2,3:0|0:0,0:0:0:0:
425,234,113198,5,8,1:2:0:0:
417,73,113364,1,2,0:0:0:0:
328,208,113531,1,2,3:0:0:0:
479,149,113698,1,0,0:0:0:0:
323,110,113864,1,8,1:2:0:0:
425,234,114031,1,2,0:0:0:0:
425,234,114114,1,2,1:2:0:0:
425,234,114198,6,0,P|394:305|322:335,1,160,4|8,3:2|1:2,0:0:0:0:
189,335,114698,2,0,P|117:305|87:234,1,160,2|2,0:0|0:0,0:0:0:0:
352,206,115198,2,0,P|334:241|300:260,1,80,8|2,1:2|0:0,0:0:0:0:
210,259,115531,2,0,P|176:241|158:206,1,80,0|2,3:0|0:0,0:0:0:0:
256,176,115864,5,8,1:2:0:0:
306,22,116031,1,2,0:0:0:0:
175,117,116198,1,2,3:0:0:0:
336,117,116364,1,0,0:0:0:0:
206,22,116531,1,8,1:2:0:0:
256,176,116698,1,0,1:0:0:0:
256,176,116781,1,0,1:0:0:0:
256,176,116864,6,0,B|228:252|280:252|256:332,1,160,0|8,3:0|1:2,0:0:0:0:
132,260,117364,2,0,B|160:184|108:184|132:104,1,160,2|2,0:0|0:0,0:0:0:0:
256,28,117864,1,8,1:2:0:0:
380,104,118031,2,0,B|404:184|352:184|380:260,1,160,2|2,0:0|0:0,0:0:0:0:
272,381,118531,1,8,1:2:0:0:
290,219,118698,1,2,0:0:0:0:
371,360,118864,1,2,3:0:0:0:
222,294,119031,5,0,1:0:0:0:
184,284,119114,1,0,1:0:0:0:
152,260,119198,1,8,1:2:0:0:
132,226,119281,1,0,1:0:0:0:
122,188,119364,1,0,1:0:0:0:
121,148,119448,1,0,1:0:0:0:
152,124,119531,6,0,P|189:113|226:125,1,80,4|0,1:2|1:0,0:0:0:0:
304,192,119864,1,8,0:0:0:0:
152,260,120031,2,0,P|189:271|226:259,1,80,4|0,1:2|0:0,0:0:0:0:
304,192,120364,1,8,0:0:0:0:
460,192,120531,2,0,B|384:164|384:216|304:192,1,160,4|0,1:2|0:0,0:0:0:0:
416,328,121031,5,0,1:0:0:0:
416,328,121114,1,0,1:0:0:0:
416,328,121198,2,0,B|435:294|435:294|416:257,1,80,0|0,1:0|1:0,0:0:0:0:
303,121,121531,2,0,B|284:158|284:158|303:192,1,80,4|4,0:3|0:3,0:0:0:0:
216,332,121864,2,0,B|184:276|184:276|200:220,1,120,4|0,0:3|0:0,0:0:0:0:
208,192,122198,6,0,P|245:181|282:193,1,80,4|0,1:2|1:0,0:0:0:0:
283,193,122531,1,8,0:0:0:0:
216,332,122698,2,0,P|178:345|141:334,1,80,4|0,1:2|0:0,0:0:0:0:
21,236,123031,1,8,0:0:0:0:
176,260,123198,2,0,B|120:260|120:260|72:236|72:236|22:236,1,160,4|0,1:2|0:0,0:0:0:0:
124,340,123698,5,8,0:3:0:0:
124,340,123781,1,8,0:3:0:0:
124,340,123864,2,0,L|216:340,1,80,8|0,0:3|0:0,0:0:0:0:
88,164,124198,2,0,L|8:164,1,80,4|4,0:3|0:3,0:0:0:0:
140,360,124531,2,0,L|232:360,1,80,4|0,0:3|0:0,0:0:0:0:
256,192,124864,6,0,B|316:172|316:212|376:192,1,120.000004577637,4|0,3:2|0:0,0:0:0:0:
464,124,125364,2,0,B|404:144|404:104|344:124,1,120.000004577637,2|0,0:0|0:0,0:0:0:0:
256,192,125864,2,0,P|246:164|255:136,1,60.0000022888184,2|0,0:0|0:0,0:0:0:0:
346,67,126198,2,0,P|355:94|345:122,1,60.0000022888184,0|0,0:0|0:0,0:0:0:0:
256,247,126531,6,0,P|246:219|255:191,1,60.0000022888184,2|0,0:0|0:0,0:0:0:0:
344,122,126865,2,0,P|353:149|343:177,1,60.0000022888184
256,302,127198,2,0,P|246:274|256:247,1,60.0000022888184,2|0,0:0|0:0,0:0:0:0:
88,104,127531,5,0,1:2:0:0:
88,280,127698,1,0,1:2:0:0:
164,120,127864,5,0,1:2:0:0:
164,264,128031,1,0,1:2:0:0:
256,120,128198,5,0,1:2:0:0:
408,172,128364,1,0,1:2:0:0:
254,219,128531,1,0,1:2:0:0:
351,90,128698,1,0,1:2:0:0:
348,252,128864,6,0,B|326:290|326:290|299:311|299:311|277:349,1,120.000004577637,0|2,1:2|0:0,0:0:0:0:
136,368,129531,2,0,B|156:331|156:331|183:310|183:310|205:272,1,120.000004577637,0|2,0:0|0:0,0:0:0:0:
351,90,130198,6,0,P|312:88|280:64,1,80,4|0,1:2|0:0,0:0:0:0:
220,24,130448,1,2,1:2:0:0:
220,24,130531,2,0,L|172:88,1,80,8|2,1:2|0:0,0:0:0:0:
116,164,130864,1,0,3:0:0:0:
196,220,131031,1,0,3:2:0:0:
252,140,131198,2,0,L|320:184,1,80,8|0,1:2|0:0,0:0:0:0:
116,164,131531,6,0,B|83:209|83:209|36:235|36:235|6:278,1,160,2|8,3:0|1:2,0:0:0:0:
120,352,132031,1,0,1:0:0:0:
120,352,132114,1,2,1:2:0:0:
120,352,132198,2,0,P|160:352|192:328,1,80,0|2,3:0|0:0,0:0:0:0:
256,192,132531,1,8,1:2:0:0:
321,329,132698,1,2,0:0:0:0:
321,329,132781,1,0,1:2:0:0:
321,329,132864,6,0,B|360:368|412:368|412:368|472:368,1,160,0|8,1:0|1:2,0:0:0:0:
471,230,133364,1,0,1:0:0:0:
471,230,133448,1,2,1:2:0:0:
471,230,133531,2,0,P|483:192|471:155,1,80,0|0,3:0|0:0,0:0:0:0:
336,24,133864,2,0,P|324:62|336:99,1,80,8|0,1:2|0:0,0:0:0:0:
403,62,134198,6,0,L|235:62,1,160,2|8,3:0|1:2,0:0:0:0:
116,120,134698,1,2,0:0:0:0:
116,120,134781,1,2,1:2:0:0:
116,120,134864,2,0,B|97:156|97:156|116:190,1,80,0|2,3:0|0:0,0:0:0:0:
176,264,135198,1,8,1:2:0:0:
256,352,135364,1,0,1:0:0:0:
256,352,135448,1,0,1:0:0:0:
256,352,135531,5,4,3:2:0:0:
176,264,135698,1,0,0:0:0:0:
336,264,135864,1,8,1:2:0:0:
396,120,136031,1,2,0:0:0:0:
396,120,136114,1,2,1:2:0:0:
396,120,136198,2,0,B|414:156|414:156|395:190,1,80,0|0,3:0|0:0,0:0:0:0:
316,276,136531,1,8,1:2:0:0:
196,276,136698,1,0,0:0:0:0:
117,190,136864,6,0,P|87:118|117:46,1,160,2|8,3:0|1:2,0:0:0:0:
244,118,137364,1,2,0:0:0:0:
244,118,137448,1,2,1:2:0:0:
244,118,137531,2,0,L|164:118,1,80,0|2,3:0|0:0,0:0:0:0:
268,266,137864,2,0,L|348:266,1,80,8|0,1:2|1:0,0:0:0:0:
395,337,138198,6,0,P|425:265|395:194,1,160,0|8,3:0|1:2,0:0:0:0:
294,94,138698,1,2,0:0:0:0:
294,94,138781,1,2,1:2:0:0:
294,94,138864,2,0,P|256:82|219:94,1,80,0|0,1:0|1:2,0:0:0:0:
218,289,139198,2,0,P|256:302|294:290,1,80,8|2,1:2|0:0,0:0:0:0:
353,230,139448,1,2,1:2:0:0:
353,230,139531,6,0,P|366:192|353:154,1,80,4|2,1:2|0:0,0:0:0:0:
158,154,139864,2,0,P|145:192|158:230,1,80,8|2,1:2|0:0,0:0:0:0:
224,192,140114,1,2,0:0:0:0:
224,192,140198,2,0,L|264:192,1,40,0|0,1:0|1:0,0:0:0:0:
312,132,140364,2,0,L|352:132,1,40,0|0,1:0|1:0,0:0:0:0:
416,88,140531,1,8,1:2:0:0:
440,120,140614,1,0,1:0:0:0:
464,152,140698,1,0,1:0:0:0:
488,184,140781,1,0,1:0:0:0:
512,216,140864,6,0,B|530:252|530:252|511:286,1,80,4|0,0:0|0:0,0:0:0:0:
428,360,141198,1,8,1:2:0:0:
348,288,141364,1,2,0:0:0:0:
348,288,141448,1,2,1:2:0:0:
348,288,141531,2,0,B|329:254|329:254|347:218,1,80,0|0,3:0|0:0,0:0:0:0:
216,124,141864,2,0,P|254:111|292:124,1,80,8|0,1:2|0:0,0:0:0:0:
196,240,142198,6,0,P|158:252|120:240,1,80,2|0,3:0|0:0,0:0:0:0:
0,160,142531,2,0,P|37:148|75:160,1,80,8|2,1:2|0:0,0:0:0:0:
137,120,142781,1,2,1:2:0:0:
137,120,142864,2,0,L|96:52,1,80,0|2,3:0|0:0,0:0:0:0:
214,39,143198,2,0,L|256:108,1,80,8|0,1:2|0:0,0:0:0:0:
345,104,143448,1,0,1:2:0:0:
345,104,143531,6,0,L|304:36,1,80,2|0,3:0|0:0,0:0:0:0:
396,192,143864,1,8,1:2:0:0:
440,280,144031,1,2,0:0:0:0:
440,280,144114,1,2,1:2:0:0:
440,280,144198,2,0,P|402:292|364:280,1,80,0|2,3:0|0:0,0:0:0:0:
219,212,144531,2,0,P|256:199|294:211,1,80,8|0,1:2|0:0,0:0:0:0:
188,300,144864,6,0,L|160:136,1,160,2|8,3:0|1:2,0:0:0:0:
144,36,145364,1,2,0:0:0:0:
144,36,145448,1,2,1:2:0:0:
144,36,145531,2,0,B|108:18|108:18|74:37,1,80,0|2,3:0|0:0,0:0:0:0:
161,142,145864,2,0,B|195:161|195:161|231:143,1,80,8|2,1:2|0:0,0:0:0:0:
340,264,146198,6,0,B|340:232|372:192|372:192|340:152|340:120,1,160,4|8,3:2|1:2,0:0:0:0:
415,264,146698,1,2,0:0:0:0:
415,264,146781,1,2,1:2:0:0:
415,264,146864,2,0,P|377:276|339:263,1,80,0|0,3:0|0:0,0:0:0:0:
339,120,147198,2,0,P|377:107|415:120,1,80,8|0,1:2|0:0,0:0:0:0:
256,192,147531,6,0,L|224:112,1,80,2|0,3:0|0:0,0:0:0:0:
192,24,147864,1,8,1:2:0:0:
124,116,148031,1,2,0:0:0:0:
124,116,148114,1,2,1:2:0:0:
124,116,148198,2,0,L|153:190,1,80,0|0,3:0|0:0,0:0:0:0:
256,276,148531,2,0,P|218:263|180:276,1,80,8|2,1:2|0:0,0:0:0:0:
256,348,148781,1,2,1:2:0:0:
256,348,148864,6,0,P|293:360|331:347,1,80,0|0,3:0|0:0,0:0:0:0:
404,272,149198,1,8,1:2:0:0:
424,364,149364,1,2,0:0:0:0:
424,364,149448,1,2,0:0:0:0:
424,364,149531,2,0,L|468:348,1,40,0|0,1:0|0:0,0:0:0:0:
441,258,149698,2,0,L|403:271,1,40,0|0,1:0|0:0,0:0:0:0:
402,189,149864,2,0,L|440:176,1,40,8|0,1:2|0:0,0:0:0:0:
424,100,150031,1,0,3:2:0:0:
228,224,150198,5,0,1:0:0:0:
324,94,150364,1,4,0:3:0:0:
170,144,150531,1,8,1:2:0:0:
324,194,150698,1,4,0:3:0:0:
228,63,150865,5,0,1:0:0:0:
188,55,150948,1,0,1:0:0:0:
149,58,151031,1,0,1:0:0:0:
111,71,151115,1,0,1:0:0:0:
82,97,151198,1,8,1:2:0:0:
68,134,151281,1,0,1:0:0:0:
70,174,151365,1,0,1:0:0:0:
84,212,151448,1,0,1:0:0:0:
116,236,151531,5,4,0:0:0:0:
261,230,151698,1,2,0:0:0:0:
261,230,151781,1,2,1:2:0:0:
261,230,151864,1,8,1:2:0:0:
264,360,152031,2,0,P|346:355|381:291,1,160,2|0,0:0|0:0,0:0:0:0:
261,230,152531,2,0,L|310:300,1,80,8|0,1:2|0:0,0:0:0:0:
456,316,152864,5,0,3:0:0:0:
472,166,153031,1,2,0:0:0:0:
472,166,153114,1,0,1:2:0:0:
472,166,153198,2,0,L|423:96,1,80,8|2,1:2|0:0,0:0:0:0:
364,28,153531,1,0,3:0:0:0:
208,104,153698,1,2,0:0:0:0:
304,104,153864,1,8,1:2:0:0:
148,28,154031,1,0,0:0:0:0:
148,28,154114,1,0,1:2:0:0:
148,28,154198,6,0,P|68:28|24:88,1,160,2|8,3:0|1:2,0:0:0:0:
108,200,154698,1,2,0:0:0:0:
108,200,154781,1,0,1:2:0:0:
108,200,154864,2,0,P|95:237|107:275,1,80,0|2,3:0|0:0,0:0:0:0:
219,349,155198,2,0,P|256:361|294:349,1,80,8|2,1:2|0:0,0:0:0:0:
404,275,155531,6,0,P|416:237|404:200,1,80,2|0,1:2|1:0,0:0:0:0:
442,134,155781,1,0,1:2:0:0:
442,134,155864,2,0,P|404:121|366:133,1,80,8|0,1:2|1:0,0:0:0:0:
300,100,156114,1,0,1:0:0:0:
300,100,156198,2,0,L|264:80,1,40,0|0,1:0|1:0,0:0:0:0:
196,104,156364,2,0,L|160:84,1,40,0|0,1:0|1:0,0:0:0:0:
96,48,156531,1,8,1:2:0:0:
76,82,156614,1,0,1:0:0:0:
58,117,156698,1,0,1:0:0:0:
40,152,156781,1,0,1:0:0:0:
24,188,156864,5,4,1:2:0:0:
488,188,158198,5,8,1:2:0:0:
396,68,158364,1,8,1:2:0:0:
232,152,158864,5,8,1:2:0:0:
324,272,159030,1,8,1:2:0:0:
176,340,159198,5,2,1:2:0:0:
152,308,159281,1,0,1:0:0:0:
128,276,159364,1,2,1:2:0:0:
104,244,159448,1,0,1:0:0:0:
80,212,159531,6,0,P|68:174|80:136,1,80,4|0,1:2|0:0,0:0:0:0:
183,30,159864,1,2,3:0:0:0:
183,30,160031,2,0,P|195:68|183:106,1,80,4|0,1:2|3:0,0:0:0:0:
329,105,160364,1,2,3:2:0:0:
329,105,160531,2,0,P|317:67|329:29,1,80,4|0,1:2|0:0,0:0:0:0:
404,28,160781,1,0,1:2:0:0:
404,28,160864,1,2,3:0:0:0:
432,136,161031,2,0,P|443:174|432:212,1,80,4|0,1:2|3:0,0:0:0:0:
396,300,161364,1,2,3:2:0:0:
304,268,161531,1,0,1:0:0:0:
342,179,161698,1,2,3:2:0:0:
432,211,161864,5,0,1:0:0:0:
432,211,162031,1,2,0:0:0:0:
304,268,162198,2,0,L|224:268,1,80,4|2,1:2|0:0,0:0:0:0:
412,232,162531,1,0,1:2:0:0:
284,296,162698,2,0,L|204:296,1,80,4|0,1:2|3:0,0:0:0:0:
392,256,163031,1,2,3:2:0:0:
264,328,163198,2,0,L|180:328,1,80,4|2,1:2|0:0,0:0:0:0:
372,284,163531,1,0,1:0:0:0:
244,352,163698,6,0,L|160:352,1,80,4|0,1:2|3:0,0:0:0:0:
100,272,164031,1,2,3:2:0:0:
32,192,164198,1,4,1:2:0:0:
100,112,164364,1,2,3:2:0:0:
168,192,164531,1,0,1:0:0:0:
208,192,164614,1,0,1:0:0:0:
248,192,164698,1,0,1:0:0:0:
288,192,164781,1,0,1:0:0:0:
328,192,164864,6,0,P|368:192|396:164,1,80,4|2,1:2|0:0,0:0:0:0:
448,84,165198,1,0,3:0:0:0:
340,224,165364,2,0,P|380:224|408:196,1,80,4|0,1:2|3:0,0:0:0:0:
464,112,165698,1,2,3:2:0:0:
356,256,165864,2,0,P|396:256|424:228,1,80,4|2,1:2|0:0,0:0:0:0:
480,140,166198,1,0,1:0:0:0:
364,292,166364,2,0,P|404:292|432:264,1,80,4|0,1:2|3:0,0:0:0:0:
492,172,166698,1,2,3:2:0:0:
376,64,166864,5,0,1:0:0:0:
208,124,167031,1,2,3:2:0:0:
304,124,167198,1,0,1:2:0:0:
136,64,167364,1,2,0:0:0:0:
20,172,167531,5,0,1:0:0:0:
20,172,167698,1,0,1:0:0:0:
96,264,167864,1,0,1:0:0:0:
96,264,168031,1,0,1:0:0:0:
180,140,168198,5,0,1:0:0:0:
180,140,168365,1,0,1:0:0:0:
276,248,168531,1,0,1:0:0:0:
276,248,168698,1,0,1:0:0:0:
384,120,168864,5,0,1:0:0:0:
384,120,169031,1,0,1:0:0:0:
480,240,169198,1,0,1:0:0:0:
480,240,169364,1,0,1:0:0:0:
384,328,169531,5,0,1:0:0:0:
384,328,169614,1,0,1:0:0:0:
384,328,169698,2,0,L|344:328,1,40,0|0,1:0|1:0,0:0:0:0:
308,264,169864,2,0,L|268:264,1,40,0|0,1:0|1:0,0:0:0:0:
224,204,170031,2,0,L|184:204,1,40,0|0,1:0|1:0,0:0:0:0:
128,156,170198,6,0,B|92:138|92:138|58:157,1,80,4|0,3:2|0:0,0:0:0:0:
20,252,170531,1,8,1:2:0:0:
57,157,170698,2,0,L|105:1,1,160,2|0,0:0|0:0,0:0:0:0:
200,20,171198,2,0,L|176:96,1,80,8|0,1:2|0:0,0:0:0:0:
304,192,171531,5,0,3:0:0:0:
208,192,171698,1,2,0:0:0:0:
308,284,171864,1,8,1:2:0:0:
204,284,172031,1,2,0:0:0:0:
204,284,172114,1,2,1:2:0:0:
204,284,172198,2,0,B|204:316|204:316|200:320|200:320|208:320|208:320|204:324|204:324|204:356,1,80,0|2,3:0|0:0,0:0:0:0:
304,192,172531,2,0,B|304:163|304:163|300:159|300:159|308:159|308:159|304:155|304:155|304:123,1,80,8|2,1:2|0:0,0:0:0:0:
364,88,172781,1,0,1:2:0:0:
364,88,172864,6,0,B|398:69|398:69|434:87,1,80,2|0,3:0|0:0,0:0:0:0:
488,192,173198,1,8,1:2:0:0:
434,297,173364,1,2,0:0:0:0:
434,297,173448,1,2,1:2:0:0:
434,297,173531,2,0,B|398:315|398:315|364:296,1,80,0|0,3:0|0:0,0:0:0:0:
272,158,173864,2,0,B|253:192|253:192|271:228,1,80,8|0,1:2|0:0,0:0:0:0:
180,120,174198,6,0,P|142:108|104:120,1,80,2|0,3:0|0:0,0:0:0:0:
104,264,174531,2,0,P|142:275|180:264,1,80,8|0,1:2|0:0,0:0:0:0:
255,120,174864,2,0,P|217:108|179:120,1,80,2|0,3:0|0:0,0:0:0:0:
179,264,175197,2,0,P|216:275|254:263,1,80,8|2,1:2|0:0,0:0:0:0:
292,192,175448,1,0,1:2:0:0:
292,192,175531,6,0,B|368:164|368:216|448:192,1,160,2|8,3:0|1:2,0:0:0:0:
292,333,176031,1,2,0:0:0:0:
292,333,176114,1,2,1:2:0:0:
292,333,176198,1,0,3:0:0:0:
221,262,176364,1,2,0:0:0:0:
292,192,176531,1,8,1:2:0:0:
362,262,176698,1,2,0:0:0:0:
221,262,176864,6,0,B|189:262|149:294|149:294|109:262|77:262,1,160,2|8,3:0|1:2,0:0:0:0:
77,186,177364,1,2,0:0:0:0:
77,186,177448,1,2,1:2:0:0:
77,186,177531,2,0,P|65:224|77:262,1,80,0|0,3:0|0:0,0:0:0:0:
221,262,177864,2,0,P|232:224|220:186,1,80,8|2,1:2|0:0,0:0:0:0:
222,108,178114,1,0,1:2:0:0:
222,108,178198,6,0,B|256:89|256:89|292:107,1,80,2|0,3:0|0:0,0:0:0:0:
368,192,178531,1,8,1:2:0:0:
292,277,178698,1,2,0:0:0:0:
292,277,178781,1,2,1:2:0:0:
292,277,178864,2,0,B|256:295|256:295|222:276,1,80,0|0,3:0|0:0,0:0:0:0:
128,192,179198,2,0,B|156:192|156:192|160:188|160:188|160:196|160:196|164:192|164:192|196:192,1,80,8|0,1:2|0:0,0:0:0:0:
64,128,179531,6,0,P|28:196|64:264,1,160,2|12,3:0|1:2,0:0:0:0:
128,192,180031,1,2,0:0:0:0:
64,128,180198,2,0,L|92:84,1,40,0|0,1:0|1:0,0:0:0:0:
184,76,180364,2,0,L|162:109,1,40,0|0,1:0|1:0,0:0:0:0:
256,108,180531,2,0,L|284:64,1,40,8|0,1:2|1:0,0:0:0:0:
360,64,180698,1,0,1:0:0:0:
360,64,180781,1,0,1:0:0:0:
360,64,180864,6,0,P|400:64|436:92,1,80,4|0,3:2|0:0,0:0:0:0:
388,212,181198,1,8,1:2:0:0:
388,212,181364,2,0,P|348:212|312:184,1,80,2|0,0:0|3:0,0:0:0:0:
256,108,181698,1,0,0:0:0:0:
195,189,181864,2,0,P|163:212|124:212,1,80,8|0,1:2|0:0,0:0:0:0:
123,64,182198,6,0,L|143:148,1,80,2|0,3:0|0:0,0:0:0:0:
192,288,182531,1,8,1:2:0:0:
220,316,182614,1,2,0:0:0:0:
256,332,182698,1,2,0:0:0:0:
292,316,182781,1,0,1:0:0:0:
320,288,182864,2,0,P|357:299|395:287,1,80,0|2,3:0|0:0,0:0:0:0:
395,96,183198,2,0,P|357:84|320:96,1,80,8|2,1:2|0:0,0:0:0:0:
244,96,183448,1,0,1:2:0:0:
244,96,183531,6,0,B|216:144|216:144|214:194|214:194|184:246,1,160,2|8,3:0|1:2,0:0:0:0:
132,172,184031,1,2,0:0:0:0:
132,172,184114,1,2,1:2:0:0:
132,172,184198,2,0,L|88:248,1,80,0|0,3:0|0:0,0:0:0:0:
300,160,184531,2,0,L|344:84,1,80,8|2,1:2|0:0,0:0:0:0:
456,120,184864,6,0,B|490:192|490:192|456:264,1,160,2|8,3:0|1:2,0:0:0:0:
376,348,185364,1,2,0:0:0:0:
376,348,185448,1,0,1:0:0:0:
376,348,185531,2,0,B|344:348|344:348|340:352|340:352|340:344|340:344|336:348|336:348|308:348,1,80,0|2,3:0|0:0,0:0:0:0:
205,348,185864,1,8,1:2:0:0:
180,316,185948,1,0,1:0:0:0:
156,284,186031,1,0,1:0:0:0:
132,252,186114,1,0,1:0:0:0:
108,220,186198,6,0,B|108:188|76:148|76:148|108:108|108:76,1,160,4|0,3:2|0:0,0:0:0:0:
328,148,186698,2,0,B|296:148|256:180|256:180|216:148|184:148,1,160,4|2,3:2|0:0,0:0:0:0:
404,76,187198,2,0,B|404:108|436:148|436:148|404:188|404:220,1,160,4|0,3:2|0:0,0:0:0:0:
336,283,187698,1,2,3:0:0:0:
206,378,187864,5,8,1:2:0:0:
256,224,188031,1,0,0:0:0:0:
256,224,188114,1,0,1:2:0:0:
256,224,188198,1,2,3:0:0:0:
306,378,188364,1,2,3:2:0:0:
175,283,188531,1,8,1:2:0:0:
336,283,188698,1,2,3:2:0:0:
336,283,188781,1,2,1:2:0:0:
336,283,188864,6,0,P|373:294|411:282,1,80,6|0,3:2|0:0,0:0:0:0:
294,174,189198,2,0,P|256:162|218:174,1,80,2|0,3:0|0:0,0:0:0:0:
100,282,189531,2,0,P|138:294|176:283,1,80,2|0,3:0|0:0,0:0:0:0:
256,240,189864,1,2,3:0:0:0:
312,88,190031,1,2,0:0:0:0:
312,88,190114,1,2,0:0:0:0:
312,88,190198,6,0,P|392:88|444:144,1,160,2|2,3:0|3:0,0:0:0:0:
443,241,190698,2,0,P|389:297|312:297,1,160,2|2,0:0|0:0,0:0:0:0:
256,192,191198,1,0,3:0:0:0:
256,192,191364,1,0,0:0:0:0:
172,264,191531,6,0,L|100:304,1,80,2|0,3:0|0:0,0:0:0:0:
172,120,191864,2,0,L|100:80,1,80,2|0,3:0|0:0,0:0:0:0:
160,244,192198,2,0,L|88:284,1,80,2|0,3:0|0:0,0:0:0:0:
160,140,192531,2,0,L|88:100,1,80,2|0,3:0|0:0,0:0:0:0:
256,192,192864,1,4,3:2:0:0:
256,196,195531,6,0,B|316:176|316:216|373:196,1,120.000004577637,4|0,3:2|0:0,0:0:0:0:
460,128,196031,2,0,B|400:148|400:108|342:127,1,120.000004577637,2|0,0:0|0:0,0:0:0:0:
256,104,196531,2,0,B|244:76|244:76|256:48,1,60.0000022888184,2|0,0:0|0:0,0:0:0:0:
168,28,196864,6,0,P|142:79|167:131,1,120.000004577637,2|0,0:0|0:0,0:0:0:0:
200,216,197364,1,0,1:0:0:0:
200,216,197448,1,0,1:0:0:0:
200,216,197531,2,0,B|160:228|160:196|116:216,2,80.0000030517579,8|4|4,1:3|0:3|0:3,0:0:0:0:
204,336,198198,6,0,P|255:362|307:337,1,120.000004577637,4|0,3:2|0:0,0:0:0:0:
358,262,198698,2,0,P|307:236|255:261,1,120.000004577637,2|0,0:0|0:0,0:0:0:0:
204,336,199198,2,0,L|136:340,1,60.0000022888184,2|0,0:0|0:0,0:0:0:0:
56,324,199531,2,0,B|77:287|77:287|104:266|104:266|125:228,1,120.000004577637,2|0,0:0|0:0,0:0:0:0:
92,144,200031,1,2,3:2:0:0:
92,144,200198,2,0,L|52:204,1,60.0000022888184,0|0,1:0|0:0,0:0:0:0:
20,112,200531,2,0,L|53:62,1,60.0000022888184,2|0,0:0|0:0,0:0:0:0:
92,144,200864,6,0,B|148:168|148:120|208:144,1,120.000004577637,4|0,3:2|0:0,0:0:0:0:
300,144,201364,1,2,0:0:0:0:
300,144,201531,2,0,P|325:195|299:247,1,120.000004577637,2|0,0:0|0:0,0:0:0:0:
252,328,202031,1,0,0:0:0:0:
214,247,202198,6,0,B|158:223|158:271|98:247,2,120.000004577637,2|0|2,0:0|0:0|0:0,0:0:0:0:
304,88,203198,1,0,0:0:0:0:
258,169,203364,1,2,3:0:0:0:
211,88,203531,2,0,P|128:88|80:164,1,180.000006866455,2|0,3:0|0:0,0:0:0:0:
80,163,204198,1,2,0:0:0:0:
228,264,204531,2,0,P|255:273|283:263,1,60.0000022888184,0|2,0:0|3:0,0:0:0:0:
371,292,204864,5,2,3:0:0:0:
283,170,205031,1,0,0:0:0:0:
426,217,205198,1,2,0:0:0:0:
283,263,205364,1,2,3:0:0:0:
371,142,205531,2,0,L|392:80,1,60.0000022888184,0|0,1:0|1:0,0:0:0:0:
328,20,205864,2,0,L|308:76,1,60.0000022888184,2|0,3:0|0:0,0:0:0:0:
371,142,206198,5,4,1:2:0:0:
304,208,206364,1,0,0:0:0:0:
208,208,206531,1,0,1:0:0:0:
141,142,206698,2,0,P|67:142|20:184,1,136.000002593994,2|2,0:0|0:0,0:0:0:0:
124,272,207198,2,0,L|100:208,1,68.0000012969971,0|2,1:0|0:0,0:0:0:0:
80,340,207531,2,0,P|154:340|201:298,1,136.000002593994,0|0,1:0|1:0,0:0:0:0:
256,224,208031,1,2,0:0:0:0:
314,301,208198,2,0,L|356:360,1,68.0000012969971,0|2,1:0|0:0,0:0:0:0:
396,244,208531,2,0,L|354:185,1,68.0000012969971,0|2,1:0|0:0,0:0:0:0:
256,108,208864,6,0,B|204:108|204:108|164:128|164:128|120:128,1,136.000002593994,0|0,1:0|1:0,0:0:0:0:
12,72,209364,2,0,B|64:72|64:72|104:52|104:52|148:52,1,136.000002593994,2|2,0:0|0:0,0:0:0:0:
256,108,209864,2,0,B|292:108|292:108|320:128,1,68.0000012969971,0|2,1:0|0:0,0:0:0:0:
320,224,210198,2,0,B|296:296|340:296|320:364,1,136.000002593994,0|0,1:0|1:0,0:0:0:0:
190,357,210698,2,0,B|172:296|216:296|192:224,1,136.000002593994,2|2,0:0|0:0,0:0:0:0:
256,152,211198,1,0,1:0:0:0:
256,152,211364,1,2,0:0:0:0:
328,32,211531,6,0,B|296:32|256:0|256:0|216:32|184:32,1,160,4|0,1:2|1:0,0:0:0:0:
120,104,212031,1,2,0:0:0:0:
21,232,212198,1,0,1:0:0:0:
176,187,212364,1,2,0:0:0:0:
24,132,212531,1,0,1:0:0:0:
114,266,212698,1,2,0:0:0:0:
256,340,212864,6,0,L|296:340,3,40,0|0|0|0,1:0|1:0|1:0|1:0,1:0:0:0:
332,276,213198,2,0,L|372:276,3,40,0|0|0|0,1:0|1:0|1:0|1:0,1:0:0:0:
428,229,213531,2,0,L|468:229,3,40,0|0|0|0,1:0|1:0|1:0|1:0,1:0:0:0:
468,155,213864,2,0,L|428:155,3,40,0|0|0|0,1:0|1:0|1:0|1:0,1:0:0:0:
372,108,214198,6,0,L|332:108,3,40,0|0|0|0,1:0|1:0|1:0|1:0,1:0:0:0:
296,44,214531,2,0,L|256:44,3,40,0|0|0|0,1:0|1:0|1:0|1:0,1:0:0:0:
184,44,214864,1,0,1:0:0:0:
184,44,214948,1,0,1:0:0:0:
184,44,215031,2,0,L|152:72,1,40,0|0,1:0|1:0,1:0:0:0:
172,140,215198,2,0,L|140:168,1,40,0|0,1:0|1:0,1:0:0:0:
144,236,215364,2,0,L|112:264,1,40,0|0,1:0|1:0,1:0:0:0:
60,312,215531,1,4,1:2:0:0:
256,192,215864,6,0,B|332:220|332:168|412:192,1,160,2|0,0:0|1:2,0:0:0:0:
452,200,216281,1,0,1:2:0:0:
484,176,216364,1,0,1:2:0:0:
489,137,216447,1,0,1:2:0:0:
466,106,216531,1,0,1:2:0:0:
427,100,216614,1,0,1:2:0:0:
396,123,216697,1,0,1:2:0:0:
390,162,216781,1,0,1:2:0:0:
412,193,216864,6,0,P|375:206|338:194,1,80,4|0,3:2|0:0,0:0:0:0:
256,112,217198,1,8,1:2:0:0:
174,193,217364,1,2,0:0:0:0:
174,193,217448,1,2,1:2:0:0:
174,193,217531,2,0,P|137:206|100:193,1,80,0|0,3:0|0:0,0:0:0:0:
12,228,217864,2,0,P|-1:191|12:154,1,80,8|0,1:2|2:0,0:0:0:0:
168,56,218198,6,0,L|140:140,1,80,2|0,3:0|0:0,0:0:0:0:
256,112,218531,2,0,L|281:36,1,80,8|2,1:2|0:0,0:0:0:0:
356,40,218781,1,0,1:2:0:0:
356,40,218864,2,0,P|393:27|430:40,1,80,0|2,3:0|0:0,0:0:0:0:
496,108,219198,1,8,1:2:0:0:
368,192,219364,1,2,0:0:0:0:
368,192,219448,1,2,1:2:0:0:
368,192,219531,6,0,L|384:108,1,80,2|0,3:0|0:0,0:0:0:0:
460,212,219864,1,8,1:2:0:0:
284,208,220031,1,2,0:0:0:0:
284,208,220114,1,2,1:2:0:0:
284,208,220198,2,0,L|298:129,1,80,0|0,3:0|0:0,0:0:0:0:
460,212,220531,2,0,L|445:290,1,80,8|2,1:2|0:0,0:0:0:0:
327,371,220864,6,0,B|256:334|256:334|186:371,1,160,2|8,3:0|1:2,0:0:0:0:
290,264,221364,1,2,0:0:0:0:
290,264,221448,1,2,1:2:0:0:
290,264,221531,2,0,B|256:245|256:245|219:263,1,80,0|2,3:0|0:0,0:0:0:0:
185,371,221864,1,8,1:2:0:0:
328,180,222031,5,0,1:0:0:0:
328,180,222114,1,0,1:2:0:0:
328,180,222198,2,0,B|296:180|256:148|256:148|216:180|184:180,1,160,4|8,3:2|1:2,0:0:0:0:
327,105,222698,1,2,0:0:0:0:
327,105,222781,1,2,1:2:0:0:
327,105,222864,2,0,P|339:142|327:179,1,80,0|0,3:0|0:0,0:0:0:0:
184,179,223198,2,0,P|172:142|185:105,1,80,8|0,1:2|0:0,0:0:0:0:
256,324,223531,5,2,3:0:0:0:
185,253,223698,1,0,0:0:0:0:
256,182,223864,1,8,1:2:0:0:
326,253,224031,1,2,0:0:0:0:
326,253,224114,1,2,1:2:0:0:
326,253,224198,2,0,B|360:234|360:234|396:252,1,80,0|2,3:0|0:0,0:0:0:0:
488,308,224531,1,8,1:2:0:0:
456,192,224698,5,2,0:0:0:0:
456,192,224781,1,0,1:2:0:0:
456,192,224864,2,0,L|368:328,1,160,4|8,3:2|1:2,0:0:0:0:
256,280,225364,1,2,0:0:0:0:
256,280,225448,1,0,1:2:0:0:
256,280,225531,1,0,1:0:0:0:
166,237,225698,1,0,1:2:0:0:
209,147,225864,5,8,1:2:0:0:
299,191,226031,1,0,1:0:0:0:
299,191,226114,1,0,1:0:0:0:
299,191,226198,1,4,3:2:0:0:
140,96,226364,1,0,1:0:0:0:
140,96,226448,1,0,1:0:0:0:
140,96,226531,1,8,1:2:0:0:
292,40,226698,6,0,L|336:40,1,40,0|0,1:0|1:0,0:0:0:0:
396,108,226864,2,0,L|356:108,1,40,0|0,1:0|1:0,0:0:0:0:
412,184,227031,2,0,L|452:184,1,40,0|0,1:0|1:0,0:0:0:0:
504,256,227198,2,0,L|464:256,1,40,8|0,1:2|1:0,0:0:0:0:
408,316,227364,1,0,1:0:0:0:
408,316,227448,1,0,1:0:0:0:
408,316,227531,6,0,B|374:297|374:297|337:315,1,80,4|0,0:0|0:0,0:0:0:0:
272,344,227781,1,2,1:2:0:0:
272,344,227864,2,0,B|238:363|238:363|201:345,1,80,8|2,1:2|0:0,0:0:0:0:
116,296,228198,1,0,3:0:0:0:
164,212,228364,1,0,3:2:0:0:
248,260,228531,2,0,L|288:188,1,80,8|0,1:2|0:0,0:0:0:0:
116,296,228864,6,0,B|64:280|64:220|64:220|64:156,1,160,2|8,3:0|1:2,0:0:0:0:
108,40,229364,1,2,0:0:0:0:
108,40,229448,1,2,1:2:0:0:
108,40,229531,2,0,P|145:27|182:40,1,80,0|2,3:0|0:0,0:0:0:0:
256,100,229864,1,8,1:2:0:0:
404,40,230031,1,2,0:0:0:0:
404,40,230114,1,2,1:2:0:0:
404,40,230198,6,0,P|367:27|330:40,1,80,0|0,3:0|0:0,0:0:0:0:
256,100,230531,2,0,B|256:132|256:132|252:136|252:136|260:136|260:136|256:140|256:140|256:176,1,80,8|2,1:2|0:0,0:0:0:0:
219,228,230781,1,2,1:2:0:0:
219,228,230864,2,0,P|256:241|293:228,1,80,0|2,3:0|0:0,0:0:0:0:
356,304,231198,1,8,1:2:0:0:
256,356,231364,1,0,0:0:0:0:
156,304,231531,6,0,B|100:304|100:304|60:280|60:280|0:280,1,160,2|8,3:0|1:2,0:0:0:0:
124,228,232031,1,2,0:0:0:0:
124,228,232114,1,0,1:2:0:0:
124,228,232198,2,0,B|164:228|164:228|200:204,1,80,0|0,3:0|0:0,0:0:0:0:
196,108,232531,1,8,1:2:0:0:
328,64,232698,1,2,0:0:0:0:
328,64,232781,1,0,1:2:0:0:
328,64,232864,6,0,P|396:28|464:64,1,160,4|8,3:2|1:2,0:0:0:0:
396,208,233364,1,2,0:0:0:0:
396,208,233448,1,2,1:2:0:0:
396,208,233531,2,0,L|396:128,1,80,0|0,3:0|0:0,0:0:0:0:
256,192,233864,2,0,L|256:272,1,80,8|2,1:2|0:0,0:0:0:0:
324,340,234198,6,0,P|256:376|188:340,1,160,0|8,3:0|1:2,0:0:0:0:
108,288,234698,1,2,0:0:0:0:
108,288,234781,1,2,1:2:0:0:
108,288,234864,2,0,B|68:288|68:288|36:264,1,80,0|0,3:0|0:0,0:0:0:0:
36,120,235198,2,0,B|68:96|68:96|108:96,1,80,8|2,1:2|0:0,0:0:0:0:
216,192,235531,6,0,B|284:160|284:220|376:192,1,160,2|8,3:0|1:2,0:0:0:0:
252,264,236031,1,2,0:0:0:0:
252,264,236114,1,2,1:2:0:0:
252,264,236198,2,0,P|265:301|252:338,1,80,0|0,1:0|1:0,0:0:0:0:
328,124,236531,1,8,1:2:0:0:
328,124,236698,6,0,P|314:86|327:49,1,80,0|0,1:0|1:0,0:0:0:0:
416,88,237031,1,4,0:3:0:0:
504,124,237198,1,8,1:2:0:0:
472,212,237364,1,4,0:3:0:0:
384,176,237531,1,0,1:2:0:0:
384,176,237614,1,0,1:2:0:0:
384,176,237698,2,0,L|364:216,1,40,0|0,1:2|1:2,0:0:0:0:
273,232,237864,2,0,L|290:196,1,40,8|0,1:2|1:0,0:0:0:0:
332,284,238031,2,0,L|312:324,1,40,0|0,1:0|1:0,0:0:0:0:
240,328,238198,6,0,P|202:338|164:327,1,80,4|0,3:2|0:0,0:0:0:0:
88,236,238531,1,8,1:2:0:0:
180,160,238698,1,2,0:0:0:0:
180,160,238781,1,2,1:2:0:0:
180,160,238864,2,0,P|217:149|255:159,1,80,0|0,3:0|0:0,0:0:0:0:
240,316,239198,2,0,P|202:326|164:315,1,80,8|0,1:2|0:0,0:0:0:0:
74,157,239531,6,0,L|88:236,1,80,0|2,3:0|0:0,0:0:0:0:
179,159,239864,2,0,L|166:81,1,80,8|2,1:2|0:0,0:0:0:0:
219,27,240114,1,0,1:2:0:0:
219,27,240198,2,0,P|256:16|294:27,1,80,0|2,3:0|0:0,0:0:0:0:
364,92,240531,1,8,1:2:0:0:
290,210,240698,5,2,0:0:0:0:
290,210,240781,1,0,1:2:0:0:
290,210,240864,2,0,B|256:229|256:229|217:209,1,80,2|0,3:0|0:0,0:0:0:0:
352,264,241198,2,0,B|388:245|388:245|422:264,1,80,8|2,1:2|0:0,0:0:0:0:
436,192,241448,1,2,1:2:0:0:
436,192,241531,2,0,L|464:108,1,80,0|0,3:0|0:0,0:0:0:0:
315,134,241864,2,0,L|289:209,1,80,8|2,1:2|0:0,0:0:0:0:
112,256,242198,5,0,3:0:0:0:
112,128,242364,1,0,1:0:0:0:
112,128,242448,1,0,1:0:0:0:
112,128,242531,1,8,1:2:0:0:
12,192,242698,1,0,1:0:0:0:
12,192,242781,1,0,1:0:0:0:
12,192,242864,1,0,1:0:0:0:
112,256,243031,2,0,L|156:268,1,40,0|0,1:0|1:0,0:0:0:0:
188,356,243198,2,0,L|149:345,1,40,8|0,1:2|1:0,0:0:0:0:
228,288,243364,2,0,L|266:298,1,40,0|0,1:0|1:0,0:0:0:0:
348,312,243531,5,4,1:2:0:0:
76,52,244864,5,8,1:2:0:0:
24,188,245031,1,8,1:2:0:0:
488,188,245531,5,8,1:2:0:0:
436,52,245698,1,8,1:2:0:0:
488,188,245864,2,0,L|444:204,1,40,0|0,1:0|1:0,0:0:0:0:
354,157,246031,2,0,L|392:144,1,40,0|0,1:0|1:0,0:0:0:0:
352,236,246198,5,4,1:2:0:0:
296,100,246364,1,0,1:0:0:0:
256,264,246531,5,0,1:0:0:0:
216,144,246698,1,0,1:0:0:0:
80,304,246864,5,0,1:0:0:0:
49,145,247031,1,0,1:0:0:0:
167,255,247198,1,0,1:0:0:0:
6,235,247364,1,0,1:0:0:0:
148,157,247531,5,0,1:0:0:0:
167,255,247698,1,0,1:0:0:0:
232,120,247864,5,0,1:0:0:0:
256,252,248031,1,0,1:0:0:0:
304,88,248198,5,0,1:0:0:0:
332,60,248281,1,0,1:0:0:0:
370,55,248364,1,0,1:0:0:0:
405,74,248448,1,0,1:0:0:0:
420,110,248531,1,0,1:0:0:0:
411,148,248614,1,0,1:0:0:0:
381,173,248698,1,0,1:0:0:0:
342,175,248781,1,0,1:0:0:0:
309,153,248864,6,0,B|253:137|253:177|189:153,1,120.000004577637,4|4,1:2|0:3,0:0:0:0:
124,124,249309,2,0,L|84:108,1,40.000001525879,4|4,0:3|0:3,0:0:0:0:
28,152,249531,2,0,B|4:213|44:213|28:269,1,120.000004577637,4|4,0:3|0:3,0:0:0:0:
28,344,249976,2,4,L|28:384,2,40.000001525879,4|4|2,0:3|0:3|0:0,0:3:0:0:
116,304,250364,1,4,0:3:0:0:
204,264,250531,2,4,L|232:248,6,20.0000007629395,4|4|4|4|4|4|2,0:3|0:3|0:3|0:3|0:3|0:3|0:0,0:3:0:0:
372,356,251198,6,4,L|416:380,2,40.000001525879,4|4|4,0:3|0:3|0:3,0:3:0:0:
312,316,251531,2,0,B|337:279|337:279|336:245|336:245|364:206,1,120.000004577637,2|4,0:0|0:3,0:0:0:0:
412,272,251976,2,4,L|436:232,1,40.000001525879,4|4,0:3|0:3,0:3:0:0:
424,164,252198,2,4,B|387:138|387:138|353:139|353:139|314:111,1,120.000004577637,4|4,0:3|0:3,0:3:0:0:
260,72,252642,2,4,L|224:48,2,40.000001525879,4|4|2,0:3|0:3|0:0,0:3:0:0:
88,160,253198,6,4,L|60:144,6,20.0000007629395,4|4|4|4|4|4|2,0:3|0:3|0:3|0:3|0:3|0:3|0:0,0:3:0:0:
160,200,253698,1,4,3:0:0:0:
120,272,253864,1,4,0:3:0:0:
196,312,254031,1,4,3:0:0:0:
236,240,254197,5,2,0:0:0:0:
252,212,255531,1,2,0:0:0:0:
256,192,256864,12,0,262198,0:0:0:0:
