osu file format v14

[General]
AudioFilename: audio.mp3
AudioLeadIn: 0
PreviewTime: 109422
Countdown: 0
SampleSet: Normal
StackLeniency: 0.7
Mode: 1
LetterboxInBreaks: 0
WidescreenStoryboard: 1

[Editor]
Bookmarks: 79106,129632
DistanceSpacing: 1.2
BeatDivisor: 4
GridSize: 4
TimelineZoom: 2.3

[Metadata]
Title:Platonic Love
TitleUnicode:プラトニック・ラヴ
Artist:Kano
ArtistUnicode:鹿乃
Creator:ler1211
Version:Platonic Collab
Source:
Tags:[zeth] senko-san japanese rock jrock j-rock IA メル meru mel igts intermediate global taiko showdown 2022 finals nm1 nomod 1
BeatmapID:3579780
BeatmapSetID:1749823

[Difficulty]
HPDrainRate:5
CircleSize:5
OverallDifficulty:6
ApproachRate:5
SliderMultiplier:1.4
SliderTickRate:1

[Events]
//Background and Video events
0,0,"kanoo.jpg",0,0
//Break Periods
2,150043,158748
//Storyboard Layer 0 (Background)
//Storyboard Layer 1 (Fail)
//Storyboard Layer 2 (Pass)
//Storyboard Layer 3 (Foreground)
//Storyboard Layer 4 (Overlay)
//Storyboard Sound Samples

[TimingPoints]
18475,315.789473684211,4,1,0,90,1,0
38685,-100,4,1,0,80,0,0
58896,-100,4,1,0,90,0,1
79106,-100,4,1,0,90,0,0
89211,-100,4,1,0,80,0,0
106738,-86.9565217391304,4,1,0,80,0,0
108632,-100,4,1,0,80,0,0
109422,-100,4,1,0,90,0,1
129001,-100,4,1,0,90,0,0
129632,-100,4,1,0,90,0,1
149843,-100,4,1,0,90,0,0
150159,-111.111111111111,4,1,0,50,0,0
151738,-125,4,1,0,50,0,0
153001,-142.857142857143,4,1,0,50,0,0
159632,-142.857142857143,4,1,0,70,0,0
159945,-142.857142857143,4,1,0,70,0,0
160103,-142.111137888876,4,1,0,70,0,0
160261,-141.369028584497,4,1,0,70,0,0
160419,-140.630794600715,4,1,0,70,0,0
160577,-139.89641570047,4,1,0,70,0,0
160734,-139.165871752383,4,1,0,70,0,0
160892,-138.439142730199,4,1,0,70,0,0
161050,-137.716208712243,4,1,0,70,0,0
161208,-136.997049880872,4,1,0,70,0,0
161366,-136.281646521928,4,1,0,70,0,0
161524,-135.569979024205,4,1,0,70,0,0
161682,-134.862027878905,4,1,0,70,0,0
161840,-134.157773679107,4,1,0,70,0,0
161998,-133.457197119233,4,1,0,70,0,0
162156,-132.760278994519,4,1,0,70,0,0
162313,-132.06700020049,4,1,0,70,0,0
162471,-131.377341732434,4,1,0,70,0,0
162629,-130.691284684883,4,1,0,70,0,0
162787,-130.008810251094,4,1,0,70,0,0
162945,-129.329899722533,4,1,0,70,0,0
163103,-128.654534488364,4,1,0,70,0,0
163261,-127.982696034934,4,1,0,70,0,0
163419,-127.314365945274,4,1,0,70,0,0
163577,-126.649525898585,4,1,0,70,0,0
163734,-125.988157669742,4,1,0,70,0,0
163892,-125.330243128791,4,1,0,70,0,0
164050,-124.675764240453,4,1,0,70,0,0
164208,-124.024703063632,4,1,0,70,0,0
164366,-123.377041750919,4,1,0,70,0,0
164524,-122.732762548104,4,1,0,70,0,0
164682,-122.091847793694,4,1,0,70,0,0
164840,-121.454279918421,4,1,0,70,0,0
164998,-120.820041444765,4,1,0,70,0,0
165156,-120.189114986477,4,1,0,70,0,0
165313,-119.561483248096,4,1,0,70,0,0
165471,-118.937129024481,4,1,0,70,0,0
165629,-118.316035200335,4,1,0,70,0,0
165787,-117.698184749739,4,1,0,70,0,0
165945,-117.083560735683,4,1,0,70,0,0
166103,-116.472146309605,4,1,0,70,0,0
166261,-115.863924710923,4,1,0,70,0,0
166419,-115.258879266581,4,1,0,70,0,0
166577,-114.656993390593,4,1,0,70,0,0
166734,-114.058250583581,4,1,0,70,0,0
166892,-113.462634432331,4,1,0,70,0,0
167050,-112.870128609336,4,1,0,70,0,0
167208,-112.280716872355,4,1,0,70,0,0
167366,-90.9090909090909,4,1,0,90,0,0
168632,-100,4,1,0,90,0,0
170053,-100,4,1,0,90,0,1
190264,-100,4,1,0,90,0,0

[HitObjects]
256,192,18474,5,4,0:0:0:0:
256,192,18790,1,2,0:0:0:0:
256,192,18948,1,0,0:0:0:0:
256,192,19106,1,2,0:0:0:0:
256,192,19185,1,2,0:0:0:0:
256,192,19264,1,2,0:0:0:0:
256,192,19422,1,0,0:0:0:0:
256,192,19580,1,0,0:0:0:0:
256,192,19738,1,2,0:0:0:0:
256,192,20053,1,0,0:0:0:0:
256,192,20211,1,2,0:0:0:0:
256,192,20369,1,0,0:0:0:0:
256,192,20448,1,0,0:0:0:0:
256,192,20527,1,0,0:0:0:0:
256,192,20685,1,2,0:0:0:0:
256,192,20843,1,2,0:0:0:0:
256,192,21001,1,0,0:0:0:0:
256,192,21317,1,2,0:0:0:0:
256,192,21475,1,2,0:0:0:0:
256,192,21632,1,0,0:0:0:0:
256,192,21711,1,0,0:0:0:0:
256,192,21790,1,2,0:0:0:0:
256,192,21948,1,2,0:0:0:0:
256,192,22106,1,0,0:0:0:0:
256,192,22264,1,2,0:0:0:0:
256,192,22580,1,0,0:0:0:0:
256,192,22738,1,2,0:0:0:0:
256,192,22896,1,0,0:0:0:0:
256,192,22975,1,0,0:0:0:0:
256,192,23053,1,2,0:0:0:0:
256,192,23211,1,0,0:0:0:0:
256,192,23369,1,2,0:0:0:0:
256,192,23527,1,4,0:0:0:0:
256,192,23843,1,2,0:0:0:0:
256,192,24001,1,0,0:0:0:0:
256,192,24159,1,2,0:0:0:0:
256,192,24238,1,2,0:0:0:0:
256,192,24317,1,2,0:0:0:0:
256,192,24475,1,0,0:0:0:0:
256,192,24632,1,0,0:0:0:0:
256,192,24790,1,2,0:0:0:0:
256,192,25106,1,0,0:0:0:0:
256,192,25264,1,2,0:0:0:0:
256,192,25422,1,0,0:0:0:0:
256,192,25501,1,0,0:0:0:0:
256,192,25580,1,0,0:0:0:0:
256,192,25738,1,2,0:0:0:0:
256,192,25896,1,2,0:0:0:0:
256,192,26053,1,0,0:0:0:0:
256,192,26369,1,2,0:0:0:0:
256,192,26527,1,2,0:0:0:0:
256,192,26685,1,0,0:0:0:0:
256,192,26764,1,0,0:0:0:0:
256,192,26843,1,2,0:0:0:0:
256,192,27001,1,2,0:0:0:0:
256,192,27159,1,0,0:0:0:0:
256,192,27317,1,2,0:0:0:0:
256,192,27632,1,0,0:0:0:0:
256,192,27790,1,2,0:0:0:0:
256,192,27948,1,0,0:0:0:0:
256,192,28027,1,2,0:0:0:0:
256,192,28106,1,0,0:0:0:0:
256,192,28185,1,0,0:0:0:0:
256,192,28264,1,2,0:0:0:0:
256,192,28422,1,2,0:0:0:0:
256,192,28580,1,4,0:0:0:0:
256,192,28896,1,2,0:0:0:0:
256,192,29053,1,0,0:0:0:0:
256,192,29211,1,2,0:0:0:0:
256,192,29290,1,2,0:0:0:0:
256,192,29369,1,2,0:0:0:0:
256,192,29527,1,0,0:0:0:0:
256,192,29685,1,0,0:0:0:0:
256,192,29843,1,2,0:0:0:0:
256,192,30080,1,0,0:0:0:0:
256,192,30159,1,2,0:0:0:0:
256,192,30317,1,0,0:0:0:0:
256,192,30475,1,2,0:0:0:0:
256,192,30553,1,0,0:0:0:0:
256,192,30632,1,0,0:0:0:0:
256,192,30790,1,2,0:0:0:0:
256,192,30948,1,2,0:0:0:0:
256,192,31106,1,0,0:0:0:0:
256,192,31422,1,2,0:0:0:0:
256,192,31580,1,2,0:0:0:0:
256,192,31738,1,0,0:0:0:0:
256,192,31817,1,0,0:0:0:0:
256,192,31896,1,2,0:0:0:0:
256,192,32053,1,2,0:0:0:0:
256,192,32211,1,0,0:0:0:0:
256,192,32369,1,2,0:0:0:0:
256,192,32606,1,0,0:0:0:0:
256,192,32685,1,2,0:0:0:0:
256,192,32843,1,0,0:0:0:0:
256,192,33001,1,2,0:0:0:0:
256,192,33080,1,2,0:0:0:0:
256,192,33159,1,0,0:0:0:0:
256,192,33317,1,0,0:0:0:0:
256,192,33475,1,2,0:0:0:0:
256,192,33632,1,4,0:0:0:0:
256,192,33948,1,2,0:0:0:0:
256,192,34106,1,0,0:0:0:0:
256,192,34264,1,2,0:0:0:0:
256,192,34343,1,2,0:0:0:0:
256,192,34422,1,2,0:0:0:0:
256,192,34580,1,0,0:0:0:0:
256,192,34738,1,0,0:0:0:0:
256,192,34896,1,2,0:0:0:0:
256,192,35132,1,0,0:0:0:0:
256,192,35211,1,2,0:0:0:0:
256,192,35369,1,0,0:0:0:0:
256,192,35527,1,2,0:0:0:0:
256,192,35606,1,0,0:0:0:0:
256,192,35685,1,0,0:0:0:0:
256,192,35843,1,2,0:0:0:0:
256,192,36001,1,2,0:0:0:0:
256,192,36159,1,0,0:0:0:0:
256,192,36475,1,2,0:0:0:0:
256,192,36632,1,2,0:0:0:0:
256,192,36790,1,0,0:0:0:0:
256,192,36869,1,0,0:0:0:0:
256,192,36948,1,2,0:0:0:0:
256,192,37106,1,2,0:0:0:0:
256,192,37264,1,0,0:0:0:0:
256,192,37422,1,2,0:0:0:0:
256,192,37659,1,0,0:0:0:0:
256,192,37738,1,2,0:0:0:0:
256,192,37896,1,0,0:0:0:0:
256,192,38053,1,2,0:0:0:0:
256,192,38132,1,2,0:0:0:0:
256,192,38211,1,0,0:0:0:0:
256,192,38290,1,0,0:0:0:0:
256,192,38369,1,2,0:0:0:0:
256,192,38448,1,0,0:0:0:0:
256,192,38527,1,2,0:0:0:0:
256,192,38685,1,4,0:0:0:0:
256,192,39001,1,2,0:0:0:0:
256,192,39159,1,2,0:0:0:0:
256,192,39317,1,0,0:0:0:0:
256,192,39475,1,0,0:0:0:0:
256,192,39632,1,2,0:0:0:0:
256,192,39790,1,2,0:0:0:0:
256,192,39948,1,0,0:0:0:0:
256,192,40264,1,2,0:0:0:0:
256,192,40580,1,0,0:0:0:0:
256,192,40738,1,0,0:0:0:0:
256,192,40896,1,2,0:0:0:0:
256,192,41211,1,0,0:0:0:0:
256,192,41527,1,2,0:0:0:0:
256,192,41685,1,0,0:0:0:0:
256,192,41843,1,2,0:0:0:0:
256,192,42001,1,2,0:0:0:0:
256,192,42159,1,0,0:0:0:0:
256,192,42317,1,0,0:0:0:0:
256,192,42475,1,2,0:0:0:0:
256,192,42790,1,2,0:0:0:0:
256,192,43106,1,0,0:0:0:0:
256,192,43264,1,0,0:0:0:0:
256,192,43422,1,2,0:0:0:0:
256,192,43580,1,2,0:0:0:0:
256,192,43738,1,0,0:0:0:0:
256,192,44053,1,2,0:0:0:0:
256,192,44369,1,2,0:0:0:0:
256,192,44527,1,0,0:0:0:0:
256,192,44685,1,2,0:0:0:0:
256,192,44843,1,2,0:0:0:0:
256,192,45001,1,0,0:0:0:0:
256,192,45317,1,2,0:0:0:0:
256,192,45632,1,0,0:0:0:0:
256,192,45790,1,0,0:0:0:0:
256,192,45948,1,2,0:0:0:0:
256,192,46264,1,0,0:0:0:0:
256,192,46422,1,0,0:0:0:0:
256,192,46580,1,2,0:0:0:0:
256,192,46738,1,0,0:0:0:0:
256,192,46896,1,2,0:0:0:0:
256,192,47053,1,2,0:0:0:0:
256,192,47211,1,0,0:0:0:0:
256,192,47369,1,0,0:0:0:0:
256,192,47527,1,2,0:0:0:0:
256,192,47843,1,0,0:0:0:0:
256,192,48001,1,0,0:0:0:0:
256,192,48159,1,2,0:0:0:0:
256,192,48317,1,0,0:0:0:0:
256,192,48475,1,2,0:0:0:0:
256,192,48790,1,4,0:0:0:0:
256,192,49106,1,2,0:0:0:0:
256,192,49264,1,2,0:0:0:0:
256,192,49343,1,2,0:0:0:0:
256,192,49422,1,0,0:0:0:0:
256,192,49580,1,0,0:0:0:0:
256,192,49738,1,2,0:0:0:0:
256,192,49896,1,2,0:0:0:0:
256,192,50053,1,0,0:0:0:0:
256,192,50369,1,2,0:0:0:0:
256,192,50606,1,2,0:0:0:0:
256,192,50685,1,0,0:0:0:0:
256,192,50843,1,0,0:0:0:0:
256,192,51001,1,2,0:0:0:0:
256,192,51317,1,0,0:0:0:0:
256,192,51632,1,2,0:0:0:0:
256,192,51790,1,0,0:0:0:0:
256,192,51948,1,2,0:0:0:0:
256,192,52027,1,2,0:0:0:0:
256,192,52106,1,2,0:0:0:0:
256,192,52264,1,0,0:0:0:0:
256,192,52422,1,0,0:0:0:0:
256,192,52580,1,2,0:0:0:0:
256,192,52896,1,2,0:0:0:0:
256,192,53132,1,2,0:0:0:0:
256,192,53211,1,0,0:0:0:0:
256,192,53369,1,0,0:0:0:0:
256,192,53448,1,0,0:0:0:0:
256,192,53527,1,2,0:0:0:0:
256,192,53685,1,2,0:0:0:0:
256,192,53843,1,0,0:0:0:0:
256,192,54159,1,2,0:0:0:0:
256,192,54475,1,2,0:0:0:0:
256,192,54632,1,0,0:0:0:0:
256,192,54711,1,0,0:0:0:0:
256,192,54790,1,2,0:0:0:0:
256,192,54948,1,2,0:0:0:0:
256,192,55106,1,0,0:0:0:0:
256,192,55422,1,2,0:0:0:0:
256,192,55659,1,2,0:0:0:0:
256,192,55738,1,0,0:0:0:0:
256,192,55896,1,0,0:0:0:0:
256,192,56053,1,2,0:0:0:0:
256,192,56369,1,0,0:0:0:0:
256,192,56527,1,0,0:0:0:0:
256,192,56606,1,0,0:0:0:0:
256,192,56685,1,2,0:0:0:0:
256,192,56843,1,0,0:0:0:0:
256,192,57001,1,2,0:0:0:0:
256,192,57159,1,2,0:0:0:0:
256,192,57238,1,2,0:0:0:0:
256,192,57317,1,0,0:0:0:0:
256,192,57475,1,0,0:0:0:0:
256,192,57632,1,2,0:0:0:0:
256,192,57869,1,0,0:0:0:0:
256,192,57948,1,2,0:0:0:0:
256,192,58106,1,0,0:0:0:0:
256,192,58264,1,2,0:0:0:0:
256,192,58343,1,2,0:0:0:0:
256,192,58422,1,0,0:0:0:0:
256,192,58501,1,0,0:0:0:0:
256,192,58580,1,2,0:0:0:0:
256,192,58659,1,0,0:0:0:0:
256,192,58738,1,2,0:0:0:0:
256,192,58896,1,4,0:0:0:0:
256,192,59132,1,2,0:0:0:0:
256,192,59211,1,2,0:0:0:0:
256,192,59369,1,0,0:0:0:0:
256,192,59527,1,2,0:0:0:0:
256,192,59764,1,0,0:0:0:0:
256,192,59843,1,2,0:0:0:0:
256,192,60001,1,0,0:0:0:0:
256,192,60159,1,2,0:0:0:0:
256,192,60317,1,0,0:0:0:0:
256,192,60396,1,0,0:0:0:0:
256,192,60475,1,2,0:0:0:0:
256,192,60632,1,0,0:0:0:0:
256,192,60790,1,2,0:0:0:0:
256,192,60948,1,2,0:0:0:0:
256,192,61027,1,2,0:0:0:0:
256,192,61106,1,0,0:0:0:0:
256,192,61264,1,0,0:0:0:0:
256,192,61422,1,2,0:0:0:0:
256,192,61659,1,0,0:0:0:0:
256,192,61738,1,2,0:0:0:0:
256,192,61896,1,0,0:0:0:0:
256,192,62053,1,2,0:0:0:0:
256,192,62290,1,2,0:0:0:0:
256,192,62369,1,2,0:0:0:0:
256,192,62527,1,0,0:0:0:0:
256,192,62685,1,2,0:0:0:0:
256,192,62843,1,0,0:0:0:0:
256,192,63001,1,2,0:0:0:0:
256,192,63080,1,2,0:0:0:0:
256,192,63159,1,0,0:0:0:0:
256,192,63238,1,0,0:0:0:0:
256,192,63317,1,2,0:0:0:0:
256,192,63475,1,2,0:0:0:0:
256,192,63632,1,0,0:0:0:0:
256,192,63711,1,0,0:0:0:0:
256,192,63790,1,0,0:0:0:0:
256,192,63948,1,6,0:0:0:0:
256,192,64185,1,0,0:0:0:0:
256,192,64264,1,2,0:0:0:0:
256,192,64422,1,0,0:0:0:0:
256,192,64580,1,2,0:0:0:0:
256,192,64659,1,2,0:0:0:0:
256,192,64738,1,0,0:0:0:0:
256,192,64896,1,2,0:0:0:0:
256,192,65053,1,2,0:0:0:0:
256,192,65211,1,0,0:0:0:0:
256,192,65290,1,0,0:0:0:0:
256,192,65369,1,2,0:0:0:0:
256,192,65527,1,0,0:0:0:0:
256,192,65685,1,0,0:0:0:0:
256,192,65843,1,2,0:0:0:0:
256,192,65922,1,2,0:0:0:0:
256,192,66001,1,2,0:0:0:0:
256,192,66159,1,0,0:0:0:0:
256,192,66317,1,2,0:0:0:0:
256,192,66475,1,0,0:0:0:0:
256,192,66711,1,0,0:0:0:0:
256,192,66790,1,2,0:0:0:0:
256,192,66948,1,0,0:0:0:0:
256,192,67106,1,2,0:0:0:0:
256,192,67185,1,2,0:0:0:0:
256,192,67264,1,0,0:0:0:0:
256,192,67343,1,0,0:0:0:0:
256,192,67422,1,2,0:0:0:0:
256,192,67580,1,0,0:0:0:0:
256,192,67738,1,2,0:0:0:0:
256,192,67896,1,0,0:0:0:0:
256,192,67975,1,0,0:0:0:0:
256,192,68053,1,2,0:0:0:0:
256,192,68211,1,2,0:0:0:0:
256,192,68369,1,0,0:0:0:0:
256,192,68527,1,2,0:0:0:0:
256,192,68606,1,0,0:0:0:0:
256,192,68685,1,2,0:0:0:0:
256,192,68764,1,2,0:0:0:0:
256,192,68843,1,0,0:0:0:0:
256,192,69001,1,6,0:0:0:0:
256,192,69238,1,0,0:0:0:0:
256,192,69317,1,2,0:0:0:0:
256,192,69475,1,0,0:0:0:0:
256,192,69632,1,2,0:0:0:0:
256,192,69869,1,2,0:0:0:0:
256,192,69948,1,2,0:0:0:0:
256,192,70106,1,0,0:0:0:0:
256,192,70264,1,2,0:0:0:0:
256,192,70422,1,0,0:0:0:0:
256,192,70580,1,2,0:0:0:0:
256,192,70659,1,2,0:0:0:0:
256,192,70738,1,0,0:0:0:0:
256,192,70817,1,0,0:0:0:0:
256,192,70896,1,2,0:0:0:0:
256,192,71053,1,0,0:0:0:0:
256,192,71132,1,0,0:0:0:0:
256,192,71211,1,2,0:0:0:0:
256,192,71369,1,2,0:0:0:0:
256,192,71527,1,0,0:0:0:0:
256,192,71764,1,2,0:0:0:0:
256,192,71843,1,2,0:0:0:0:
256,192,72001,1,0,0:0:0:0:
256,192,72159,1,2,0:0:0:0:
256,192,72396,1,0,0:0:0:0:
256,192,72475,1,2,0:0:0:0:
256,192,72632,1,0,0:0:0:0:
256,192,72790,1,2,0:0:0:0:
256,192,72948,1,0,0:0:0:0:
256,192,73106,1,2,0:0:0:0:
256,192,73185,1,2,0:0:0:0:
256,192,73264,1,0,0:0:0:0:
256,192,73343,1,0,0:0:0:0:
256,192,73422,1,2,0:0:0:0:
256,192,73580,1,2,0:0:0:0:
256,192,73738,1,0,0:0:0:0:
256,192,73817,1,0,0:0:0:0:
256,192,73896,1,0,0:0:0:0:
256,192,74053,1,6,0:0:0:0:
256,192,74290,1,0,0:0:0:0:
256,192,74369,1,2,0:0:0:0:
256,192,74527,1,0,0:0:0:0:
256,192,74685,1,2,0:0:0:0:
256,192,74764,1,0,0:0:0:0:
256,192,74843,1,0,0:0:0:0:
256,192,75001,1,2,0:0:0:0:
256,192,75159,1,0,0:0:0:0:
256,192,75317,1,2,0:0:0:0:
256,192,75396,1,2,0:0:0:0:
256,192,75475,1,2,0:0:0:0:
256,192,75632,1,0,0:0:0:0:
256,192,75790,1,2,0:0:0:0:
256,192,75948,1,0,0:0:0:0:
256,192,76027,1,0,0:0:0:0:
256,192,76106,1,0,0:0:0:0:
256,192,76264,1,2,0:0:0:0:
256,192,76422,1,2,0:0:0:0:
256,192,76580,1,0,0:0:0:0:
256,192,76817,1,0,0:0:0:0:
256,192,76896,1,2,0:0:0:0:
256,192,77053,1,0,0:0:0:0:
256,192,77211,1,2,0:0:0:0:
256,192,77290,1,2,0:0:0:0:
256,192,77369,1,0,0:0:0:0:
256,192,77527,1,2,0:0:0:0:
256,192,77685,1,0,0:0:0:0:
256,192,77764,1,0,0:0:0:0:
256,192,77843,1,2,0:0:0:0:
256,192,78001,1,0,0:0:0:0:
256,192,78159,1,6,0:0:0:0:
256,192,78317,1,0,0:0:0:0:
256,192,78475,1,2,0:0:0:0:
256,192,78553,1,2,0:0:0:0:
256,192,78632,1,0,0:0:0:0:
256,192,78711,1,0,0:0:0:0:
256,192,78790,1,2,0:0:0:0:
256,192,78869,1,0,0:0:0:0:
256,192,78948,1,2,0:0:0:0:
256,192,79106,1,4,0:0:0:0:
256,192,79422,1,8,0:0:0:0:
255,192,79580,1,0,0:0:0:0:
256,192,79738,1,0,0:0:0:0:
256,192,79896,1,8,0:0:0:0:
256,192,80053,1,8,0:0:0:0:
256,192,80211,1,0,0:0:0:0:
256,192,80290,1,0,0:0:0:0:
256,192,80369,1,8,0:0:0:0:
255,192,80527,1,0,0:0:0:0:
256,192,80685,1,8,0:0:0:0:
256,192,80843,1,8,0:0:0:0:
256,192,81001,1,0,0:0:0:0:
256,192,81080,1,0,0:0:0:0:
256,192,81159,1,0,0:0:0:0:
256,192,81317,1,8,0:0:0:0:
256,192,81396,1,0,0:0:0:0:
256,192,81475,1,0,0:0:0:0:
256,192,81632,1,0,0:0:0:0:
256,192,81948,1,8,0:0:0:0:
255,192,82106,1,0,0:0:0:0:
256,192,82264,1,0,0:0:0:0:
256,192,82422,1,8,0:0:0:0:
256,192,82580,1,8,0:0:0:0:
256,192,82738,1,0,0:0:0:0:
256,192,82817,1,0,0:0:0:0:
256,192,82896,1,8,0:0:0:0:
256,192,83053,1,0,0:0:0:0:
256,192,83211,1,8,0:0:0:0:
256,192,83369,1,0,0:0:0:0:
256,192,83527,1,8,0:0:0:0:
256,192,83606,1,0,0:0:0:0:
256,192,83685,1,0,0:0:0:0:
256,192,83843,1,8,0:0:0:0:
256,192,84001,1,8,0:0:0:0:
256,192,84159,1,4,0:0:0:0:
256,192,84475,1,8,0:0:0:0:
255,192,84632,1,0,0:0:0:0:
256,192,84790,1,0,0:0:0:0:
256,192,84948,1,8,0:0:0:0:
256,192,85106,1,8,0:0:0:0:
256,192,85264,1,0,0:0:0:0:
256,192,85343,1,0,0:0:0:0:
256,192,85422,1,8,0:0:0:0:
256,192,85580,1,0,0:0:0:0:
256,192,85738,1,8,0:0:0:0:
256,192,85896,1,8,0:0:0:0:
261,192,86053,1,0,0:0:0:0:
256,192,86211,1,0,0:0:0:0:
256,192,86369,1,8,0:0:0:0:
256,192,86448,1,0,0:0:0:0:
256,192,86527,1,0,0:0:0:0:
256,192,86685,1,0,0:0:0:0:
256,192,87001,1,8,0:0:0:0:
255,192,87159,1,0,0:0:0:0:
256,192,87317,1,0,0:0:0:0:
256,192,87475,1,8,0:0:0:0:
256,192,87632,1,8,0:0:0:0:
256,192,87790,1,0,0:0:0:0:
256,192,87869,1,0,0:0:0:0:
256,192,87948,1,8,0:0:0:0:
256,192,88106,1,0,0:0:0:0:
256,192,88264,1,8,0:0:0:0:
256,192,88422,1,0,0:0:0:0:
256,192,88580,1,8,0:0:0:0:
256,192,88659,1,0,0:0:0:0:
256,192,88738,1,0,0:0:0:0:
256,192,88896,1,8,0:0:0:0:
256,192,88975,1,0,0:0:0:0:
256,192,89053,1,8,0:0:0:0:
256,192,89211,1,12,0:0:0:0:
256,192,89527,1,0,0:0:0:0:
255,192,89685,1,0,0:0:0:0:
256,192,89843,1,8,0:0:0:0:
256,192,90159,1,8,0:0:0:0:
256,192,90317,1,0,0:0:0:0:
256,192,90475,1,8,0:0:0:0:
255,192,90632,1,0,0:0:0:0:
255,192,90790,1,0,0:0:0:0:
255,192,91106,1,0,0:0:0:0:
255,192,91264,1,0,0:0:0:0:
255,192,91343,1,0,0:0:0:0:
255,192,91422,1,8,0:0:0:0:
255,192,91580,1,0,0:0:0:0:
255,192,91738,1,8,0:0:0:0:
255,192,92053,1,8,0:0:0:0:
255,192,92211,1,0,0:0:0:0:
255,192,92369,1,0,0:0:0:0:
255,192,92685,1,0,0:0:0:0:
255,192,92843,1,0,0:0:0:0:
255,192,92922,1,0,0:0:0:0:
255,192,93001,1,8,0:0:0:0:
255,192,93317,1,0,0:0:0:0:
255,192,93475,1,0,0:0:0:0:
255,192,93632,1,8,0:0:0:0:
255,192,93790,1,0,0:0:0:0:
255,192,93948,1,8,0:0:0:0:
255,192,94264,1,0,0:0:0:0:
255,192,94580,1,0,0:0:0:0:
255,192,94738,1,0,0:0:0:0:
255,192,94896,1,8,0:0:0:0:
255,192,95211,1,8,0:0:0:0:
255,192,95369,1,0,0:0:0:0:
255,192,95448,1,0,0:0:0:0:
255,192,95527,1,8,0:0:0:0:
255,192,95843,1,0,0:0:0:0:
255,192,96001,1,0,0:0:0:0:
255,192,96159,1,8,0:0:0:0:
255,192,96317,1,0,0:0:0:0:
255,192,96475,1,8,0:0:0:0:
255,192,96790,1,8,0:0:0:0:
255,192,97106,1,0,0:0:0:0:
255,192,97264,1,8,0:0:0:0:
255,192,97422,1,8,0:0:0:0:
255,192,97738,1,8,0:0:0:0:
255,192,97896,1,0,0:0:0:0:
255,192,98053,1,0,0:0:0:0:
255,192,98211,1,0,0:0:0:0:
255,192,98369,1,8,0:0:0:0:
255,192,98527,1,0,0:0:0:0:
255,192,98606,1,0,0:0:0:0:
255,192,98685,1,8,0:0:0:0:
255,192,98843,1,8,0:0:0:0:
255,192,98922,1,0,0:0:0:0:
255,192,99001,1,8,0:0:0:0:
256,192,99317,1,12,0:0:0:0:
256,192,99632,1,0,0:0:0:0:
255,192,99790,1,0,0:0:0:0:
256,192,99948,1,8,0:0:0:0:
256,192,100264,1,8,0:0:0:0:
256,192,100422,1,0,0:0:0:0:
256,192,100580,1,8,0:0:0:0:
255,192,100896,1,0,0:0:0:0:
255,192,101053,1,0,0:0:0:0:
255,192,101211,1,8,0:0:0:0:
255,192,101369,1,0,0:0:0:0:
255,192,101448,1,0,0:0:0:0:
255,192,101527,1,8,0:0:0:0:
255,192,101685,1,0,0:0:0:0:
255,192,101843,1,8,0:0:0:0:
255,192,102159,1,8,0:0:0:0:
255,192,102317,1,0,0:0:0:0:
255,192,102475,1,0,0:0:0:0:
255,192,102790,1,0,0:0:0:0:
255,192,102948,1,0,0:0:0:0:
255,192,103027,1,0,0:0:0:0:
255,192,103106,1,8,0:0:0:0:
256,192,103264,1,0,0:0:0:0:
256,192,103422,1,0,0:0:0:0:
255,192,103580,1,0,0:0:0:0:
255,192,103738,1,8,0:0:0:0:
255,192,103817,1,0,0:0:0:0:
255,192,103896,1,0,0:0:0:0:
255,192,104053,1,8,0:0:0:0:
255,192,104211,1,0,0:0:0:0:
255,192,104369,1,8,0:0:0:0:
255,192,104685,1,0,0:0:0:0:
255,192,104843,1,0,0:0:0:0:
255,192,105001,1,8,0:0:0:0:
255,192,105317,1,8,0:0:0:0:
255,192,105475,1,0,0:0:0:0:
255,192,105553,1,0,0:0:0:0:
255,192,105632,1,8,0:0:0:0:
255,192,105948,1,0,0:0:0:0:
255,192,106106,1,0,0:0:0:0:
255,192,106264,1,8,0:0:0:0:
255,192,106422,1,0,0:0:0:0:
255,192,106580,1,8,0:0:0:0:
255,192,106896,1,4,0:0:0:0:
255,192,107053,1,4,0:0:0:0:
255,192,107843,1,4,0:0:0:0:
255,192,108001,1,4,0:0:0:0:
255,192,108790,1,8,0:0:0:0:
255,192,108869,1,0,0:0:0:0:
255,192,108948,1,0,0:0:0:0:
255,192,109027,1,0,0:0:0:0:
255,192,109106,1,8,0:0:0:0:
255,192,109264,1,0,0:0:0:0:
255,192,109422,1,12,0:0:0:0:
255,192,109738,1,8,0:0:0:0:
255,192,109896,1,0,0:0:0:0:
255,192,110053,1,8,0:0:0:0:
255,192,110369,1,8,0:0:0:0:
255,192,110527,1,0,0:0:0:0:
255,192,110606,1,0,0:0:0:0:
255,192,110685,1,8,0:0:0:0:
255,192,110843,1,0,0:0:0:0:
255,192,111001,1,8,0:0:0:0:
256,192,111080,1,8,0:0:0:0:
255,192,111159,1,0,0:0:0:0:
256,192,111238,1,0,0:0:0:0:
255,192,111317,1,8,0:0:0:0:
255,192,111475,1,8,0:0:0:0:
255,192,111632,1,0,0:0:0:0:
255,192,111790,1,0,0:0:0:0:
255,192,111869,1,0,0:0:0:0:
255,192,111948,1,8,0:0:0:0:
255,192,112264,1,8,0:0:0:0:
255,192,112422,1,0,0:0:0:0:
255,192,112580,1,8,0:0:0:0:
255,192,112896,1,8,0:0:0:0:
255,192,113053,1,0,0:0:0:0:
255,192,113211,1,8,0:0:0:0:
255,192,113369,1,0,0:0:0:0:
255,192,113527,1,8,0:0:0:0:
255,192,113606,1,0,0:0:0:0:
255,192,113685,1,8,0:0:0:0:
255,192,113764,1,8,0:0:0:0:
255,192,113843,1,0,0:0:0:0:
255,192,114001,1,0,0:0:0:0:
255,192,114080,1,0,0:0:0:0:
255,192,114159,1,8,0:0:0:0:
256,192,114317,1,8,0:0:0:0:
256,192,114475,1,4,0:0:0:0:
255,192,114632,1,0,0:0:0:0:
255,192,114711,1,0,0:0:0:0:
255,192,114790,1,8,0:0:0:0:
255,192,114948,1,0,0:0:0:0:
255,192,115106,1,8,0:0:0:0:
256,192,115264,1,0,0:0:0:0:
255,192,115422,1,8,0:0:0:0:
255,192,115738,1,0,0:0:0:0:
256,192,115896,1,0,0:0:0:0:
255,192,116053,1,8,0:0:0:0:
255,192,116132,1,0,0:0:0:0:
256,192,116211,1,0,0:0:0:0:
256,192,116290,1,0,0:0:0:0:
255,192,116369,1,8,0:0:0:0:
256,192,116527,1,0,0:0:0:0:
255,192,116685,1,8,0:0:0:0:
256,192,116843,1,0,0:0:0:0:
255,192,117001,1,8,0:0:0:0:
256,192,117317,1,0,0:0:0:0:
256,192,117396,1,0,0:0:0:0:
255,192,117475,1,0,0:0:0:0:
256,192,117553,1,0,0:0:0:0:
255,192,117632,1,8,0:0:0:0:
256,192,117790,1,0,0:0:0:0:
255,192,117948,1,8,0:0:0:0:
255,192,118264,1,8,0:0:0:0:
256,192,118422,1,0,0:0:0:0:
256,192,118580,1,0,0:0:0:0:
256,192,118738,1,8,0:0:0:0:
256,192,118896,1,0,0:0:0:0:
256,192,119053,1,8,0:0:0:0:
256,192,119132,1,0,0:0:0:0:
256,192,119211,1,8,0:0:0:0:
256,192,119369,1,0,0:0:0:0:
255,192,119527,1,12,0:0:0:0:
255,192,119843,1,8,0:0:0:0:
255,192,120001,1,0,0:0:0:0:
255,192,120159,1,8,0:0:0:0:
255,192,120475,1,8,0:0:0:0:
255,192,120632,1,0,0:0:0:0:
255,192,120790,1,8,0:0:0:0:
255,192,120869,1,0,0:0:0:0:
255,192,120948,1,0,0:0:0:0:
255,192,121106,1,8,0:0:0:0:
255,192,121185,1,8,0:0:0:0:
255,192,121264,1,0,0:0:0:0:
255,192,121343,1,0,0:0:0:0:
255,192,121422,1,8,0:0:0:0:
255,192,121580,1,8,0:0:0:0:
255,192,121738,1,0,0:0:0:0:
255,192,121896,1,0,0:0:0:0:
255,192,121975,1,0,0:0:0:0:
255,192,122053,1,8,0:0:0:0:
255,192,122369,1,8,0:0:0:0:
255,192,122527,1,0,0:0:0:0:
255,192,122685,1,8,0:0:0:0:
255,192,123001,1,8,0:0:0:0:
255,192,123159,1,0,0:0:0:0:
255,192,123317,1,8,0:0:0:0:
255,192,123475,1,0,0:0:0:0:
255,192,123632,1,8,0:0:0:0:
255,192,123711,1,8,0:0:0:0:
255,192,123790,1,0,0:0:0:0:
255,192,123869,1,0,0:0:0:0:
255,192,123948,1,8,0:0:0:0:
255,192,124106,1,0,0:0:0:0:
255,192,124185,1,0,0:0:0:0:
255,192,124264,1,8,0:0:0:0:
256,192,124422,1,8,0:0:0:0:
256,192,124580,1,4,0:0:0:0:
255,192,124738,1,0,0:0:0:0:
255,192,124817,1,0,0:0:0:0:
255,192,124896,1,8,0:0:0:0:
255,192,125053,1,0,0:0:0:0:
255,192,125211,1,8,0:0:0:0:
256,192,125369,1,0,0:0:0:0:
255,192,125527,1,8,0:0:0:0:
255,192,125843,1,0,0:0:0:0:
256,192,126001,1,0,0:0:0:0:
255,192,126159,1,8,0:0:0:0:
255,192,126238,1,0,0:0:0:0:
256,192,126317,1,0,0:0:0:0:
256,192,126396,1,0,0:0:0:0:
255,192,126475,1,8,0:0:0:0:
256,192,126632,1,0,0:0:0:0:
255,192,126790,1,8,0:0:0:0:
256,192,126948,1,0,0:0:0:0:
255,192,127106,1,8,0:0:0:0:
256,192,127422,1,0,0:0:0:0:
256,192,127580,1,8,0:0:0:0:
256,192,127738,1,0,0:0:0:0:
256,192,127896,1,0,0:0:0:0:
256,192,127975,1,0,0:0:0:0:
255,192,128053,1,8,0:0:0:0:
255,192,128369,1,8,0:0:0:0:
256,192,128527,1,0,0:0:0:0:
256,192,128685,1,0,0:0:0:0:
256,192,128843,1,8,0:0:0:0:
256,192,129001,1,0,0:0:0:0:
256,192,129159,1,8,0:0:0:0:
256,192,129238,1,0,0:0:0:0:
256,192,129317,1,8,0:0:0:0:
256,192,129475,1,0,0:0:0:0:
256,191,129632,1,4,0:0:0:0:
256,192,129869,1,8,0:0:0:0:
257,191,129948,1,0,0:0:0:0:
257,191,130106,1,8,0:0:0:0:
257,191,130264,1,0,0:0:0:0:
257,191,130343,1,0,0:0:0:0:
257,191,130422,1,0,0:0:0:0:
257,191,130580,1,8,0:0:0:0:
257,191,130896,1,8,0:0:0:0:
257,191,131053,1,0,0:0:0:0:
257,191,131211,1,0,0:0:0:0:
257,191,131290,1,0,0:0:0:0:
257,191,131369,1,8,0:0:0:0:
257,191,131527,1,0,0:0:0:0:
257,191,131685,1,0,0:0:0:0:
257,191,131843,1,8,0:0:0:0:
257,191,131922,1,8,0:0:0:0:
257,191,132001,1,0,0:0:0:0:
257,191,132080,1,0,0:0:0:0:
257,191,132159,1,8,0:0:0:0:
257,191,132396,1,0,0:0:0:0:
257,191,132475,1,8,0:0:0:0:
257,191,132632,1,0,0:0:0:0:
257,191,132790,1,8,0:0:0:0:
257,191,132869,1,8,0:0:0:0:
257,191,132948,1,0,0:0:0:0:
257,191,133106,1,8,0:0:0:0:
257,191,133264,1,0,0:0:0:0:
257,191,133343,1,0,0:0:0:0:
257,191,133422,1,8,0:0:0:0:
257,191,133580,1,0,0:0:0:0:
257,191,133738,1,8,0:0:0:0:
257,191,133896,1,0,0:0:0:0:
257,191,133975,1,0,0:0:0:0:
257,191,134053,1,8,0:0:0:0:
257,191,134132,1,8,0:0:0:0:
257,191,134211,1,0,0:0:0:0:
257,191,134290,1,8,0:0:0:0:
257,191,134369,1,0,0:0:0:0:
257,191,134527,1,8,0:0:0:0:
257,191,134685,1,4,0:0:0:0:
257,191,135001,1,8,0:0:0:0:
257,191,135159,1,0,0:0:0:0:
257,191,135317,1,8,0:0:0:0:
257,191,135396,1,0,0:0:0:0:
257,191,135475,1,0,0:0:0:0:
257,191,135632,1,8,0:0:0:0:
257,191,135790,1,8,0:0:0:0:
257,191,135948,1,0,0:0:0:0:
257,191,136264,1,0,0:0:0:0:
257,191,136422,1,8,0:0:0:0:
257,191,136501,1,8,0:0:0:0:
257,191,136580,1,0,0:0:0:0:
257,191,136738,1,0,0:0:0:0:
257,191,136896,1,8,0:0:0:0:
257,191,137053,1,0,0:0:0:0:
257,191,137211,1,8,0:0:0:0:
257,191,137290,1,0,0:0:0:0:
257,191,137369,1,8,0:0:0:0:
257,191,137448,1,8,0:0:0:0:
257,191,137527,1,0,0:0:0:0:
257,191,137685,1,8,0:0:0:0:
257,191,137843,1,0,0:0:0:0:
257,191,138001,1,8,0:0:0:0:
257,191,138080,1,0,0:0:0:0:
257,191,138159,1,8,0:0:0:0:
257,191,138238,1,8,0:0:0:0:
257,191,138317,1,0,0:0:0:0:
257,191,138396,1,0,0:0:0:0:
257,191,138475,1,8,0:0:0:0:
257,191,138632,1,0,0:0:0:0:
257,191,138790,1,8,0:0:0:0:
257,191,139106,1,0,0:0:0:0:
257,191,139264,1,0,0:0:0:0:
257,191,139422,1,8,0:0:0:0:
257,191,139580,1,8,0:0:0:0:
257,191,139738,1,4,0:0:0:0:
257,191,139975,1,0,0:0:0:0:
257,191,140053,1,8,0:0:0:0:
257,191,140211,1,8,0:0:0:0:
257,191,140369,1,0,0:0:0:0:
257,191,140448,1,0,0:0:0:0:
257,191,140527,1,0,0:0:0:0:
257,191,140685,1,8,0:0:0:0:
257,191,141001,1,0,0:0:0:0:
257,191,141159,1,8,0:0:0:0:
257,191,141317,1,0,0:0:0:0:
257,191,141396,1,0,0:0:0:0:
257,191,141475,1,8,0:0:0:0:
257,191,141632,1,0,0:0:0:0:
257,191,141790,1,0,0:0:0:0:
257,191,141948,1,8,0:0:0:0:
257,191,142027,1,8,0:0:0:0:
257,191,142106,1,0,0:0:0:0:
257,191,142185,1,0,0:0:0:0:
257,191,142264,1,8,0:0:0:0:
257,191,142501,1,0,0:0:0:0:
257,191,142580,1,8,0:0:0:0:
257,191,142738,1,0,0:0:0:0:
257,191,142896,1,8,0:0:0:0:
257,191,142975,1,8,0:0:0:0:
257,191,143053,1,0,0:0:0:0:
257,191,143211,1,8,0:0:0:0:
257,191,143369,1,0,0:0:0:0:
257,191,143527,1,8,0:0:0:0:
257,191,143606,1,8,0:0:0:0:
257,191,143685,1,0,0:0:0:0:
257,191,143843,1,8,0:0:0:0:
257,191,144001,1,0,0:0:0:0:
257,191,144080,1,0,0:0:0:0:
257,191,144159,1,8,0:0:0:0:
257,191,144238,1,0,0:0:0:0:
257,191,144317,1,8,0:0:0:0:
257,191,144396,1,8,0:0:0:0:
257,191,144475,1,0,0:0:0:0:
257,191,144632,1,8,0:0:0:0:
257,191,144790,1,4,0:0:0:0:
257,191,145106,1,8,0:0:0:0:
257,191,145264,1,0,0:0:0:0:
257,191,145422,1,8,0:0:0:0:
257,191,145580,1,8,0:0:0:0:
257,191,145738,1,0,0:0:0:0:
257,191,145817,1,8,0:0:0:0:
257,191,145896,1,8,0:0:0:0:
257,191,146053,1,0,0:0:0:0:
257,191,146369,1,0,0:0:0:0:
257,191,146527,1,8,0:0:0:0:
257,191,146606,1,8,0:0:0:0:
257,191,146685,1,0,0:0:0:0:
257,191,146843,1,0,0:0:0:0:
257,191,147001,1,8,0:0:0:0:
257,191,147159,1,0,0:0:0:0:
257,191,147317,1,8,0:0:0:0:
257,191,147396,1,8,0:0:0:0:
257,191,147475,1,8,0:0:0:0:
257,191,147632,1,0,0:0:0:0:
257,191,147790,1,8,0:0:0:0:
257,191,147869,1,8,0:0:0:0:
257,191,147948,1,0,0:0:0:0:
257,191,148106,1,0,0:0:0:0:
257,191,148264,1,8,0:0:0:0:
257,191,148343,1,8,0:0:0:0:
257,191,148422,1,8,0:0:0:0:
257,191,148501,1,8,0:0:0:0:
257,191,148580,1,0,0:0:0:0:
257,191,148738,1,0,0:0:0:0:
257,191,148896,1,12,0:0:0:0:
257,191,149211,1,0,0:0:0:0:
257,191,149290,1,0,0:0:0:0:
257,191,149369,1,8,0:0:0:0:
257,191,149448,1,8,0:0:0:0:
257,191,149527,1,0,0:0:0:0:
257,191,149606,1,0,0:0:0:0:
257,191,149685,1,8,0:0:0:0:
257,191,149843,1,4,0:0:0:0:
257,191,159948,5,4,0:0:0:0:
257,191,160264,1,0,0:0:0:0:
257,191,160580,1,8,0:0:0:0:
257,191,160896,1,0,0:0:0:0:
257,191,161211,1,8,0:0:0:0:
257,191,161369,1,8,0:0:0:0:
257,191,161527,1,0,0:0:0:0:
257,191,161843,1,8,0:0:0:0:
257,191,162159,1,0,0:0:0:0:
257,191,162475,1,8,0:0:0:0:
257,191,162790,1,0,0:0:0:0:
257,191,163106,1,8,0:0:0:0:
257,191,163422,1,0,0:0:0:0:
257,191,163738,1,8,0:0:0:0:
257,191,163896,1,8,0:0:0:0:
257,191,164053,1,0,0:0:0:0:
257,191,164369,1,8,0:0:0:0:
257,191,164685,1,8,0:0:0:0:
257,191,165001,1,0,0:0:0:0:
257,191,165317,1,0,0:0:0:0:
257,191,165632,1,8,0:0:0:0:
257,191,165948,1,0,0:0:0:0:
257,191,166264,1,8,0:0:0:0:
257,191,166580,1,8,0:0:0:0:
257,191,166896,1,0,0:0:0:0:
257,191,167211,1,0,0:0:0:0:
257,191,167527,1,12,0:0:0:0:
257,191,168790,1,0,0:0:0:0:
257,191,168948,1,0,0:0:0:0:
257,191,169106,1,8,0:0:0:0:
257,191,169264,1,8,0:0:0:0:
257,191,169422,1,0,0:0:0:0:
257,191,169501,1,0,0:0:0:0:
257,191,169580,1,8,0:0:0:0:
257,191,169659,1,0,0:0:0:0:
257,191,169738,1,8,0:0:0:0:
257,191,169817,1,8,0:0:0:0:
257,191,169896,1,8,0:0:0:0:
257,191,170053,1,4,0:0:0:0:
257,191,170369,1,8,0:0:0:0:
257,191,170527,1,0,0:0:0:0:
257,191,170685,1,8,0:0:0:0:
257,191,170764,1,8,0:0:0:0:
257,191,170843,1,0,0:0:0:0:
257,191,171001,1,8,0:0:0:0:
257,191,171159,1,0,0:0:0:0:
257,191,171317,1,8,0:0:0:0:
257,191,171396,1,8,0:0:0:0:
257,191,171475,1,8,0:0:0:0:
257,191,171632,1,0,0:0:0:0:
257,191,171711,1,0,0:0:0:0:
257,191,171790,1,8,0:0:0:0:
257,191,171869,1,0,0:0:0:0:
257,191,171948,1,8,0:0:0:0:
257,191,172106,1,0,0:0:0:0:
257,191,172264,1,8,0:0:0:0:
257,191,172343,1,8,0:0:0:0:
257,191,172422,1,0,0:0:0:0:
257,191,172580,1,8,0:0:0:0:
257,191,172896,1,8,0:0:0:0:
257,191,173053,1,8,0:0:0:0:
257,191,173211,1,0,0:0:0:0:
257,191,173290,1,0,0:0:0:0:
257,191,173369,1,8,0:0:0:0:
257,191,173527,1,0,0:0:0:0:
257,191,173685,1,8,0:0:0:0:
257,191,173764,1,8,0:0:0:0:
257,191,173843,1,0,0:0:0:0:
257,191,174001,1,0,0:0:0:0:
257,191,174159,1,8,0:0:0:0:
257,191,174238,1,0,0:0:0:0:
257,191,174317,1,8,0:0:0:0:
257,191,174396,1,8,0:0:0:0:
257,191,174475,1,0,0:0:0:0:
257,191,174632,1,0,0:0:0:0:
257,191,174790,1,8,0:0:0:0:
257,191,174948,1,8,0:0:0:0:
257,191,175106,1,4,0:0:0:0:
257,191,175422,1,8,0:0:0:0:
257,191,175580,1,8,0:0:0:0:
257,191,175738,1,0,0:0:0:0:
257,191,175817,1,0,0:0:0:0:
257,191,175896,1,8,0:0:0:0:
257,191,175975,1,8,0:0:0:0:
257,191,176053,1,0,0:0:0:0:
257,191,176132,1,8,0:0:0:0:
257,191,176211,1,0,0:0:0:0:
257,191,176369,1,8,0:0:0:0:
257,191,176527,1,0,0:0:0:0:
257,191,176685,1,8,0:0:0:0:
257,191,176764,1,8,0:0:0:0:
257,191,176843,1,0,0:0:0:0:
257,191,176922,1,0,0:0:0:0:
257,191,177001,1,8,0:0:0:0:
257,191,177159,1,8,0:0:0:0:
257,191,177317,1,0,0:0:0:0:
257,191,177396,1,0,0:0:0:0:
257,191,177475,1,0,0:0:0:0:
257,191,177632,1,8,0:0:0:0:
257,191,177948,1,8,0:0:0:0:
257,191,178106,1,0,0:0:0:0:
257,191,178264,1,8,0:0:0:0:
257,191,178343,1,8,0:0:0:0:
257,191,178422,1,0,0:0:0:0:
257,191,178580,1,8,0:0:0:0:
257,191,178738,1,8,0:0:0:0:
257,191,178896,1,0,0:0:0:0:
257,191,178975,1,0,0:0:0:0:
257,191,179053,1,8,0:0:0:0:
257,191,179132,1,8,0:0:0:0:
257,191,179211,1,0,0:0:0:0:
257,191,179369,1,8,0:0:0:0:
257,191,179527,1,0,0:0:0:0:
257,191,179606,1,8,0:0:0:0:
257,191,179685,1,0,0:0:0:0:
257,191,179843,1,12,0:0:0:0:
257,191,180159,1,4,0:0:0:0:
257,191,180475,1,8,0:0:0:0:
257,191,180632,1,8,0:0:0:0:
257,191,180790,1,0,0:0:0:0:
257,191,180869,1,0,0:0:0:0:
257,191,180948,1,8,0:0:0:0:
257,191,181106,1,0,0:0:0:0:
257,191,181264,1,8,0:0:0:0:
257,191,181422,1,0,0:0:0:0:
257,191,181501,1,0,0:0:0:0:
257,191,181580,1,0,0:0:0:0:
257,191,181738,1,8,0:0:0:0:
257,191,181817,1,8,0:0:0:0:
257,191,181896,1,0,0:0:0:0:
257,191,181975,1,0,0:0:0:0:
257,191,182053,1,8,0:0:0:0:
257,191,182211,1,0,0:0:0:0:
257,191,182369,1,8,0:0:0:0:
257,191,182448,1,8,0:0:0:0:
257,191,182527,1,0,0:0:0:0:
257,191,182685,1,8,0:0:0:0:
257,191,183001,1,8,0:0:0:0:
257,191,183159,1,0,0:0:0:0:
257,191,183317,1,8,0:0:0:0:
257,191,183396,1,8,0:0:0:0:
257,191,183475,1,8,0:0:0:0:
257,191,183632,1,0,0:0:0:0:
257,191,183790,1,8,0:0:0:0:
257,191,183869,1,8,0:0:0:0:
257,191,183948,1,0,0:0:0:0:
257,191,184106,1,8,0:0:0:0:
257,191,184264,1,0,0:0:0:0:
257,191,184343,1,0,0:0:0:0:
257,191,184422,1,8,0:0:0:0:
257,191,184501,1,0,0:0:0:0:
257,191,184580,1,8,0:0:0:0:
257,191,184738,1,0,0:0:0:0:
257,191,184896,1,8,0:0:0:0:
257,191,185053,1,8,0:0:0:0:
257,191,185211,1,4,0:0:0:0:
257,191,185527,1,0,0:0:0:0:
257,191,185685,1,8,0:0:0:0:
257,191,185843,1,0,0:0:0:0:
257,191,185922,1,0,0:0:0:0:
257,191,186001,1,0,0:0:0:0:
257,191,186159,1,8,0:0:0:0:
257,191,186317,1,0,0:0:0:0:
257,191,186475,1,8,0:0:0:0:
257,191,186553,1,8,0:0:0:0:
257,191,186632,1,0,0:0:0:0:
257,191,186711,1,0,0:0:0:0:
257,191,186790,1,8,0:0:0:0:
257,191,186869,1,0,0:0:0:0:
257,191,186948,1,8,0:0:0:0:
257,191,187106,1,0,0:0:0:0:
257,191,187264,1,0,0:0:0:0:
257,191,187422,1,8,0:0:0:0:
257,191,187738,1,8,0:0:0:0:
257,191,187896,1,0,0:0:0:0:
257,191,187975,1,0,0:0:0:0:
257,191,188053,1,8,0:0:0:0:
257,191,188211,1,0,0:0:0:0:
257,191,188369,1,8,0:0:0:0:
257,191,188448,1,8,0:0:0:0:
257,191,188527,1,0,0:0:0:0:
257,191,188685,1,8,0:0:0:0:
257,191,188843,1,0,0:0:0:0:
257,191,189001,1,8,0:0:0:0:
257,191,189080,1,8,0:0:0:0:
257,191,189159,1,0,0:0:0:0:
257,191,189238,1,0,0:0:0:0:
257,191,189317,1,8,0:0:0:0:
257,191,189475,1,0,0:0:0:0:
257,191,189632,1,8,0:0:0:0:
257,191,189711,1,8,0:0:0:0:
257,191,189790,1,8,0:0:0:0:
257,191,189869,1,8,0:0:0:0:
257,191,189948,1,0,0:0:0:0:
257,191,190106,1,8,0:0:0:0:
257,191,190264,1,4,0:0:0:0:
257,191,190580,1,8,0:0:0:0:
257,191,190738,1,8,0:0:0:0:
257,191,190896,1,0,0:0:0:0:
257,191,191053,1,8,0:0:0:0:
257,191,191132,1,8,0:0:0:0:
257,191,191211,1,0,0:0:0:0:
257,191,191369,1,0,0:0:0:0:
257,191,191527,1,8,0:0:0:0:
257,191,191843,1,8,0:0:0:0:
257,191,192001,1,0,0:0:0:0:
257,191,192080,1,0,0:0:0:0:
257,191,192159,1,8,0:0:0:0:
257,191,192317,1,0,0:0:0:0:
257,191,192475,1,8,0:0:0:0:
257,191,192553,1,0,0:0:0:0:
257,191,192632,1,8,0:0:0:0:
257,191,192711,1,8,0:0:0:0:
257,191,192790,1,0,0:0:0:0:
257,191,192948,1,0,0:0:0:0:
257,191,193106,1,8,0:0:0:0:
257,191,193422,1,0,0:0:0:0:
257,191,193580,1,8,0:0:0:0:
257,191,193659,1,8,0:0:0:0:
257,191,193738,1,8,0:0:0:0:
257,191,193896,1,0,0:0:0:0:
257,191,194053,1,8,0:0:0:0:
257,191,194132,1,8,0:0:0:0:
257,191,194211,1,0,0:0:0:0:
257,191,194369,1,8,0:0:0:0:
257,191,194527,1,0,0:0:0:0:
257,191,194606,1,0,0:0:0:0:
257,191,194685,1,8,0:0:0:0:
257,191,194843,1,0,0:0:0:0:
257,191,195001,1,8,0:0:0:0:
257,191,195159,1,8,0:0:0:0:
257,191,195317,1,4,0:0:0:0:
257,191,195632,1,8,0:0:0:0:
257,191,195790,1,0,0:0:0:0:
257,191,195948,1,8,0:0:0:0:
257,191,196106,1,0,0:0:0:0:
257,191,196185,1,8,0:0:0:0:
257,191,196264,1,0,0:0:0:0:
257,191,196422,1,0,0:0:0:0:
257,191,196580,1,8,0:0:0:0:
257,191,196896,1,8,0:0:0:0:
257,191,197053,1,0,0:0:0:0:
257,191,197132,1,0,0:0:0:0:
257,191,197211,1,0,0:0:0:0:
257,191,197369,1,8,0:0:0:0:
257,191,197527,1,0,0:0:0:0:
257,191,197606,1,0,0:0:0:0:
257,191,197685,1,8,0:0:0:0:
257,191,197764,1,0,0:0:0:0:
257,191,197843,1,8,0:0:0:0:
257,191,198001,1,0,0:0:0:0:
257,191,198159,1,8,0:0:0:0:
257,191,198475,1,0,0:0:0:0:
257,191,198632,1,8,0:0:0:0:
257,191,198711,1,8,0:0:0:0:
257,191,198790,1,0,0:0:0:0:
257,191,198948,1,8,0:0:0:0:
257,191,199106,1,0,0:0:0:0:
257,191,199185,1,0,0:0:0:0:
257,191,199264,1,0,0:0:0:0:
257,191,199422,1,8,0:0:0:0:
257,191,199580,1,0,0:0:0:0:
257,191,199659,1,0,0:0:0:0:
257,191,199738,1,8,0:0:0:0:
257,191,199896,1,0,0:0:0:0:
257,191,200053,1,8,0:0:0:0:
257,191,200211,1,8,0:0:0:0:
257,191,200369,1,4,0:0:0:0:
257,191,200685,1,8,0:0:0:0:
257,191,200843,1,8,0:0:0:0:
257,191,201001,1,0,0:0:0:0:
257,191,201159,1,8,0:0:0:0:
257,191,201238,1,8,0:0:0:0:
257,191,201317,1,0,0:0:0:0:
257,191,201475,1,0,0:0:0:0:
257,191,201632,1,8,0:0:0:0:
257,191,201948,1,8,0:0:0:0:
257,191,202106,1,0,0:0:0:0:
257,191,202185,1,0,0:0:0:0:
257,191,202264,1,8,0:0:0:0:
257,191,202422,1,0,0:0:0:0:
257,191,202580,1,8,0:0:0:0:
257,191,202659,1,0,0:0:0:0:
257,191,202738,1,8,0:0:0:0:
257,191,202817,1,8,0:0:0:0:
257,191,202896,1,0,0:0:0:0:
257,191,203053,1,0,0:0:0:0:
257,191,203211,1,8,0:0:0:0:
257,191,203527,1,0,0:0:0:0:
257,191,203685,1,8,0:0:0:0:
257,191,203764,1,8,0:0:0:0:
257,191,203843,1,8,0:0:0:0:
257,191,204001,1,0,0:0:0:0:
257,191,204159,1,8,0:0:0:0:
257,191,204238,1,8,0:0:0:0:
257,191,204317,1,0,0:0:0:0:
257,191,204475,1,8,0:0:0:0:
257,191,204632,1,0,0:0:0:0:
257,191,204711,1,0,0:0:0:0:
257,191,204790,1,8,0:0:0:0:
257,191,204948,1,0,0:0:0:0:
257,191,205106,1,8,0:0:0:0:
257,191,205264,1,8,0:0:0:0:
257,191,205422,1,4,0:0:0:0:
257,191,205738,1,8,0:0:0:0:
257,191,205896,1,0,0:0:0:0:
257,191,206053,1,8,0:0:0:0:
257,191,206211,1,0,0:0:0:0:
257,191,206290,1,8,0:0:0:0:
257,191,206369,1,0,0:0:0:0:
257,191,206527,1,0,0:0:0:0:
257,191,206685,1,8,0:0:0:0:
257,191,207001,1,8,0:0:0:0:
257,191,207159,1,0,0:0:0:0:
257,191,207238,1,0,0:0:0:0:
257,191,207317,1,0,0:0:0:0:
257,191,207475,1,8,0:0:0:0:
257,191,207632,1,0,0:0:0:0:
257,191,207711,1,0,0:0:0:0:
257,191,207790,1,8,0:0:0:0:
257,191,207869,1,0,0:0:0:0:
257,191,207948,1,8,0:0:0:0:
257,191,208106,1,0,0:0:0:0:
257,191,208264,1,8,0:0:0:0:
257,191,208580,1,0,0:0:0:0:
257,191,208738,1,8,0:0:0:0:
257,191,208817,1,8,0:0:0:0:
257,191,208896,1,0,0:0:0:0:
257,191,209053,1,8,0:0:0:0:
257,191,209211,1,0,0:0:0:0:
257,191,209290,1,0,0:0:0:0:
257,191,209369,1,0,0:0:0:0:
257,191,209527,1,8,0:0:0:0:
257,191,209685,1,0,0:0:0:0:
257,191,209764,1,0,0:0:0:0:
257,191,209843,1,0,0:0:0:0:
257,191,210001,1,8,0:0:0:0:
257,191,210159,1,0,0:0:0:0:
257,191,210238,1,0,0:0:0:0:
257,191,210317,1,8,0:0:0:0:
257,191,210396,1,8,0:0:0:0:
