osu file format v14

[General]
AudioFilename: audio.mp3
AudioLeadIn: 0
PreviewTime: 109422
Countdown: 0
SampleSet: Normal
StackLeniency: 0.7
Mode: 1
LetterboxInBreaks: 0
WidescreenStoryboard: 1

[Editor]
Bookmarks: 79106,129632
DistanceSpacing: 1.2
BeatDivisor: 4
GridSize: 4
TimelineZoom: 2.3

[Metadata]
Title:Platonic Love
TitleUnicode:プラトニック・ラヴ
Artist:Kano
ArtistUnicode:鹿乃
Creator:ler1211
Version:Oni
Source:
Tags:[zeth] senko-san japanese rock jrock j-rock IA メル meru mel igts intermediate global taiko showdown 2022 finals nm1 nomod 1
BeatmapID:3581028
BeatmapSetID:1749823

[Difficulty]
HPDrainRate:5.5
CircleSize:5
OverallDifficulty:5.5
ApproachRate:5
SliderMultiplier:1.4
SliderTickRate:1

[Events]
//Background and Video events
0,0,"kanoo.jpg",0,0
//Break Periods
2,150043,158748
//Storyboard Layer 0 (Background)
//Storyboard Layer 1 (Fail)
//Storyboard Layer 2 (Pass)
//Storyboard Layer 3 (Foreground)
//Storyboard Layer 4 (Overlay)
//Storyboard Sound Samples

[TimingPoints]
18475,315.789473684211,4,1,0,90,1,0
38685,-100,4,1,0,80,0,0
58896,-100,4,1,0,90,0,1
79106,-100,4,1,0,90,0,0
89211,-100,4,1,0,80,0,0
106738,-86.9565217391304,4,1,0,80,0,0
108632,-100,4,1,0,80,0,0
109422,-100,4,1,0,90,0,1
129001,-100,4,1,0,90,0,0
129632,-100,4,1,0,90,0,1
149843,-100,4,1,0,90,0,0
150159,-111.111111111111,4,1,0,50,0,0
151738,-125,4,1,0,50,0,0
153001,-142.857142857143,4,1,0,50,0,0
159632,-142.857142857143,4,1,0,70,0,0
159945,-142.857142857143,4,1,0,70,0,0
160103,-142.111137888876,4,1,0,70,0,0
160261,-141.369028584497,4,1,0,70,0,0
160419,-140.630794600715,4,1,0,70,0,0
160577,-139.89641570047,4,1,0,70,0,0
160734,-139.165871752383,4,1,0,70,0,0
160892,-138.439142730199,4,1,0,70,0,0
161050,-137.716208712243,4,1,0,70,0,0
161208,-136.997049880872,4,1,0,70,0,0
161366,-136.281646521928,4,1,0,70,0,0
161524,-135.569979024205,4,1,0,70,0,0
161682,-134.862027878905,4,1,0,70,0,0
161840,-134.157773679107,4,1,0,70,0,0
161998,-133.457197119233,4,1,0,70,0,0
162156,-132.760278994519,4,1,0,70,0,0
162313,-132.06700020049,4,1,0,70,0,0
162471,-131.377341732434,4,1,0,70,0,0
162629,-130.691284684883,4,1,0,70,0,0
162787,-130.008810251094,4,1,0,70,0,0
162945,-129.329899722533,4,1,0,70,0,0
163103,-128.654534488364,4,1,0,70,0,0
163261,-127.982696034934,4,1,0,70,0,0
163419,-127.314365945274,4,1,0,70,0,0
163577,-126.649525898585,4,1,0,70,0,0
163734,-125.988157669742,4,1,0,70,0,0
163892,-125.330243128791,4,1,0,70,0,0
164050,-124.675764240453,4,1,0,70,0,0
164208,-124.024703063632,4,1,0,70,0,0
164366,-123.377041750919,4,1,0,70,0,0
164524,-122.732762548104,4,1,0,70,0,0
164682,-122.091847793694,4,1,0,70,0,0
164840,-121.454279918421,4,1,0,70,0,0
164998,-120.820041444765,4,1,0,70,0,0
165156,-120.189114986477,4,1,0,70,0,0
165313,-119.561483248096,4,1,0,70,0,0
165471,-118.937129024481,4,1,0,70,0,0
165629,-118.316035200335,4,1,0,70,0,0
165787,-117.698184749739,4,1,0,70,0,0
165945,-117.083560735683,4,1,0,70,0,0
166103,-116.472146309605,4,1,0,70,0,0
166261,-115.863924710923,4,1,0,70,0,0
166419,-115.258879266581,4,1,0,70,0,0
166577,-114.656993390593,4,1,0,70,0,0
166734,-114.058250583581,4,1,0,70,0,0
166892,-113.462634432331,4,1,0,70,0,0
167050,-112.870128609336,4,1,0,70,0,0
167208,-112.280716872355,4,1,0,70,0,0
167366,-90.9090909090909,4,1,0,90,0,0
168632,-100,4,1,0,90,0,0
170053,-100,4,1,0,90,0,1
190264,-100,4,1,0,90,0,0

[HitObjects]
256,192,18474,5,4,0:0:0:0:
257,191,18790,1,8,0:0:0:0:
257,191,19106,1,0,0:0:0:0:
257,191,19263,1,8,0:0:0:0:
257,191,19342,1,8,0:0:0:0:
257,191,19421,1,0,0:0:0:0:
257,191,19579,1,0,0:0:0:0:
257,191,19737,1,8,0:0:0:0:
257,191,20053,1,8,0:0:0:0:
257,191,20211,1,0,0:0:0:0:
257,191,20290,1,0,0:0:0:0:
257,191,20369,1,8,0:0:0:0:
257,191,20527,1,0,0:0:0:0:
257,191,20685,1,8,0:0:0:0:
257,191,20763,1,0,0:0:0:0:
257,191,20842,1,8,0:0:0:0:
257,191,21000,1,0,0:0:0:0:
257,191,21316,1,8,0:0:0:0:
257,191,21632,1,0,0:0:0:0:
257,191,21790,1,8,0:0:0:0:
257,191,21869,1,8,0:0:0:0:
257,191,21948,1,8,0:0:0:0:
257,191,22106,1,0,0:0:0:0:
257,191,22263,1,8,0:0:0:0:
257,191,22579,1,8,0:0:0:0:
257,191,22737,1,0,0:0:0:0:
257,191,22816,1,0,0:0:0:0:
257,191,22895,1,8,0:0:0:0:
257,191,23053,1,0,0:0:0:0:
257,191,23211,1,8,0:0:0:0:
257,191,23369,1,8,0:0:0:0:
257,191,23527,1,4,0:0:0:0:
257,191,23842,1,8,0:0:0:0:
257,191,24158,1,8,0:0:0:0:
257,191,24316,1,0,0:0:0:0:
257,191,24395,1,0,0:0:0:0:
257,191,24474,1,8,0:0:0:0:
257,191,24632,1,0,0:0:0:0:
257,191,24790,1,8,0:0:0:0:
257,191,25106,1,8,0:0:0:0:
257,191,25263,1,0,0:0:0:0:
257,191,25342,1,0,0:0:0:0:
257,191,25421,1,0,0:0:0:0:
257,191,25579,1,8,0:0:0:0:
257,191,25737,1,0,0:0:0:0:
257,191,25816,1,8,0:0:0:0:
257,191,25895,1,0,0:0:0:0:
257,191,26053,1,8,0:0:0:0:
257,191,26369,1,8,0:0:0:0:
257,191,26685,1,0,0:0:0:0:
257,191,26842,1,8,0:0:0:0:
257,191,26921,1,8,0:0:0:0:
257,191,27000,1,0,0:0:0:0:
257,191,27158,1,8,0:0:0:0:
257,191,27316,1,0,0:0:0:0:
257,191,27632,1,8,0:0:0:0:
257,191,27790,1,0,0:0:0:0:
257,191,27869,1,0,0:0:0:0:
257,191,27948,1,8,0:0:0:0:
257,191,28106,1,0,0:0:0:0:
257,191,28263,1,8,0:0:0:0:
257,191,28421,1,8,0:0:0:0:
257,191,28579,1,4,0:0:0:0:
257,191,28896,1,8,0:0:0:0:
257,191,29212,1,0,0:0:0:0:
257,191,29369,1,8,0:0:0:0:
257,191,29448,1,8,0:0:0:0:
257,191,29527,1,0,0:0:0:0:
257,191,29685,1,0,0:0:0:0:
257,191,29843,1,8,0:0:0:0:
257,191,30159,1,8,0:0:0:0:
257,191,30317,1,0,0:0:0:0:
257,191,30396,1,0,0:0:0:0:
257,191,30475,1,8,0:0:0:0:
257,191,30633,1,0,0:0:0:0:
257,191,30791,1,8,0:0:0:0:
257,191,30869,1,0,0:0:0:0:
257,191,30948,1,8,0:0:0:0:
257,191,31106,1,0,0:0:0:0:
257,191,31422,1,8,0:0:0:0:
257,191,31738,1,0,0:0:0:0:
257,191,31896,1,8,0:0:0:0:
257,191,31975,1,8,0:0:0:0:
257,191,32054,1,8,0:0:0:0:
257,191,32212,1,0,0:0:0:0:
257,191,32369,1,8,0:0:0:0:
257,191,32685,1,8,0:0:0:0:
257,191,32843,1,0,0:0:0:0:
257,191,32922,1,0,0:0:0:0:
257,191,33001,1,8,0:0:0:0:
257,191,33159,1,0,0:0:0:0:
257,191,33317,1,8,0:0:0:0:
257,191,33475,1,8,0:0:0:0:
257,191,33633,1,4,0:0:0:0:
257,191,33948,1,8,0:0:0:0:
257,191,34264,1,8,0:0:0:0:
257,191,34422,1,0,0:0:0:0:
257,191,34501,1,0,0:0:0:0:
257,191,34580,1,8,0:0:0:0:
257,191,34738,1,0,0:0:0:0:
257,191,34896,1,8,0:0:0:0:
257,191,35212,1,8,0:0:0:0:
257,191,35369,1,0,0:0:0:0:
257,191,35448,1,0,0:0:0:0:
257,191,35527,1,0,0:0:0:0:
257,191,35685,1,8,0:0:0:0:
257,191,35843,1,0,0:0:0:0:
257,191,35922,1,8,0:0:0:0:
257,191,36001,1,0,0:0:0:0:
257,191,36159,1,8,0:0:0:0:
257,191,36475,1,8,0:0:0:0:
257,191,36791,1,0,0:0:0:0:
257,191,36948,1,8,0:0:0:0:
257,191,37027,1,8,0:0:0:0:
257,191,37106,1,0,0:0:0:0:
257,191,37264,1,8,0:0:0:0:
257,191,37422,1,0,0:0:0:0:
257,191,37738,1,12,0:0:0:0:
257,191,38054,1,8,0:0:0:0:
257,191,38212,1,0,0:0:0:0:
257,191,38290,1,0,0:0:0:0:
257,191,38369,1,8,0:0:0:0:
257,191,38527,1,8,0:0:0:0:
257,191,38685,1,4,0:0:0:0:
256,192,39001,1,2,0:0:0:0:
256,192,39317,1,0,0:0:0:0:
256,192,39475,1,0,0:0:0:0:
256,192,39632,1,2,0:0:0:0:
256,192,39790,1,2,0:0:0:0:
256,192,39948,1,0,0:0:0:0:
256,192,40264,1,2,0:0:0:0:
256,192,40580,1,0,0:0:0:0:
256,192,40738,1,0,0:0:0:0:
256,192,40896,1,2,0:0:0:0:
256,192,41211,1,0,0:0:0:0:
256,192,41527,1,2,0:0:0:0:
256,192,41843,1,0,0:0:0:0:
256,192,42001,1,2,0:0:0:0:
256,192,42159,1,0,0:0:0:0:
256,192,42475,1,2,0:0:0:0:
256,192,42790,1,2,0:0:0:0:
256,192,43106,1,0,0:0:0:0:
256,192,43264,1,0,0:0:0:0:
256,192,43422,1,2,0:0:0:0:
256,192,43580,1,2,0:0:0:0:
256,192,43738,1,0,0:0:0:0:
256,192,44053,1,2,0:0:0:0:
256,192,44369,1,0,0:0:0:0:
256,192,44527,1,0,0:0:0:0:
256,192,44685,1,2,0:0:0:0:
256,192,45001,1,0,0:0:0:0:
256,192,45317,1,2,0:0:0:0:
256,192,45632,1,0,0:0:0:0:
256,192,45790,1,0,0:0:0:0:
256,192,45948,1,2,0:0:0:0:
256,192,46264,1,0,0:0:0:0:
256,192,46580,1,2,0:0:0:0:
256,192,46738,1,0,0:0:0:0:
256,192,46896,1,2,0:0:0:0:
256,192,47053,1,8,0:0:0:0:
256,192,47211,1,0,0:0:0:0:
256,192,47527,1,2,0:0:0:0:
256,192,47843,1,2,0:0:0:0:
256,192,48159,1,0,0:0:0:0:
256,192,48317,1,0,0:0:0:0:
256,192,48475,1,2,0:0:0:0:
256,192,48790,1,4,0:0:0:0:
256,192,49106,1,2,0:0:0:0:
256,192,49264,1,2,0:0:0:0:
256,192,49422,1,0,0:0:0:0:
256,192,49580,1,0,0:0:0:0:
256,192,49738,1,2,0:0:0:0:
256,192,49896,1,0,0:0:0:0:
256,192,50053,1,2,0:0:0:0:
256,192,50369,1,2,0:0:0:0:
256,192,50685,1,0,0:0:0:0:
256,192,50843,1,0,0:0:0:0:
256,192,51001,1,2,0:0:0:0:
256,192,51317,1,0,0:0:0:0:
256,192,51632,1,2,0:0:0:0:
256,192,51790,1,0,0:0:0:0:
256,192,51948,1,2,0:0:0:0:
256,192,52106,1,2,0:0:0:0:
256,192,52264,1,0,0:0:0:0:
256,192,52422,1,0,0:0:0:0:
256,192,52580,1,2,0:0:0:0:
256,192,52896,1,2,0:0:0:0:
256,192,53211,1,0,0:0:0:0:
256,192,53369,1,0,0:0:0:0:
256,192,53527,1,2,0:0:0:0:
256,192,53685,1,2,0:0:0:0:
256,192,53843,1,0,0:0:0:0:
256,192,54159,1,2,0:0:0:0:
256,192,54475,1,2,0:0:0:0:
256,192,54632,1,0,0:0:0:0:
256,192,54790,1,2,0:0:0:0:
256,192,54948,1,2,0:0:0:0:
256,192,55106,1,0,0:0:0:0:
256,192,55422,1,2,0:0:0:0:
256,192,55738,1,0,0:0:0:0:
256,192,55896,1,0,0:0:0:0:
256,192,56053,1,2,0:0:0:0:
256,192,56369,1,2,0:0:0:0:
256,192,56527,1,0,0:0:0:0:
256,192,56685,1,8,0:0:0:0:
256,192,57001,1,0,0:0:0:0:
256,192,57159,1,0,0:0:0:0:
256,192,57317,1,2,0:0:0:0:
256,192,57475,1,0,0:0:0:0:
256,192,57632,1,2,0:0:0:0:
256,192,57948,1,2,0:0:0:0:
256,192,58106,1,0,0:0:0:0:
256,192,58264,1,2,0:0:0:0:
256,192,58343,1,2,0:0:0:0:
256,192,58422,1,0,0:0:0:0:
256,192,58501,1,0,0:0:0:0:
256,192,58580,1,2,0:0:0:0:
256,192,58738,1,2,0:0:0:0:
257,191,58896,1,4,0:0:0:0:
257,191,59212,1,8,0:0:0:0:
257,191,59370,1,0,0:0:0:0:
257,191,59528,1,8,0:0:0:0:
257,191,59607,1,8,0:0:0:0:
257,191,59686,1,0,0:0:0:0:
257,191,59844,1,8,0:0:0:0:
257,191,60160,1,8,0:0:0:0:
257,191,60318,1,8,0:0:0:0:
257,191,60475,1,0,0:0:0:0:
257,191,60554,1,0,0:0:0:0:
257,191,60633,1,8,0:0:0:0:
257,191,60791,1,8,0:0:0:0:
257,191,60949,1,0,0:0:0:0:
257,191,61107,1,8,0:0:0:0:
257,191,61186,1,8,0:0:0:0:
257,191,61265,1,0,0:0:0:0:
257,191,61423,1,8,0:0:0:0:
257,191,61739,1,8,0:0:0:0:
257,191,61896,1,8,0:0:0:0:
257,191,62054,1,0,0:0:0:0:
257,191,62133,1,0,0:0:0:0:
257,191,62212,1,8,0:0:0:0:
257,191,62370,1,0,0:0:0:0:
257,191,62686,1,0,0:0:0:0:
257,191,62844,1,0,0:0:0:0:
257,191,63002,1,8,0:0:0:0:
257,191,63081,1,0,0:0:0:0:
257,191,63160,1,8,0:0:0:0:
257,191,63239,1,8,0:0:0:0:
257,191,63318,1,0,0:0:0:0:
257,191,63475,1,0,0:0:0:0:
257,191,63633,1,8,0:0:0:0:
257,191,63949,1,4,0:0:0:0:
257,191,64265,1,8,0:0:0:0:
257,191,64423,1,8,0:0:0:0:
257,191,64581,1,0,0:0:0:0:
257,191,64660,1,0,0:0:0:0:
257,191,64739,1,8,0:0:0:0:
257,191,64896,1,0,0:0:0:0:
257,191,65212,1,8,0:0:0:0:
257,191,65370,1,0,0:0:0:0:
257,191,65528,1,8,0:0:0:0:
257,191,65607,1,8,0:0:0:0:
257,191,65686,1,0,0:0:0:0:
257,191,65765,1,0,0:0:0:0:
257,191,65844,1,8,0:0:0:0:
257,191,66002,1,8,0:0:0:0:
257,191,66160,1,0,0:0:0:0:
257,191,66239,1,0,0:0:0:0:
257,191,66318,1,0,0:0:0:0:
257,191,66475,1,8,0:0:0:0:
257,191,66791,1,8,0:0:0:0:
257,191,66949,1,0,0:0:0:0:
257,191,67107,1,8,0:0:0:0:
257,191,67186,1,8,0:0:0:0:
257,191,67265,1,0,0:0:0:0:
257,191,67423,1,8,0:0:0:0:
257,191,67581,1,8,0:0:0:0:
257,191,67739,1,0,0:0:0:0:
257,191,68054,1,0,0:0:0:0:
257,191,68212,1,8,0:0:0:0:
257,191,68370,1,0,0:0:0:0:
257,191,68449,1,8,0:0:0:0:
257,191,68528,1,0,0:0:0:0:
257,191,68686,1,12,0:0:0:0:
257,191,69002,1,4,0:0:0:0:
257,191,69318,1,8,0:0:0:0:
257,191,69475,1,0,0:0:0:0:
257,191,69633,1,8,0:0:0:0:
257,191,69712,1,8,0:0:0:0:
257,191,69791,1,0,0:0:0:0:
257,191,69949,1,8,0:0:0:0:
257,191,70265,1,0,0:0:0:0:
257,191,70423,1,0,0:0:0:0:
257,191,70581,1,8,0:0:0:0:
257,191,70660,1,8,0:0:0:0:
257,191,70739,1,0,0:0:0:0:
257,191,70896,1,8,0:0:0:0:
257,191,71054,1,8,0:0:0:0:
257,191,71212,1,0,0:0:0:0:
257,191,71291,1,0,0:0:0:0:
257,191,71370,1,0,0:0:0:0:
257,191,71528,1,8,0:0:0:0:
257,191,71844,1,8,0:0:0:0:
257,191,72002,1,0,0:0:0:0:
257,191,72160,1,8,0:0:0:0:
257,191,72239,1,8,0:0:0:0:
257,191,72318,1,8,0:0:0:0:
257,191,72475,1,0,0:0:0:0:
257,191,72791,1,0,0:0:0:0:
257,191,72949,1,8,0:0:0:0:
257,191,73107,1,0,0:0:0:0:
257,191,73186,1,0,0:0:0:0:
257,191,73265,1,8,0:0:0:0:
257,191,73344,1,0,0:0:0:0:
257,191,73423,1,8,0:0:0:0:
257,191,73581,1,0,0:0:0:0:
257,191,73739,1,8,0:0:0:0:
257,191,74054,1,4,0:0:0:0:
257,191,74370,1,0,0:0:0:0:
257,191,74528,1,8,0:0:0:0:
257,191,74686,1,0,0:0:0:0:
257,191,74765,1,0,0:0:0:0:
257,191,74844,1,0,0:0:0:0:
257,191,75002,1,8,0:0:0:0:
257,191,75160,1,0,0:0:0:0:
257,191,75318,1,8,0:0:0:0:
257,191,75396,1,8,0:0:0:0:
257,191,75475,1,0,0:0:0:0:
257,191,75554,1,0,0:0:0:0:
257,191,75633,1,8,0:0:0:0:
257,191,75791,1,8,0:0:0:0:
257,191,75949,1,0,0:0:0:0:
257,191,76107,1,0,0:0:0:0:
257,191,76265,1,8,0:0:0:0:
257,191,76581,1,8,0:0:0:0:
257,191,76739,1,0,0:0:0:0:
257,191,76818,1,0,0:0:0:0:
257,191,76896,1,8,0:0:0:0:
257,191,77054,1,0,0:0:0:0:
257,191,77212,1,8,0:0:0:0:
257,191,77528,1,8,0:0:0:0:
257,191,77686,1,0,0:0:0:0:
257,191,77844,1,8,0:0:0:0:
257,191,77923,1,8,0:0:0:0:
257,191,78002,1,0,0:0:0:0:
257,191,78160,1,8,0:0:0:0:
257,191,78318,1,0,0:0:0:0:
257,191,78475,1,8,0:0:0:0:
257,191,78554,1,8,0:0:0:0:
257,191,78633,1,8,0:0:0:0:
257,191,78712,1,8,0:0:0:0:
257,191,78791,1,0,0:0:0:0:
257,191,78949,1,8,0:0:0:0:
257,191,79107,1,4,0:0:0:0:
257,191,79422,1,8,0:0:0:0:
257,191,79738,1,0,0:0:0:0:
257,191,79895,1,8,0:0:0:0:
257,191,79974,1,8,0:0:0:0:
257,191,80053,1,0,0:0:0:0:
257,191,80211,1,0,0:0:0:0:
257,191,80369,1,8,0:0:0:0:
257,191,80685,1,8,0:0:0:0:
257,191,80843,1,0,0:0:0:0:
257,191,80922,1,0,0:0:0:0:
257,191,81001,1,8,0:0:0:0:
257,191,81159,1,0,0:0:0:0:
257,191,81317,1,8,0:0:0:0:
257,191,81395,1,0,0:0:0:0:
257,191,81474,1,8,0:0:0:0:
257,191,81632,1,0,0:0:0:0:
257,191,81948,1,8,0:0:0:0:
257,191,82264,1,0,0:0:0:0:
257,191,82422,1,8,0:0:0:0:
257,191,82501,1,8,0:0:0:0:
257,191,82580,1,8,0:0:0:0:
257,191,82738,1,0,0:0:0:0:
257,191,82895,1,8,0:0:0:0:
257,191,83211,1,8,0:0:0:0:
257,191,83369,1,0,0:0:0:0:
257,191,83448,1,0,0:0:0:0:
257,191,83527,1,8,0:0:0:0:
257,191,83685,1,0,0:0:0:0:
257,191,83843,1,8,0:0:0:0:
257,191,84001,1,8,0:0:0:0:
257,191,84159,1,4,0:0:0:0:
257,191,84474,1,8,0:0:0:0:
257,191,84790,1,8,0:0:0:0:
257,191,84948,1,0,0:0:0:0:
257,191,85027,1,0,0:0:0:0:
257,191,85106,1,8,0:0:0:0:
257,191,85264,1,0,0:0:0:0:
257,191,85422,1,8,0:0:0:0:
257,191,85738,1,8,0:0:0:0:
257,191,85895,1,0,0:0:0:0:
257,191,85974,1,0,0:0:0:0:
257,191,86053,1,0,0:0:0:0:
257,191,86211,1,8,0:0:0:0:
257,191,86369,1,0,0:0:0:0:
257,191,86448,1,8,0:0:0:0:
257,191,86527,1,0,0:0:0:0:
257,191,86685,1,8,0:0:0:0:
257,191,87001,1,8,0:0:0:0:
257,191,87317,1,0,0:0:0:0:
257,191,87474,1,8,0:0:0:0:
257,191,87553,1,8,0:0:0:0:
257,191,87632,1,0,0:0:0:0:
257,191,87790,1,8,0:0:0:0:
257,191,87948,1,0,0:0:0:0:
257,191,88106,1,8,0:0:0:0:
257,191,88185,1,0,0:0:0:0:
257,191,88264,1,8,0:0:0:0:
257,191,88422,1,0,0:0:0:0:
257,191,88580,1,8,0:0:0:0:
257,191,88738,1,0,0:0:0:0:
257,191,88817,1,0,0:0:0:0:
257,191,88895,1,8,0:0:0:0:
257,191,89053,1,8,0:0:0:0:
257,191,89211,1,4,0:0:0:0:
256,192,89527,1,2,0:0:0:0:
256,192,89843,1,0,0:0:0:0:
256,192,90001,1,0,0:0:0:0:
256,192,90158,1,2,0:0:0:0:
256,192,90316,1,2,0:0:0:0:
256,192,90474,1,0,0:0:0:0:
256,192,90790,1,2,0:0:0:0:
256,192,90948,1,8,0:0:0:0:
256,192,91106,1,0,0:0:0:0:
256,192,91185,1,0,0:0:0:0:
256,192,91264,1,0,0:0:0:0:
256,192,91422,1,2,0:0:0:0:
256,192,91737,1,0,0:0:0:0:
256,192,91896,1,0,0:0:0:0:
256,192,92053,1,2,0:0:0:0:
256,192,92211,1,8,0:0:0:0:
256,192,92369,1,0,0:0:0:0:
256,192,92527,1,2,0:0:0:0:
256,192,92685,1,0,0:0:0:0:
256,192,93001,1,2,0:0:0:0:
256,192,93316,1,2,0:0:0:0:
256,192,93475,1,0,0:0:0:0:
256,192,93632,1,8,0:0:0:0:
256,192,93711,1,8,0:0:0:0:
256,192,93790,1,0,0:0:0:0:
256,192,93948,1,2,0:0:0:0:
256,192,94106,1,2,0:0:0:0:
256,192,94264,1,0,0:0:0:0:
256,192,94579,1,2,0:0:0:0:
256,192,94895,1,0,0:0:0:0:
256,192,95053,1,0,0:0:0:0:
256,192,95211,1,2,0:0:0:0:
256,192,95369,1,8,0:0:0:0:
256,192,95527,1,0,0:0:0:0:
256,192,95843,1,2,0:0:0:0:
256,192,96158,1,0,0:0:0:0:
256,192,96316,1,0,0:0:0:0:
256,192,96474,1,2,0:0:0:0:
256,192,96790,1,8,0:0:0:0:
256,192,96948,1,0,0:0:0:0:
256,192,97106,1,2,0:0:0:0:
256,192,97264,1,0,0:0:0:0:
256,192,97422,1,2,0:0:0:0:
256,192,97579,1,8,0:0:0:0:
256,192,97737,1,0,0:0:0:0:
256,192,97896,1,0,0:0:0:0:
256,192,98053,1,2,0:0:0:0:
256,192,98369,1,2,0:0:0:0:
256,192,98685,1,0,0:0:0:0:
256,192,98843,1,0,0:0:0:0:
256,192,99001,1,2,0:0:0:0:
256,192,99316,1,4,0:0:0:0:
256,192,99632,1,2,0:0:0:0:
256,192,99790,1,2,0:0:0:0:
256,192,99948,1,0,0:0:0:0:
256,192,100027,1,0,0:0:0:0:
256,192,100106,1,8,0:0:0:0:
256,192,100264,1,2,0:0:0:0:
256,192,100422,1,0,0:0:0:0:
256,192,100579,1,2,0:0:0:0:
256,192,100895,1,2,0:0:0:0:
256,192,101211,1,0,0:0:0:0:
256,192,101369,1,0,0:0:0:0:
256,192,101527,1,2,0:0:0:0:
256,192,101843,1,0,0:0:0:0:
256,192,102001,1,0,0:0:0:0:
256,192,102158,1,2,0:0:0:0:
256,192,102316,1,0,0:0:0:0:
256,192,102474,1,2,0:0:0:0:
256,192,102553,1,8,0:0:0:0:
256,192,102632,1,0,0:0:0:0:
256,192,102790,1,2,0:0:0:0:
256,192,102948,1,0,0:0:0:0:
256,192,103106,1,2,0:0:0:0:
256,192,103422,1,2,0:0:0:0:
256,192,103737,1,0,0:0:0:0:
256,192,103895,1,0,0:0:0:0:
256,192,104053,1,2,0:0:0:0:
256,192,104211,1,0,0:0:0:0:
256,192,104369,1,2,0:0:0:0:
256,192,104685,1,2,0:0:0:0:
256,192,105001,1,0,0:0:0:0:
256,192,105158,1,0,0:0:0:0:
256,192,105316,1,2,0:0:0:0:
256,192,105396,1,2,0:0:0:0:
256,192,105474,1,2,0:0:0:0:
256,192,105632,1,0,0:0:0:0:
256,192,105948,1,2,0:0:0:0:
256,192,106106,1,2,0:0:0:0:
256,192,106264,1,0,0:0:0:0:
256,192,106422,1,0,0:0:0:0:
256,192,106579,1,2,0:0:0:0:
255,192,106896,1,4,0:0:0:0:
255,192,107053,1,4,0:0:0:0:
255,192,107843,1,4,0:0:0:0:
255,192,108001,1,4,0:0:0:0:
255,192,108790,1,8,0:0:0:0:
255,192,108869,1,0,0:0:0:0:
255,192,108948,1,0,0:0:0:0:
255,192,109027,1,0,0:0:0:0:
255,192,109106,1,8,0:0:0:0:
255,192,109264,1,8,0:0:0:0:
257,191,109422,1,4,0:0:0:0:
257,191,109738,1,8,0:0:0:0:
257,191,109896,1,0,0:0:0:0:
257,191,110054,1,8,0:0:0:0:
257,191,110133,1,8,0:0:0:0:
257,191,110212,1,0,0:0:0:0:
257,191,110370,1,8,0:0:0:0:
257,191,110686,1,8,0:0:0:0:
257,191,110844,1,8,0:0:0:0:
257,191,111001,1,0,0:0:0:0:
257,191,111080,1,0,0:0:0:0:
257,191,111159,1,8,0:0:0:0:
257,191,111317,1,8,0:0:0:0:
257,191,111475,1,0,0:0:0:0:
257,191,111633,1,8,0:0:0:0:
257,191,111712,1,8,0:0:0:0:
257,191,111791,1,0,0:0:0:0:
257,191,111949,1,8,0:0:0:0:
257,191,112265,1,8,0:0:0:0:
257,191,112422,1,8,0:0:0:0:
257,191,112580,1,0,0:0:0:0:
257,191,112659,1,0,0:0:0:0:
257,191,112738,1,8,0:0:0:0:
257,191,112896,1,0,0:0:0:0:
257,191,113212,1,0,0:0:0:0:
257,191,113370,1,0,0:0:0:0:
257,191,113528,1,8,0:0:0:0:
257,191,113607,1,0,0:0:0:0:
257,191,113686,1,8,0:0:0:0:
257,191,113765,1,8,0:0:0:0:
257,191,113844,1,0,0:0:0:0:
257,191,114001,1,0,0:0:0:0:
257,191,114159,1,8,0:0:0:0:
257,191,114475,1,4,0:0:0:0:
257,191,114791,1,8,0:0:0:0:
257,191,114949,1,8,0:0:0:0:
257,191,115107,1,0,0:0:0:0:
257,191,115186,1,0,0:0:0:0:
257,191,115265,1,8,0:0:0:0:
257,191,115422,1,0,0:0:0:0:
257,191,115738,1,8,0:0:0:0:
257,191,115896,1,0,0:0:0:0:
257,191,116054,1,8,0:0:0:0:
257,191,116133,1,8,0:0:0:0:
257,191,116212,1,0,0:0:0:0:
257,191,116291,1,0,0:0:0:0:
257,191,116370,1,8,0:0:0:0:
257,191,116528,1,8,0:0:0:0:
257,191,116686,1,0,0:0:0:0:
257,191,116765,1,0,0:0:0:0:
257,191,116844,1,0,0:0:0:0:
257,191,117001,1,8,0:0:0:0:
257,191,117317,1,8,0:0:0:0:
257,191,117475,1,0,0:0:0:0:
257,191,117633,1,8,0:0:0:0:
257,191,117712,1,8,0:0:0:0:
257,191,117791,1,0,0:0:0:0:
257,191,117949,1,8,0:0:0:0:
257,191,118107,1,8,0:0:0:0:
257,191,118265,1,0,0:0:0:0:
257,191,118580,1,0,0:0:0:0:
257,191,118738,1,8,0:0:0:0:
257,191,118896,1,0,0:0:0:0:
257,191,118975,1,8,0:0:0:0:
257,191,119054,1,0,0:0:0:0:
257,191,119212,1,12,0:0:0:0:
257,191,119528,1,4,0:0:0:0:
257,191,119844,1,8,0:0:0:0:
257,191,120001,1,0,0:0:0:0:
257,191,120159,1,8,0:0:0:0:
257,191,120238,1,8,0:0:0:0:
257,191,120317,1,0,0:0:0:0:
257,191,120475,1,8,0:0:0:0:
257,191,120791,1,0,0:0:0:0:
257,191,120949,1,0,0:0:0:0:
257,191,121107,1,8,0:0:0:0:
257,191,121186,1,8,0:0:0:0:
257,191,121265,1,0,0:0:0:0:
257,191,121422,1,8,0:0:0:0:
257,191,121580,1,8,0:0:0:0:
257,191,121738,1,0,0:0:0:0:
257,191,121817,1,0,0:0:0:0:
257,191,121896,1,0,0:0:0:0:
257,191,122054,1,8,0:0:0:0:
257,191,122370,1,8,0:0:0:0:
257,191,122528,1,0,0:0:0:0:
257,191,122686,1,8,0:0:0:0:
257,191,122765,1,8,0:0:0:0:
257,191,122844,1,8,0:0:0:0:
257,191,123001,1,0,0:0:0:0:
257,191,123317,1,0,0:0:0:0:
257,191,123475,1,8,0:0:0:0:
257,191,123633,1,0,0:0:0:0:
257,191,123712,1,0,0:0:0:0:
257,191,123791,1,8,0:0:0:0:
257,191,123870,1,0,0:0:0:0:
257,191,123949,1,8,0:0:0:0:
257,191,124107,1,0,0:0:0:0:
257,191,124265,1,8,0:0:0:0:
257,191,124580,1,4,0:0:0:0:
257,191,124896,1,0,0:0:0:0:
257,191,125054,1,8,0:0:0:0:
257,191,125212,1,0,0:0:0:0:
257,191,125291,1,0,0:0:0:0:
257,191,125370,1,0,0:0:0:0:
257,191,125528,1,8,0:0:0:0:
257,191,125686,1,0,0:0:0:0:
257,191,125844,1,8,0:0:0:0:
257,191,125922,1,8,0:0:0:0:
257,191,126001,1,0,0:0:0:0:
257,191,126080,1,0,0:0:0:0:
257,191,126159,1,8,0:0:0:0:
257,191,126317,1,8,0:0:0:0:
257,191,126475,1,0,0:0:0:0:
257,191,126633,1,0,0:0:0:0:
257,191,126791,1,8,0:0:0:0:
257,191,127107,1,8,0:0:0:0:
257,191,127265,1,0,0:0:0:0:
257,191,127344,1,0,0:0:0:0:
257,191,127422,1,8,0:0:0:0:
257,191,127580,1,0,0:0:0:0:
257,191,127738,1,8,0:0:0:0:
257,191,127896,1,0,0:0:0:0:
257,191,128054,1,8,0:0:0:0:
257,191,128212,1,8,0:0:0:0:
257,191,128370,1,0,0:0:0:0:
257,191,128449,1,0,0:0:0:0:
257,191,128528,1,0,0:0:0:0:
257,191,128686,1,12,0:0:0:0:
257,191,129001,1,0,0:0:0:0:
257,191,129080,1,0,0:0:0:0:
257,191,129159,1,8,0:0:0:0:
257,191,129238,1,8,0:0:0:0:
257,191,129317,1,0,0:0:0:0:
257,191,129475,1,8,0:0:0:0:
257,191,129633,1,4,0:0:0:0:
257,191,129948,1,0,0:0:0:0:
257,191,130106,1,8,0:0:0:0:
257,191,130264,1,0,0:0:0:0:
257,191,130343,1,0,0:0:0:0:
257,191,130422,1,0,0:0:0:0:
257,191,130580,1,8,0:0:0:0:
257,191,130896,1,8,0:0:0:0:
257,191,131053,1,0,0:0:0:0:
257,191,131211,1,8,0:0:0:0:
257,191,131369,1,8,0:0:0:0:
257,191,131527,1,0,0:0:0:0:
257,191,131606,1,0,0:0:0:0:
257,191,131685,1,8,0:0:0:0:
257,191,131843,1,8,0:0:0:0:
257,191,132001,1,0,0:0:0:0:
257,191,132159,1,8,0:0:0:0:
257,191,132475,1,8,0:0:0:0:
257,191,132632,1,0,0:0:0:0:
257,191,132790,1,8,0:0:0:0:
257,191,132869,1,8,0:0:0:0:
257,191,132948,1,0,0:0:0:0:
257,191,133106,1,8,0:0:0:0:
257,191,133422,1,8,0:0:0:0:
257,191,133580,1,0,0:0:0:0:
257,191,133738,1,8,0:0:0:0:
257,191,133896,1,0,0:0:0:0:
257,191,133975,1,0,0:0:0:0:
257,191,134053,1,8,0:0:0:0:
257,191,134211,1,0,0:0:0:0:
257,191,134290,1,8,0:0:0:0:
257,191,134369,1,0,0:0:0:0:
257,191,134527,1,8,0:0:0:0:
257,191,134685,1,4,0:0:0:0:
257,191,135001,1,8,0:0:0:0:
257,191,135159,1,0,0:0:0:0:
257,191,135317,1,8,0:0:0:0:
257,191,135396,1,8,0:0:0:0:
257,191,135475,1,0,0:0:0:0:
257,191,135632,1,8,0:0:0:0:
257,191,135790,1,8,0:0:0:0:
257,191,135948,1,0,0:0:0:0:
257,191,136264,1,0,0:0:0:0:
257,191,136422,1,8,0:0:0:0:
257,191,136580,1,0,0:0:0:0:
257,191,136738,1,0,0:0:0:0:
257,191,136896,1,8,0:0:0:0:
257,191,137053,1,0,0:0:0:0:
257,191,137211,1,8,0:0:0:0:
257,191,137290,1,0,0:0:0:0:
257,191,137369,1,8,0:0:0:0:
257,191,137527,1,0,0:0:0:0:
257,191,137685,1,8,0:0:0:0:
257,191,138001,1,0,0:0:0:0:
257,191,138159,1,8,0:0:0:0:
257,191,138238,1,0,0:0:0:0:
257,191,138317,1,8,0:0:0:0:
257,191,138396,1,8,0:0:0:0:
257,191,138475,1,0,0:0:0:0:
257,191,138632,1,0,0:0:0:0:
257,191,138790,1,8,0:0:0:0:
257,191,139106,1,0,0:0:0:0:
257,191,139264,1,0,0:0:0:0:
257,191,139422,1,8,0:0:0:0:
257,191,139580,1,8,0:0:0:0:
257,191,139738,1,4,0:0:0:0:
257,191,140053,1,8,0:0:0:0:
257,191,140211,1,8,0:0:0:0:
257,191,140369,1,0,0:0:0:0:
257,191,140448,1,0,0:0:0:0:
257,191,140527,1,0,0:0:0:0:
257,191,140685,1,8,0:0:0:0:
257,191,141001,1,0,0:0:0:0:
257,191,141159,1,0,0:0:0:0:
257,191,141317,1,8,0:0:0:0:
257,191,141475,1,8,0:0:0:0:
257,191,141632,1,0,0:0:0:0:
257,191,141711,1,8,0:0:0:0:
257,191,141790,1,0,0:0:0:0:
257,191,141948,1,8,0:0:0:0:
257,191,142106,1,8,0:0:0:0:
257,191,142264,1,0,0:0:0:0:
257,191,142580,1,8,0:0:0:0:
257,191,142738,1,0,0:0:0:0:
257,191,142896,1,8,0:0:0:0:
257,191,142975,1,8,0:0:0:0:
257,191,143053,1,0,0:0:0:0:
257,191,143211,1,8,0:0:0:0:
257,191,143527,1,8,0:0:0:0:
257,191,143685,1,0,0:0:0:0:
257,191,143843,1,8,0:0:0:0:
257,191,144001,1,0,0:0:0:0:
257,191,144080,1,0,0:0:0:0:
257,191,144159,1,0,0:0:0:0:
257,191,144317,1,8,0:0:0:0:
257,191,144396,1,8,0:0:0:0:
257,191,144475,1,0,0:0:0:0:
257,191,144632,1,8,0:0:0:0:
257,191,144790,1,4,0:0:0:0:
257,191,145106,1,8,0:0:0:0:
257,191,145264,1,0,0:0:0:0:
257,191,145422,1,8,0:0:0:0:
257,191,145580,1,8,0:0:0:0:
257,191,145738,1,0,0:0:0:0:
257,191,145817,1,0,0:0:0:0:
257,191,145896,1,8,0:0:0:0:
257,191,146053,1,0,0:0:0:0:
257,191,146369,1,0,0:0:0:0:
257,191,146527,1,8,0:0:0:0:
257,191,146606,1,8,0:0:0:0:
257,191,146685,1,0,0:0:0:0:
257,191,146843,1,0,0:0:0:0:
257,191,147001,1,8,0:0:0:0:
257,191,147159,1,0,0:0:0:0:
257,191,147317,1,8,0:0:0:0:
257,191,147632,1,0,0:0:0:0:
257,191,147790,1,8,0:0:0:0:
257,191,147869,1,8,0:0:0:0:
257,191,147948,1,8,0:0:0:0:
257,191,148106,1,0,0:0:0:0:
257,191,148264,1,8,0:0:0:0:
257,191,148343,1,8,0:0:0:0:
257,191,148422,1,8,0:0:0:0:
257,191,148501,1,8,0:0:0:0:
257,191,148580,1,0,0:0:0:0:
257,191,148738,1,0,0:0:0:0:
257,191,148896,1,12,0:0:0:0:
257,191,149211,1,0,0:0:0:0:
257,191,149290,1,0,0:0:0:0:
257,191,149369,1,8,0:0:0:0:
257,191,149448,1,8,0:0:0:0:
257,191,149527,1,0,0:0:0:0:
257,191,149685,1,8,0:0:0:0:
257,191,149843,1,4,0:0:0:0:
257,191,159948,5,4,0:0:0:0:
257,191,160264,1,0,0:0:0:0:
257,191,160580,1,8,0:0:0:0:
257,191,160896,1,0,0:0:0:0:
257,191,161211,1,8,0:0:0:0:
257,191,161369,1,8,0:0:0:0:
257,191,161527,1,0,0:0:0:0:
257,191,161843,1,8,0:0:0:0:
257,191,162159,1,0,0:0:0:0:
257,191,162475,1,8,0:0:0:0:
257,191,162790,1,0,0:0:0:0:
257,191,163106,1,8,0:0:0:0:
257,191,163422,1,0,0:0:0:0:
257,191,163738,1,8,0:0:0:0:
257,191,163896,1,8,0:0:0:0:
257,191,164053,1,0,0:0:0:0:
257,191,164369,1,8,0:0:0:0:
257,191,164685,1,8,0:0:0:0:
257,191,165001,1,0,0:0:0:0:
257,191,165317,1,0,0:0:0:0:
257,191,165632,1,8,0:0:0:0:
257,191,165948,1,0,0:0:0:0:
257,191,166264,1,8,0:0:0:0:
257,191,166580,1,8,0:0:0:0:
257,191,166896,1,0,0:0:0:0:
257,191,167211,1,0,0:0:0:0:
257,191,167527,1,12,0:0:0:0:
257,191,168790,1,0,0:0:0:0:
257,191,168948,1,0,0:0:0:0:
257,191,169106,1,8,0:0:0:0:
257,191,169264,1,8,0:0:0:0:
257,191,169422,1,0,0:0:0:0:
257,191,169501,1,0,0:0:0:0:
257,191,169580,1,0,0:0:0:0:
257,191,169659,1,0,0:0:0:0:
257,191,169738,1,8,0:0:0:0:
257,191,169896,1,8,0:0:0:0:
257,191,170053,1,4,0:0:0:0:
257,191,170369,1,8,0:0:0:0:
257,191,170527,1,0,0:0:0:0:
257,191,170685,1,8,0:0:0:0:
257,191,170764,1,8,0:0:0:0:
257,191,170843,1,0,0:0:0:0:
257,191,171001,1,8,0:0:0:0:
257,191,171317,1,8,0:0:0:0:
257,191,171475,1,8,0:0:0:0:
257,191,171632,1,0,0:0:0:0:
257,191,171711,1,0,0:0:0:0:
257,191,171790,1,8,0:0:0:0:
257,191,171948,1,8,0:0:0:0:
257,191,172106,1,0,0:0:0:0:
257,191,172264,1,8,0:0:0:0:
257,191,172343,1,8,0:0:0:0:
257,191,172422,1,0,0:0:0:0:
257,191,172580,1,8,0:0:0:0:
257,191,172896,1,8,0:0:0:0:
257,191,173053,1,8,0:0:0:0:
257,191,173211,1,0,0:0:0:0:
257,191,173290,1,0,0:0:0:0:
257,191,173369,1,8,0:0:0:0:
257,191,173527,1,0,0:0:0:0:
257,191,173843,1,0,0:0:0:0:
257,191,174001,1,0,0:0:0:0:
257,191,174159,1,8,0:0:0:0:
257,191,174238,1,0,0:0:0:0:
257,191,174317,1,8,0:0:0:0:
257,191,174396,1,8,0:0:0:0:
257,191,174475,1,0,0:0:0:0:
257,191,174632,1,0,0:0:0:0:
257,191,174790,1,8,0:0:0:0:
257,191,175106,1,4,0:0:0:0:
257,191,175422,1,8,0:0:0:0:
257,191,175580,1,8,0:0:0:0:
257,191,175738,1,0,0:0:0:0:
257,191,175817,1,0,0:0:0:0:
257,191,175896,1,8,0:0:0:0:
257,191,176053,1,0,0:0:0:0:
257,191,176369,1,8,0:0:0:0:
257,191,176527,1,0,0:0:0:0:
257,191,176685,1,8,0:0:0:0:
257,191,176764,1,8,0:0:0:0:
257,191,176843,1,0,0:0:0:0:
257,191,176922,1,0,0:0:0:0:
257,191,177001,1,8,0:0:0:0:
257,191,177159,1,8,0:0:0:0:
257,191,177317,1,0,0:0:0:0:
257,191,177396,1,0,0:0:0:0:
257,191,177475,1,0,0:0:0:0:
257,191,177632,1,8,0:0:0:0:
257,191,177948,1,8,0:0:0:0:
257,191,178106,1,0,0:0:0:0:
257,191,178264,1,8,0:0:0:0:
257,191,178343,1,8,0:0:0:0:
257,191,178422,1,0,0:0:0:0:
257,191,178580,1,8,0:0:0:0:
257,191,178738,1,8,0:0:0:0:
257,191,178896,1,0,0:0:0:0:
257,191,179211,1,0,0:0:0:0:
257,191,179369,1,8,0:0:0:0:
257,191,179527,1,0,0:0:0:0:
257,191,179606,1,8,0:0:0:0:
257,191,179685,1,0,0:0:0:0:
257,191,179843,1,12,0:0:0:0:
257,191,180159,1,4,0:0:0:0:
257,191,180475,1,8,0:0:0:0:
257,191,180632,1,0,0:0:0:0:
257,191,180790,1,8,0:0:0:0:
257,191,180869,1,8,0:0:0:0:
257,191,180948,1,0,0:0:0:0:
257,191,181106,1,8,0:0:0:0:
257,191,181422,1,0,0:0:0:0:
257,191,181580,1,0,0:0:0:0:
257,191,181738,1,8,0:0:0:0:
257,191,181817,1,8,0:0:0:0:
257,191,181896,1,0,0:0:0:0:
257,191,182053,1,8,0:0:0:0:
257,191,182211,1,8,0:0:0:0:
257,191,182369,1,0,0:0:0:0:
257,191,182448,1,0,0:0:0:0:
257,191,182527,1,0,0:0:0:0:
257,191,182685,1,8,0:0:0:0:
257,191,183001,1,8,0:0:0:0:
257,191,183159,1,0,0:0:0:0:
257,191,183317,1,8,0:0:0:0:
257,191,183396,1,8,0:0:0:0:
257,191,183475,1,8,0:0:0:0:
257,191,183632,1,0,0:0:0:0:
257,191,183948,1,0,0:0:0:0:
257,191,184106,1,8,0:0:0:0:
257,191,184264,1,0,0:0:0:0:
257,191,184343,1,0,0:0:0:0:
257,191,184422,1,8,0:0:0:0:
257,191,184501,1,0,0:0:0:0:
257,191,184580,1,8,0:0:0:0:
257,191,184738,1,0,0:0:0:0:
257,191,184896,1,8,0:0:0:0:
257,191,185211,1,4,0:0:0:0:
257,191,185527,1,0,0:0:0:0:
257,191,185685,1,8,0:0:0:0:
257,191,185843,1,0,0:0:0:0:
257,191,185922,1,0,0:0:0:0:
257,191,186001,1,0,0:0:0:0:
257,191,186159,1,8,0:0:0:0:
257,191,186317,1,0,0:0:0:0:
257,191,186475,1,8,0:0:0:0:
257,191,186553,1,8,0:0:0:0:
257,191,186632,1,0,0:0:0:0:
257,191,186711,1,0,0:0:0:0:
257,191,186790,1,8,0:0:0:0:
257,191,186948,1,8,0:0:0:0:
257,191,187106,1,0,0:0:0:0:
257,191,187264,1,0,0:0:0:0:
257,191,187422,1,8,0:0:0:0:
257,191,187738,1,8,0:0:0:0:
257,191,187896,1,0,0:0:0:0:
257,191,187975,1,0,0:0:0:0:
257,191,188053,1,8,0:0:0:0:
257,191,188211,1,0,0:0:0:0:
257,191,188369,1,8,0:0:0:0:
257,191,188685,1,8,0:0:0:0:
257,191,188843,1,0,0:0:0:0:
257,191,189001,1,8,0:0:0:0:
257,191,189080,1,8,0:0:0:0:
257,191,189159,1,0,0:0:0:0:
257,191,189317,1,8,0:0:0:0:
257,191,189475,1,0,0:0:0:0:
257,191,189632,1,8,0:0:0:0:
257,191,189711,1,8,0:0:0:0:
257,191,189790,1,8,0:0:0:0:
257,191,189869,1,8,0:0:0:0:
257,191,189948,1,0,0:0:0:0:
257,191,190106,1,8,0:0:0:0:
257,191,190264,1,4,0:0:0:0:
257,191,190580,1,8,0:0:0:0:
257,191,190896,1,0,0:0:0:0:
257,191,191053,1,8,0:0:0:0:
257,191,191132,1,8,0:0:0:0:
257,191,191211,1,0,0:0:0:0:
257,191,191369,1,0,0:0:0:0:
257,191,191527,1,8,0:0:0:0:
257,191,191843,1,8,0:0:0:0:
257,191,192001,1,0,0:0:0:0:
257,191,192080,1,0,0:0:0:0:
257,191,192159,1,8,0:0:0:0:
257,191,192317,1,0,0:0:0:0:
257,191,192475,1,8,0:0:0:0:
257,191,192553,1,0,0:0:0:0:
257,191,192632,1,8,0:0:0:0:
257,191,192790,1,0,0:0:0:0:
257,191,193106,1,8,0:0:0:0:
257,191,193422,1,0,0:0:0:0:
257,191,193580,1,8,0:0:0:0:
257,191,193659,1,8,0:0:0:0:
257,191,193738,1,8,0:0:0:0:
257,191,193896,1,0,0:0:0:0:
257,191,194053,1,8,0:0:0:0:
257,191,194369,1,8,0:0:0:0:
257,191,194527,1,0,0:0:0:0:
257,191,194606,1,0,0:0:0:0:
257,191,194685,1,8,0:0:0:0:
257,191,194843,1,0,0:0:0:0:
257,191,195001,1,8,0:0:0:0:
257,191,195159,1,8,0:0:0:0:
257,191,195317,1,4,0:0:0:0:
257,191,195632,1,8,0:0:0:0:
257,191,195948,1,8,0:0:0:0:
257,191,196106,1,0,0:0:0:0:
257,191,196185,1,0,0:0:0:0:
257,191,196264,1,8,0:0:0:0:
257,191,196422,1,0,0:0:0:0:
257,191,196580,1,8,0:0:0:0:
257,191,196896,1,8,0:0:0:0:
257,191,197053,1,0,0:0:0:0:
257,191,197132,1,0,0:0:0:0:
257,191,197211,1,0,0:0:0:0:
257,191,197369,1,8,0:0:0:0:
257,191,197527,1,0,0:0:0:0:
257,191,197606,1,8,0:0:0:0:
257,191,197685,1,0,0:0:0:0:
257,191,197843,1,8,0:0:0:0:
257,191,198159,1,8,0:0:0:0:
257,191,198475,1,0,0:0:0:0:
257,191,198632,1,8,0:0:0:0:
257,191,198711,1,8,0:0:0:0:
257,191,198790,1,0,0:0:0:0:
257,191,198948,1,8,0:0:0:0:
257,191,199106,1,0,0:0:0:0:
257,191,199422,1,8,0:0:0:0:
257,191,199580,1,0,0:0:0:0:
257,191,199659,1,0,0:0:0:0:
257,191,199738,1,8,0:0:0:0:
257,191,199896,1,0,0:0:0:0:
257,191,200053,1,8,0:0:0:0:
257,191,200211,1,8,0:0:0:0:
257,191,200369,1,4,0:0:0:0:
257,191,200685,1,8,0:0:0:0:
257,191,201001,1,0,0:0:0:0:
257,191,201158,1,8,0:0:0:0:
257,191,201237,1,8,0:0:0:0:
257,191,201316,1,0,0:0:0:0:
257,191,201474,1,0,0:0:0:0:
257,191,201632,1,8,0:0:0:0:
257,191,201948,1,8,0:0:0:0:
257,191,202106,1,0,0:0:0:0:
257,191,202185,1,0,0:0:0:0:
257,191,202264,1,8,0:0:0:0:
257,191,202422,1,0,0:0:0:0:
257,191,202580,1,8,0:0:0:0:
257,191,202658,1,0,0:0:0:0:
257,191,202737,1,8,0:0:0:0:
257,191,202895,1,0,0:0:0:0:
257,191,203211,1,8,0:0:0:0:
257,191,203527,1,0,0:0:0:0:
257,191,203685,1,8,0:0:0:0:
257,191,203764,1,8,0:0:0:0:
257,191,203843,1,8,0:0:0:0:
257,191,204001,1,0,0:0:0:0:
257,191,204158,1,8,0:0:0:0:
257,191,204474,1,8,0:0:0:0:
257,191,204632,1,0,0:0:0:0:
257,191,204711,1,0,0:0:0:0:
257,191,204790,1,8,0:0:0:0:
257,191,204948,1,0,0:0:0:0:
257,191,205106,1,8,0:0:0:0:
257,191,205264,1,8,0:0:0:0:
257,191,205422,1,4,0:0:0:0:
257,191,205737,1,8,0:0:0:0:
257,191,206053,1,8,0:0:0:0:
257,191,206211,1,0,0:0:0:0:
257,191,206290,1,0,0:0:0:0:
257,191,206369,1,8,0:0:0:0:
257,191,206527,1,0,0:0:0:0:
257,191,206685,1,8,0:0:0:0:
257,191,207001,1,8,0:0:0:0:
257,191,207158,1,0,0:0:0:0:
257,191,207237,1,0,0:0:0:0:
257,191,207316,1,0,0:0:0:0:
257,191,207474,1,8,0:0:0:0:
257,191,207632,1,0,0:0:0:0:
257,191,207711,1,8,0:0:0:0:
257,191,207790,1,0,0:0:0:0:
257,191,207948,1,8,0:0:0:0:
257,191,208264,1,8,0:0:0:0:
257,191,208580,1,0,0:0:0:0:
257,191,208738,1,8,0:0:0:0:
257,191,208817,1,8,0:0:0:0:
257,191,208896,1,0,0:0:0:0:
257,191,209053,1,8,0:0:0:0:
257,191,209211,1,0,0:0:0:0:
257,191,209527,1,8,0:0:0:0:
257,191,209685,1,0,0:0:0:0:
257,191,209764,1,0,0:0:0:0:
257,191,209843,1,0,0:0:0:0:
257,191,210001,1,8,0:0:0:0:
257,191,210159,1,0,0:0:0:0:
257,191,210238,1,0,0:0:0:0:
257,191,210317,1,8,0:0:0:0:
257,191,210396,1,8,0:0:0:0:
