osu file format v14

[General]
AudioFilename: audio.mp3
AudioLeadIn: 0
PreviewTime: 109422
Countdown: 0
SampleSet: Normal
StackLeniency: 0.7
Mode: 1
LetterboxInBreaks: 0
WidescreenStoryboard: 1

[Editor]
Bookmarks: 79106,129632
DistanceSpacing: 1.2
BeatDivisor: 4
GridSize: 4
TimelineZoom: 2.3

[Metadata]
Title:Platonic Love
TitleUnicode:プラトニック・ラヴ
Artist:Kano
ArtistUnicode:鹿乃
Creator:ler1211
Version:Futsuu
Source:
Tags:[zeth] senko-san japanese rock jrock j-rock IA メル meru mel igts intermediate global taiko showdown 2022 finals nm1 nomod 1
BeatmapID:3581025
BeatmapSetID:1749823

[Difficulty]
HPDrainRate:7
CircleSize:5
OverallDifficulty:4
ApproachRate:5
SliderMultiplier:1.4
SliderTickRate:1

[Events]
//Background and Video events
0,0,"kanoo.jpg",0,0
//Break Periods
2,150043,158748
//Storyboard Layer 0 (Background)
//Storyboard Layer 1 (Fail)
//Storyboard Layer 2 (Pass)
//Storyboard Layer 3 (Foreground)
//Storyboard Layer 4 (Overlay)
//Storyboard Sound Samples

[TimingPoints]
18475,315.789473684211,4,1,0,90,1,0
38685,-100,4,1,0,80,0,0
58896,-100,4,1,0,90,0,1
79106,-100,4,1,0,90,0,0
89211,-100,4,1,0,80,0,0
106738,-86.9565217391304,4,1,0,80,0,0
108632,-100,4,1,0,80,0,0
109422,-100,4,1,0,90,0,1
129001,-100,4,1,0,90,0,0
129632,-100,4,1,0,90,0,1
149843,-100,4,1,0,90,0,0
150159,-111.111111111111,4,1,0,50,0,0
151738,-125,4,1,0,50,0,0
153001,-142.857142857143,4,1,0,50,0,0
159632,-142.857142857143,4,1,0,70,0,0
159945,-142.857142857143,4,1,0,70,0,0
160103,-142.111137888876,4,1,0,70,0,0
160261,-141.369028584497,4,1,0,70,0,0
160419,-140.630794600715,4,1,0,70,0,0
160577,-139.89641570047,4,1,0,70,0,0
160734,-139.165871752383,4,1,0,70,0,0
160892,-138.439142730199,4,1,0,70,0,0
161050,-137.716208712243,4,1,0,70,0,0
161208,-136.997049880872,4,1,0,70,0,0
161366,-136.281646521928,4,1,0,70,0,0
161524,-135.569979024205,4,1,0,70,0,0
161682,-134.862027878905,4,1,0,70,0,0
161840,-134.157773679107,4,1,0,70,0,0
161998,-133.457197119233,4,1,0,70,0,0
162156,-132.760278994519,4,1,0,70,0,0
162313,-132.06700020049,4,1,0,70,0,0
162471,-131.377341732434,4,1,0,70,0,0
162629,-130.691284684883,4,1,0,70,0,0
162787,-130.008810251094,4,1,0,70,0,0
162945,-129.329899722533,4,1,0,70,0,0
163103,-128.654534488364,4,1,0,70,0,0
163261,-127.982696034934,4,1,0,70,0,0
163419,-127.314365945274,4,1,0,70,0,0
163577,-126.649525898585,4,1,0,70,0,0
163734,-125.988157669742,4,1,0,70,0,0
163892,-125.330243128791,4,1,0,70,0,0
164050,-124.675764240453,4,1,0,70,0,0
164208,-124.024703063632,4,1,0,70,0,0
164366,-123.377041750919,4,1,0,70,0,0
164524,-122.732762548104,4,1,0,70,0,0
164682,-122.091847793694,4,1,0,70,0,0
164840,-121.454279918421,4,1,0,70,0,0
164998,-120.820041444765,4,1,0,70,0,0
165156,-120.189114986477,4,1,0,70,0,0
165313,-119.561483248096,4,1,0,70,0,0
165471,-118.937129024481,4,1,0,70,0,0
165629,-118.316035200335,4,1,0,70,0,0
165787,-117.698184749739,4,1,0,70,0,0
165945,-117.083560735683,4,1,0,70,0,0
166103,-116.472146309605,4,1,0,70,0,0
166261,-115.863924710923,4,1,0,70,0,0
166419,-115.258879266581,4,1,0,70,0,0
166577,-114.656993390593,4,1,0,70,0,0
166734,-114.058250583581,4,1,0,70,0,0
166892,-113.462634432331,4,1,0,70,0,0
167050,-112.870128609336,4,1,0,70,0,0
167208,-112.280716872355,4,1,0,70,0,0
167366,-90.9090909090909,4,1,0,90,0,0
168632,-100,4,1,0,90,0,0
170053,-100,4,1,0,90,0,1
190264,-100,4,1,0,90,0,0

[HitObjects]
257,191,18474,5,4,0:0:0:0:
257,191,19106,1,0,0:0:0:0:
257,191,19579,1,8,0:0:0:0:
257,191,19737,1,0,0:0:0:0:
257,191,20053,1,0,0:0:0:0:
257,191,20211,1,8,0:0:0:0:
257,191,20527,1,8,0:0:0:0:
257,191,20685,1,0,0:0:0:0:
257,191,20842,1,0,0:0:0:0:
257,191,21000,1,8,0:0:0:0:
257,191,21316,1,8,0:0:0:0:
257,191,21632,1,0,0:0:0:0:
257,191,22106,1,0,0:0:0:0:
257,191,22263,1,8,0:0:0:0:
257,191,22579,1,8,0:0:0:0:
257,191,22737,1,0,0:0:0:0:
257,191,23053,1,0,0:0:0:0:
257,191,23211,1,8,0:0:0:0:
257,191,23527,1,4,0:0:0:0:
257,191,24158,1,0,0:0:0:0:
257,191,24316,1,8,0:0:0:0:
257,191,24632,1,8,0:0:0:0:
257,191,24790,1,0,0:0:0:0:
257,191,25106,1,8,0:0:0:0:
257,191,25263,1,8,0:0:0:0:
257,191,25579,1,0,0:0:0:0:
257,191,25737,1,8,0:0:0:0:
257,191,25895,1,8,0:0:0:0:
257,191,26053,1,0,0:0:0:0:
257,191,26369,1,8,0:0:0:0:
257,191,26685,1,0,0:0:0:0:
257,191,26842,1,8,0:0:0:0:
257,191,27158,1,8,0:0:0:0:
257,191,27316,1,0,0:0:0:0:
257,191,27632,1,8,0:0:0:0:
257,191,27790,1,8,0:0:0:0:
257,191,28106,1,0,0:0:0:0:
257,191,28263,1,8,0:0:0:0:
257,191,28579,1,4,0:0:0:0:
257,191,29211,1,0,0:0:0:0:
257,191,29684,1,8,0:0:0:0:
257,191,29842,1,0,0:0:0:0:
257,191,30158,1,0,0:0:0:0:
257,191,30316,1,8,0:0:0:0:
257,191,30632,1,8,0:0:0:0:
257,191,30790,1,0,0:0:0:0:
257,191,30947,1,0,0:0:0:0:
257,191,31105,1,8,0:0:0:0:
257,191,31421,1,8,0:0:0:0:
257,191,31737,1,0,0:0:0:0:
257,191,32211,1,0,0:0:0:0:
257,191,32368,1,8,0:0:0:0:
257,191,32684,1,8,0:0:0:0:
257,191,32842,1,0,0:0:0:0:
257,191,33158,1,0,0:0:0:0:
257,191,33316,1,8,0:0:0:0:
257,191,33632,1,4,0:0:0:0:
257,191,34263,1,0,0:0:0:0:
257,191,34421,1,8,0:0:0:0:
257,191,34737,1,8,0:0:0:0:
257,191,34895,1,0,0:0:0:0:
257,191,35211,1,8,0:0:0:0:
257,191,35368,1,8,0:0:0:0:
257,191,35684,1,0,0:0:0:0:
257,191,35842,1,8,0:0:0:0:
257,191,36000,1,8,0:0:0:0:
257,191,36158,1,0,0:0:0:0:
257,191,36474,1,8,0:0:0:0:
257,191,36790,1,0,0:0:0:0:
257,191,36947,1,8,0:0:0:0:
257,191,37263,1,8,0:0:0:0:
257,191,37421,1,0,0:0:0:0:
257,191,37737,1,12,0:0:0:0:
257,191,38053,1,0,0:0:0:0:
257,191,38211,1,0,0:0:0:0:
257,191,38368,1,8,0:0:0:0:
257,191,38684,1,4,0:0:0:0:
256,192,39317,1,0,0:0:0:0:
256,192,39632,1,0,0:0:0:0:
256,192,39948,1,2,0:0:0:0:
256,192,40580,1,0,0:0:0:0:
256,192,40896,1,2,0:0:0:0:
256,192,41211,1,0,0:0:0:0:
256,192,41527,1,8,0:0:0:0:
256,192,41843,1,0,0:0:0:0:
256,192,42159,1,0,0:0:0:0:
256,192,42475,1,2,0:0:0:0:
256,192,43106,1,0,0:0:0:0:
256,192,43422,1,2,0:0:0:0:
256,192,43738,1,0,0:0:0:0:
256,192,44369,1,2,0:0:0:0:
256,192,44685,1,2,0:0:0:0:
256,192,45001,1,0,0:0:0:0:
256,192,45632,1,2,0:0:0:0:
256,192,45948,1,2,0:0:0:0:
256,192,46264,1,0,0:0:0:0:
256,192,46580,1,0,0:0:0:0:
256,192,46896,1,2,0:0:0:0:
256,192,47211,1,0,0:0:0:0:
256,192,47527,1,2,0:0:0:0:
256,192,48475,1,2,0:0:0:0:
256,192,48790,1,4,0:0:0:0:
256,192,49106,1,0,0:0:0:0:
256,192,49422,1,2,0:0:0:0:
256,192,49738,1,2,0:0:0:0:
256,192,50053,1,0,0:0:0:0:
256,192,50685,1,0,0:0:0:0:
256,192,51001,1,2,0:0:0:0:
256,192,51317,1,0,0:0:0:0:
256,192,51632,1,2,0:0:0:0:
256,192,51948,1,0,0:0:0:0:
256,192,52264,1,0,0:0:0:0:
256,192,52580,1,2,0:0:0:0:
256,192,53211,1,0,0:0:0:0:
256,192,53527,1,0,0:0:0:0:
256,192,53843,1,2,0:0:0:0:
256,192,54475,1,0,0:0:0:0:
256,192,54790,1,2,0:0:0:0:
256,192,55106,1,0,0:0:0:0:
256,192,55738,1,2,0:0:0:0:
256,192,56053,1,0,0:0:0:0:
256,192,56369,1,2,0:0:0:0:
256,192,56685,1,2,0:0:0:0:
256,192,57001,1,0,0:0:0:0:
256,192,57317,1,0,0:0:0:0:
256,192,57632,1,2,0:0:0:0:
256,192,58264,1,2,0:0:0:0:
256,192,58422,1,0,0:0:0:0:
256,192,58580,1,2,0:0:0:0:
257,191,58896,1,4,0:0:0:0:
257,191,59527,1,8,0:0:0:0:
257,191,59843,1,0,0:0:0:0:
257,191,60159,1,8,0:0:0:0:
257,191,60317,1,8,0:0:0:0:
257,191,60474,1,0,0:0:0:0:
257,191,60632,1,0,0:0:0:0:
257,191,60790,1,8,0:0:0:0:
257,191,61106,1,0,0:0:0:0:
257,191,61422,1,8,0:0:0:0:
257,191,61738,1,0,0:0:0:0:
257,191,62053,1,8,0:0:0:0:
257,191,62211,1,8,0:0:0:0:
257,191,62369,1,0,0:0:0:0:
257,191,62685,1,8,0:0:0:0:
257,191,63001,1,0,0:0:0:0:
257,191,63159,1,0,0:0:0:0:
257,191,63317,1,8,0:0:0:0:
257,191,63948,1,4,0:0:0:0:
257,191,64264,1,8,0:0:0:0:
257,191,64580,1,0,0:0:0:0:
257,191,64738,1,0,0:0:0:0:
257,191,64895,1,8,0:0:0:0:
257,191,65211,1,0,0:0:0:0:
257,191,65527,1,8,0:0:0:0:
257,191,65685,1,0,0:0:0:0:
257,191,65843,1,8,0:0:0:0:
257,191,66159,1,0,0:0:0:0:
257,191,66474,1,8,0:0:0:0:
257,191,67106,1,8,0:0:0:0:
257,191,67422,1,0,0:0:0:0:
257,191,67579,1,0,0:0:0:0:
257,191,67738,1,8,0:0:0:0:
257,191,68211,1,8,0:0:0:0:
257,191,68369,1,0,0:0:0:0:
257,191,68685,1,12,0:0:0:0:
257,191,69000,1,4,0:0:0:0:
257,191,69632,1,8,0:0:0:0:
257,191,69948,1,0,0:0:0:0:
257,191,70264,1,8,0:0:0:0:
257,191,70422,1,8,0:0:0:0:
257,191,70579,1,0,0:0:0:0:
257,191,70737,1,0,0:0:0:0:
257,191,70895,1,8,0:0:0:0:
257,191,71211,1,0,0:0:0:0:
257,191,71527,1,8,0:0:0:0:
257,191,71843,1,0,0:0:0:0:
257,191,72158,1,8,0:0:0:0:
257,191,72316,1,8,0:0:0:0:
257,191,72474,1,0,0:0:0:0:
257,191,72790,1,8,0:0:0:0:
257,191,73106,1,0,0:0:0:0:
257,191,73264,1,0,0:0:0:0:
257,191,73422,1,8,0:0:0:0:
257,191,74053,1,4,0:0:0:0:
257,191,74369,1,8,0:0:0:0:
257,191,74685,1,0,0:0:0:0:
257,191,74843,1,0,0:0:0:0:
257,191,75000,1,8,0:0:0:0:
257,191,75316,1,0,0:0:0:0:
257,191,75632,1,8,0:0:0:0:
257,191,75790,1,0,0:0:0:0:
257,191,75948,1,8,0:0:0:0:
257,191,76264,1,0,0:0:0:0:
257,191,76579,1,8,0:0:0:0:
257,191,77053,1,0,0:0:0:0:
257,191,77211,1,8,0:0:0:0:
257,191,77527,1,8,0:0:0:0:
257,191,77843,1,0,0:0:0:0:
257,191,78159,1,12,0:0:0:0:
257,191,78474,1,0,0:0:0:0:
257,191,78632,1,0,0:0:0:0:
257,191,78790,1,8,0:0:0:0:
257,191,79105,1,4,0:0:0:0:
257,191,79738,1,0,0:0:0:0:
257,191,80211,1,8,0:0:0:0:
257,191,80369,1,0,0:0:0:0:
257,191,80685,1,0,0:0:0:0:
257,191,80843,1,8,0:0:0:0:
257,191,81159,1,8,0:0:0:0:
257,191,81317,1,0,0:0:0:0:
257,191,81474,1,0,0:0:0:0:
257,191,81632,1,8,0:0:0:0:
257,191,81948,1,8,0:0:0:0:
257,191,82264,1,0,0:0:0:0:
257,191,82738,1,0,0:0:0:0:
257,191,82895,1,8,0:0:0:0:
257,191,83211,1,8,0:0:0:0:
257,191,83369,1,0,0:0:0:0:
257,191,83685,1,0,0:0:0:0:
257,191,83843,1,8,0:0:0:0:
257,191,84159,1,4,0:0:0:0:
257,191,84790,1,0,0:0:0:0:
257,191,84948,1,8,0:0:0:0:
257,191,85264,1,8,0:0:0:0:
257,191,85422,1,0,0:0:0:0:
257,191,85738,1,8,0:0:0:0:
257,191,85895,1,8,0:0:0:0:
257,191,86211,1,0,0:0:0:0:
257,191,86369,1,8,0:0:0:0:
257,191,86527,1,8,0:0:0:0:
257,191,86685,1,0,0:0:0:0:
257,191,87001,1,8,0:0:0:0:
257,191,87317,1,0,0:0:0:0:
257,191,87474,1,8,0:0:0:0:
257,191,87790,1,8,0:0:0:0:
257,191,87948,1,0,0:0:0:0:
257,191,88264,1,8,0:0:0:0:
257,191,88422,1,8,0:0:0:0:
257,191,88580,1,0,0:0:0:0:
257,191,88738,1,0,0:0:0:0:
257,191,88895,1,8,0:0:0:0:
257,191,89211,1,4,0:0:0:0:
256,192,89843,1,0,0:0:0:0:
256,192,90158,1,2,0:0:0:0:
256,192,90474,1,0,0:0:0:0:
256,192,90790,1,2,0:0:0:0:
256,192,91106,1,0,0:0:0:0:
256,192,91264,1,0,0:0:0:0:
256,192,91422,1,2,0:0:0:0:
256,192,91737,1,0,0:0:0:0:
256,192,92053,1,2,0:0:0:0:
256,192,92369,1,0,0:0:0:0:
256,192,92527,1,2,0:0:0:0:
256,192,92685,1,0,0:0:0:0:
256,192,93001,1,2,0:0:0:0:
256,192,93632,1,0,0:0:0:0:
256,192,93948,1,2,0:0:0:0:
256,192,94106,1,2,0:0:0:0:
256,192,94264,1,0,0:0:0:0:
256,192,94579,1,2,0:0:0:0:
256,192,94895,1,0,0:0:0:0:
256,192,95211,1,2,0:0:0:0:
256,192,95527,1,0,0:0:0:0:
256,192,96158,1,2,0:0:0:0:
256,192,96474,1,2,0:0:0:0:
256,192,96790,1,0,0:0:0:0:
256,192,97106,1,0,0:0:0:0:
256,192,97422,1,2,0:0:0:0:
256,192,97579,1,8,0:0:0:0:
256,192,97737,1,0,0:0:0:0:
256,192,98053,1,2,0:0:0:0:
256,192,99001,1,2,0:0:0:0:
256,192,99316,1,4,0:0:0:0:
256,192,99632,1,0,0:0:0:0:
256,192,99948,1,2,0:0:0:0:
256,192,100106,1,0,0:0:0:0:
256,192,100264,1,2,0:0:0:0:
256,192,100579,1,0,0:0:0:0:
256,192,101211,1,0,0:0:0:0:
256,192,101527,1,2,0:0:0:0:
256,192,101843,1,0,0:0:0:0:
256,192,102158,1,2,0:0:0:0:
256,192,102474,1,2,0:0:0:0:
256,192,102632,1,2,0:0:0:0:
256,192,102790,1,0,0:0:0:0:
256,192,103106,1,2,0:0:0:0:
256,192,103737,1,0,0:0:0:0:
256,192,104053,1,2,0:0:0:0:
256,192,104369,1,0,0:0:0:0:
256,192,105001,1,0,0:0:0:0:
256,192,105316,1,2,0:0:0:0:
256,192,105632,1,0,0:0:0:0:
256,192,105948,1,2,0:0:0:0:
256,192,106264,1,0,0:0:0:0:
256,192,106422,1,0,0:0:0:0:
256,192,106579,1,2,0:0:0:0:
255,192,106896,1,4,0:0:0:0:
255,192,107053,1,4,0:0:0:0:
255,192,107843,1,4,0:0:0:0:
255,192,108001,1,4,0:0:0:0:
255,192,108790,1,0,0:0:0:0:
255,192,108948,1,0,0:0:0:0:
255,192,109106,1,12,0:0:0:0:
257,191,109422,1,4,0:0:0:0:
257,191,110053,1,8,0:0:0:0:
257,191,110369,1,0,0:0:0:0:
257,191,110685,1,8,0:0:0:0:
257,191,110843,1,8,0:0:0:0:
257,191,111000,1,0,0:0:0:0:
257,191,111158,1,0,0:0:0:0:
257,191,111316,1,8,0:0:0:0:
257,191,111632,1,0,0:0:0:0:
257,191,111948,1,8,0:0:0:0:
257,191,112264,1,0,0:0:0:0:
257,191,112579,1,8,0:0:0:0:
257,191,112737,1,8,0:0:0:0:
257,191,112895,1,0,0:0:0:0:
257,191,113211,1,8,0:0:0:0:
257,191,113527,1,0,0:0:0:0:
257,191,113685,1,0,0:0:0:0:
257,191,113843,1,8,0:0:0:0:
257,191,114474,1,4,0:0:0:0:
257,191,114790,1,8,0:0:0:0:
257,191,115106,1,0,0:0:0:0:
257,191,115264,1,0,0:0:0:0:
257,191,115421,1,8,0:0:0:0:
257,191,115737,1,0,0:0:0:0:
257,191,116053,1,8,0:0:0:0:
257,191,116211,1,0,0:0:0:0:
257,191,116369,1,8,0:0:0:0:
257,191,116685,1,0,0:0:0:0:
257,191,117000,1,8,0:0:0:0:
257,191,117632,1,8,0:0:0:0:
257,191,117948,1,0,0:0:0:0:
257,191,118105,1,0,0:0:0:0:
257,191,118264,1,8,0:0:0:0:
257,191,118737,1,8,0:0:0:0:
257,191,118895,1,0,0:0:0:0:
257,191,119211,1,12,0:0:0:0:
257,191,119526,1,4,0:0:0:0:
257,191,120158,1,8,0:0:0:0:
257,191,120474,1,0,0:0:0:0:
257,191,120790,1,8,0:0:0:0:
257,191,120948,1,8,0:0:0:0:
257,191,121105,1,0,0:0:0:0:
257,191,121263,1,0,0:0:0:0:
257,191,121421,1,8,0:0:0:0:
257,191,121737,1,0,0:0:0:0:
257,191,122053,1,8,0:0:0:0:
257,191,122369,1,0,0:0:0:0:
257,191,122684,1,8,0:0:0:0:
257,191,122842,1,8,0:0:0:0:
257,191,123000,1,0,0:0:0:0:
257,191,123316,1,8,0:0:0:0:
257,191,123475,1,0,0:0:0:0:
257,191,123632,1,8,0:0:0:0:
257,191,123948,1,8,0:0:0:0:
257,191,124579,1,4,0:0:0:0:
257,191,124895,1,8,0:0:0:0:
257,191,125211,1,0,0:0:0:0:
257,191,125369,1,0,0:0:0:0:
257,191,125526,1,8,0:0:0:0:
257,191,125842,1,0,0:0:0:0:
257,191,126158,1,8,0:0:0:0:
257,191,126316,1,0,0:0:0:0:
257,191,126474,1,8,0:0:0:0:
257,191,126790,1,0,0:0:0:0:
257,191,127105,1,8,0:0:0:0:
262,188,127422,1,0,0:0:0:0:
257,191,127579,1,8,0:0:0:0:
257,191,127896,1,8,0:0:0:0:
257,191,128053,1,0,0:0:0:0:
257,191,128369,1,0,0:0:0:0:
257,191,128685,1,12,0:0:0:0:
257,191,129000,1,0,0:0:0:0:
257,191,129158,1,0,0:0:0:0:
257,191,129316,1,8,0:0:0:0:
257,191,129631,1,4,0:0:0:0:
257,191,130264,1,0,0:0:0:0:
257,191,130580,1,8,0:0:0:0:
257,191,130896,1,0,0:0:0:0:
257,191,131053,1,0,0:0:0:0:
257,191,131211,1,8,0:0:0:0:
257,191,131527,1,8,0:0:0:0:
257,191,131685,1,8,0:0:0:0:
257,191,131843,1,0,0:0:0:0:
257,191,132001,1,0,0:0:0:0:
257,191,132159,1,8,0:0:0:0:
257,191,132475,1,0,0:0:0:0:
257,191,132790,1,8,0:0:0:0:
257,191,132948,1,8,0:0:0:0:
257,191,133106,1,0,0:0:0:0:
257,191,133422,1,8,0:0:0:0:
257,191,133738,1,0,0:0:0:0:
257,191,134053,1,8,0:0:0:0:
257,191,134211,1,0,0:0:0:0:
257,191,134369,1,8,0:0:0:0:
257,191,134685,1,4,0:0:0:0:
257,191,135317,1,0,0:0:0:0:
257,191,135632,1,8,0:0:0:0:
257,191,135948,1,0,0:0:0:0:
257,191,136264,1,8,0:0:0:0:
257,191,136422,1,8,0:0:0:0:
257,191,136580,1,0,0:0:0:0:
257,191,137053,1,0,0:0:0:0:
257,191,137211,1,8,0:0:0:0:
257,191,137369,1,0,0:0:0:0:
257,191,137527,1,0,0:0:0:0:
257,191,137685,1,8,0:0:0:0:
257,191,138001,1,0,0:0:0:0:
257,191,138159,1,8,0:0:0:0:
257,191,138317,1,0,0:0:0:0:
257,191,138475,1,0,0:0:0:0:
257,191,138632,1,8,0:0:0:0:
257,191,139106,1,0,0:0:0:0:
257,191,139422,1,8,0:0:0:0:
257,191,139580,1,8,0:0:0:0:
257,191,139738,1,4,0:0:0:0:
257,191,140369,1,0,0:0:0:0:
257,191,140685,1,8,0:0:0:0:
257,191,141001,1,0,0:0:0:0:
257,191,141158,1,0,0:0:0:0:
257,191,141316,1,8,0:0:0:0:
257,191,141632,1,8,0:0:0:0:
257,191,141790,1,8,0:0:0:0:
257,191,141948,1,0,0:0:0:0:
257,191,142106,1,0,0:0:0:0:
257,191,142264,1,8,0:0:0:0:
257,191,142580,1,0,0:0:0:0:
257,191,142895,1,8,0:0:0:0:
257,191,143053,1,8,0:0:0:0:
257,191,143211,1,0,0:0:0:0:
257,191,143527,1,8,0:0:0:0:
257,191,143843,1,0,0:0:0:0:
257,191,144158,1,8,0:0:0:0:
257,191,144316,1,0,0:0:0:0:
257,191,144474,1,8,0:0:0:0:
257,191,144790,1,4,0:0:0:0:
257,191,145422,1,0,0:0:0:0:
257,191,145737,1,8,0:0:0:0:
257,191,146053,1,0,0:0:0:0:
257,191,146369,1,8,0:0:0:0:
257,191,146527,1,8,0:0:0:0:
257,191,146685,1,0,0:0:0:0:
257,191,147001,1,0,0:0:0:0:
257,191,147316,1,8,0:0:0:0:
257,191,147632,1,0,0:0:0:0:
257,191,147790,1,8,0:0:0:0:
257,191,147948,1,0,0:0:0:0:
257,191,148106,1,0,0:0:0:0:
257,191,148264,1,8,0:0:0:0:
257,191,148580,1,0,0:0:0:0:
257,191,148896,1,12,0:0:0:0:
257,191,149211,1,0,0:0:0:0:
257,191,149369,1,0,0:0:0:0:
257,191,149527,1,8,0:0:0:0:
257,191,149843,1,4,0:0:0:0:
257,191,159948,5,4,0:0:0:0:
257,191,160580,1,0,0:0:0:0:
257,191,161211,1,8,0:0:0:0:
257,191,161527,1,0,0:0:0:0:
257,191,161843,1,8,0:0:0:0:
257,191,162475,1,8,0:0:0:0:
257,191,163106,1,8,0:0:0:0:
257,191,163738,1,0,0:0:0:0:
257,191,164053,1,0,0:0:0:0:
257,191,164369,1,8,0:0:0:0:
257,191,165001,1,0,0:0:0:0:
257,191,165317,1,0,0:0:0:0:
257,191,165632,1,8,0:0:0:0:
257,191,165948,1,0,0:0:0:0:
257,191,166264,1,8,0:0:0:0:
257,191,166580,1,8,0:0:0:0:
257,191,166896,1,0,0:0:0:0:
257,191,167211,1,0,0:0:0:0:
257,191,167527,1,12,0:0:0:0:
257,191,168790,1,0,0:0:0:0:
257,191,168948,1,0,0:0:0:0:
257,191,169106,1,8,0:0:0:0:
257,191,169264,1,8,0:0:0:0:
257,191,169422,1,0,0:0:0:0:
257,191,169580,1,0,0:0:0:0:
257,191,169738,1,8,0:0:0:0:
257,191,170053,1,4,0:0:0:0:
257,191,170685,1,8,0:0:0:0:
257,191,171001,1,0,0:0:0:0:
257,191,171317,1,8,0:0:0:0:
257,191,171475,1,8,0:0:0:0:
257,191,171632,1,0,0:0:0:0:
257,191,171790,1,0,0:0:0:0:
257,191,171948,1,8,0:0:0:0:
257,191,172264,1,0,0:0:0:0:
257,191,172580,1,8,0:0:0:0:
257,191,172896,1,0,0:0:0:0:
257,191,173211,1,8,0:0:0:0:
257,191,173369,1,8,0:0:0:0:
257,191,173527,1,0,0:0:0:0:
257,191,173843,1,8,0:0:0:0:
257,191,174159,1,0,0:0:0:0:
257,191,174317,1,0,0:0:0:0:
257,191,174475,1,8,0:0:0:0:
257,191,175106,1,4,0:0:0:0:
257,191,175422,1,8,0:0:0:0:
257,191,175738,1,0,0:0:0:0:
257,191,175896,1,0,0:0:0:0:
257,191,176053,1,8,0:0:0:0:
257,191,176369,1,0,0:0:0:0:
257,191,176685,1,8,0:0:0:0:
257,191,176843,1,0,0:0:0:0:
257,191,177001,1,8,0:0:0:0:
257,191,177317,1,0,0:0:0:0:
257,191,177632,1,8,0:0:0:0:
257,191,178264,1,8,0:0:0:0:
257,191,178580,1,0,0:0:0:0:
257,191,178737,1,0,0:0:0:0:
257,191,178896,1,8,0:0:0:0:
257,191,179369,1,8,0:0:0:0:
257,191,179527,1,0,0:0:0:0:
257,191,179843,1,12,0:0:0:0:
257,191,180158,1,4,0:0:0:0:
257,191,180790,1,8,0:0:0:0:
257,191,181106,1,0,0:0:0:0:
257,191,181422,1,8,0:0:0:0:
257,191,181580,1,8,0:0:0:0:
257,191,181737,1,0,0:0:0:0:
257,191,181895,1,0,0:0:0:0:
257,191,182053,1,8,0:0:0:0:
257,191,182369,1,0,0:0:0:0:
257,191,182685,1,8,0:0:0:0:
257,191,183001,1,0,0:0:0:0:
257,191,183316,1,8,0:0:0:0:
257,191,183474,1,8,0:0:0:0:
257,191,183632,1,0,0:0:0:0:
257,191,183948,1,8,0:0:0:0:
257,191,184264,1,0,0:0:0:0:
257,191,184422,1,0,0:0:0:0:
257,191,184580,1,8,0:0:0:0:
257,191,185211,1,4,0:0:0:0:
257,191,185527,1,8,0:0:0:0:
257,191,185843,1,0,0:0:0:0:
257,191,186001,1,0,0:0:0:0:
257,191,186158,1,8,0:0:0:0:
257,191,186474,1,0,0:0:0:0:
257,191,186790,1,8,0:0:0:0:
257,191,186948,1,0,0:0:0:0:
257,191,187106,1,8,0:0:0:0:
257,191,187422,1,0,0:0:0:0:
257,191,187737,1,8,0:0:0:0:
257,191,188211,1,0,0:0:0:0:
257,191,188369,1,8,0:0:0:0:
257,191,188842,1,0,0:0:0:0:
257,191,189001,1,8,0:0:0:0:
257,191,189317,1,12,0:0:0:0:
257,191,189632,1,0,0:0:0:0:
257,191,189790,1,0,0:0:0:0:
257,191,189948,1,8,0:0:0:0:
257,191,190263,1,4,0:0:0:0:
257,191,190896,1,0,0:0:0:0:
257,191,191369,1,8,0:0:0:0:
257,191,191527,1,0,0:0:0:0:
257,191,191843,1,0,0:0:0:0:
257,191,192001,1,8,0:0:0:0:
257,191,192317,1,8,0:0:0:0:
257,191,192475,1,0,0:0:0:0:
257,191,192632,1,0,0:0:0:0:
257,191,192790,1,8,0:0:0:0:
257,191,193106,1,8,0:0:0:0:
257,191,193422,1,0,0:0:0:0:
257,191,193896,1,0,0:0:0:0:
257,191,194053,1,8,0:0:0:0:
257,191,194369,1,8,0:0:0:0:
257,191,194527,1,0,0:0:0:0:
257,191,194843,1,0,0:0:0:0:
257,191,195001,1,8,0:0:0:0:
257,191,195317,1,4,0:0:0:0:
257,191,195948,1,0,0:0:0:0:
257,191,196106,1,8,0:0:0:0:
257,191,196422,1,8,0:0:0:0:
257,191,196580,1,0,0:0:0:0:
257,191,196896,1,8,0:0:0:0:
257,191,197053,1,8,0:0:0:0:
257,191,197369,1,0,0:0:0:0:
257,191,197527,1,8,0:0:0:0:
257,191,197685,1,8,0:0:0:0:
257,191,197843,1,0,0:0:0:0:
257,191,198159,1,8,0:0:0:0:
257,191,198475,1,0,0:0:0:0:
257,191,198632,1,8,0:0:0:0:
257,191,198948,1,8,0:0:0:0:
257,191,199106,1,0,0:0:0:0:
257,191,199422,1,8,0:0:0:0:
257,191,199580,1,8,0:0:0:0:
257,191,199896,1,0,0:0:0:0:
257,191,200053,1,8,0:0:0:0:
257,191,200369,1,4,0:0:0:0:
257,191,201001,1,0,0:0:0:0:
257,191,201474,1,8,0:0:0:0:
257,191,201632,1,0,0:0:0:0:
257,191,201948,1,0,0:0:0:0:
257,191,202106,1,8,0:0:0:0:
257,191,202422,1,8,0:0:0:0:
257,191,202580,1,0,0:0:0:0:
257,191,202737,1,0,0:0:0:0:
257,191,202895,1,8,0:0:0:0:
257,191,203211,1,8,0:0:0:0:
257,191,203527,1,0,0:0:0:0:
257,191,204001,1,0,0:0:0:0:
257,191,204158,1,8,0:0:0:0:
257,191,204474,1,8,0:0:0:0:
257,191,204632,1,0,0:0:0:0:
257,191,204948,1,0,0:0:0:0:
257,191,205106,1,8,0:0:0:0:
257,191,205422,1,4,0:0:0:0:
257,191,206053,1,0,0:0:0:0:
257,191,206211,1,8,0:0:0:0:
257,191,206527,1,8,0:0:0:0:
257,191,206685,1,0,0:0:0:0:
257,191,207001,1,8,0:0:0:0:
257,191,207158,1,8,0:0:0:0:
257,191,207474,1,0,0:0:0:0:
257,191,207632,1,8,0:0:0:0:
257,191,207790,1,8,0:0:0:0:
257,191,207948,1,0,0:0:0:0:
257,191,208264,1,8,0:0:0:0:
257,191,208580,1,0,0:0:0:0:
257,191,208737,1,8,0:0:0:0:
257,191,209053,1,8,0:0:0:0:
257,191,209211,1,0,0:0:0:0:
257,191,209527,1,8,0:0:0:0:
257,191,209685,1,0,0:0:0:0:
257,191,210001,1,0,0:0:0:0:
257,191,210158,1,8,0:0:0:0:
257,191,210317,1,8,0:0:0:0:
