osu file format v14

[General]
AudioFilename: audio.mp3
AudioLeadIn: 0
PreviewTime: 167377
Countdown: 0
SampleSet: Soft
StackLeniency: 0.7
Mode: 0
LetterboxInBreaks: 0
WidescreenStoryboard: 1

[Editor]
Bookmarks: 95215
DistanceSpacing: 1.1
BeatDivisor: 4
GridSize: 4
TimelineZoom: 2.1

[Metadata]
Title:Platonic Love
TitleUnicode:プラトニック・ラヴ
Artist:Kano
ArtistUnicode:鹿乃
Creator:bbu
Version:Habi's Easy
Source:
Tags:HabiHolic Pata-Mon Rumia- SolarFox メル メリー mer
BeatmapID:1091468
BeatmapSetID:449183

[Difficulty]
HPDrainRate:2
CircleSize:3
OverallDifficulty:2
ApproachRate:3
SliderMultiplier:0.9
SliderTickRate:1

[Events]
//Background and Video events
0,0,"48378626_p0.png",0,0
//Break Periods
2,84367,87779
2,132367,138306
2,150051,158516
//Storyboard Layer 0 (Background)
//Storyboard Layer 1 (Fail)
//Storyboard Layer 2 (Pass)
//Storyboard Layer 3 (Foreground)
//Storyboard Sound Samples

[TimingPoints]
18483,315.789473684211,4,2,23,65,1,0
38693,-100,4,2,23,55,0,0
58904,-100,4,2,23,75,0,1
79114,-100,4,2,23,75,0,0
89219,-100,4,2,23,60,0,0
109430,-100,4,2,23,75,0,1
125851,-100,4,2,23,75,0,1
129325,-100,4,2,23,75,0,0
132167,-100,4,2,23,5,0,0
139746,-100,4,2,23,70,0,0
159956,-100,4,2,23,55,0,0
168798,-100,4,2,23,65,0,0
170061,-100,4,2,23,75,0,1
192798,-100,4,2,23,5,0,0

[Colours]
Combo1 : 245,243,220
Combo2 : 225,164,165
Combo3 : 162,189,240
Combo4 : 173,171,235

[HitObjects]
100,192,18483,6,0,P|92:235|101:279,1,90,6|8,0:0|0:0,0:0:0:0:
200,279,19114,2,0,P|209:235|201:191,1,90,2|8,0:0|0:0,0:0:0:0:
272,123,19746,2,0,L|408:131,2,135,2|2|8,0:0|0:1|0:0,0:0:0:0:
196,60,21009,6,0,L|104:68,1,90,2|8,0:0|0:0,0:0:0:0:
35,135,21640,2,0,P|47:178|38:222,1,90,2|8,0:0|0:0,0:0:0:0:
52,320,22272,2,0,B|104:312|124:268|124:268|216:280,1,180,2|2,0:0|0:0,0:0:0:0:
308,300,23219,1,8,0:0:0:0:
396,347,23535,6,0,P|407:304|400:261,1,90,6|8,0:0|0:0,0:0:0:0:
320,200,24167,2,0,P|312:156|324:113,1,90,2|8,0:0|0:0,0:0:0:0:
396,44,24798,2,0,B|448:40|480:72|480:72|524:64,2,135,2|2|8,0:0|0:1|0:0,0:0:0:0:
412,140,26061,6,0,L|428:240,1,90,2|8,0:0|0:0,0:0:0:0:
367,308,26693,2,0,P|325:319|281:309,1,90,2|8,0:0|0:0,0:0:0:0:
196,256,27325,2,0,P|131:243|75:278,2,135,2|2|8,0:0|0:1|0:0,0:0:0:0:
279,204,28588,6,0,P|291:161|282:117,1,90,6|8,0:0|0:0,0:0:0:0:
208,52,29219,2,0,L|104:60,1,90,2|8,0:0|0:0,0:0:0:0:
44,124,29851,2,0,B|56:184|56:184|44:244|44:244|52:304,1,180,2|2,0:0|0:0,0:0:0:0:
132,356,30798,1,8,0:0:0:0:
208,291,31114,6,0,P|251:283|293:298,1,90,2|8,0:0|0:0,0:0:0:0:
372,359,31746,2,0,P|390:319|388:275,1,90,2|8,0:0|0:0,0:0:0:0:
324,200,32377,2,0,P|304:136|323:72,2,135,2|2|8,0:0|0:1|0:0,0:0:0:0:
400,140,33640,6,0,L|496:144,2,90,6|8|2,0:0|0:0|0:0,0:0:0:0:
323,72,34588,1,8,0:0:0:0:
236,120,34904,2,0,B|184:124|140:96|140:96|60:108,1,180,2|2,0:0|0:0,0:0:0:0:
12,192,35851,1,8,0:0:0:0:
64,276,36167,6,0,P|116:280|160:268,1,90,2|8,0:0|0:0,0:0:0:0:
220,200,36798,2,0,P|264:194|306:208,1,90,2|8,0:0|0:0,0:0:0:0:
376,280,37430,2,0,B|424:288|456:252|456:252|504:260,2,135,2|2|10,0:0|0:1|0:0,0:0:0:0:
388,180,38693,6,0,B|372:140|388:92|388:92|336:72|326:30,1,180,6|2,0:0|0:0,0:0:0:0:
256,100,39640,1,8,0:0:0:0:
185,30,39956,2,0,B|176:72|124:92|124:92|140:140|124:180,1,180,2|2,0:0|0:0,0:0:0:0:
44,236,40904,1,8,0:0:0:0:
124,292,41219,6,0,P|176:292|216:268,1,90,2|8,0:0|0:0,0:0:0:0:
308,276,41851,2,0,P|348:295|392:293,1,90,2|8,0:0|0:0,0:0:0:0:
476,240,42483,2,0,P|496:153|471:67,1,180,2|2,0:0|0:0,0:0:0:0:
384,20,43430,1,8,0:0:0:0:
296,67,43746,6,0,P|253:80|210:68,1,90,2|8,0:0|0:0,0:0:0:0:
119,28,44377,2,0,P|111:71|126:113,1,90,2|8,0:0|0:0,0:0:0:0:
204,176,45009,2,0,P|212:219|197:261,2,90,2|8|2,0:0|0:0|0:0,0:0:0:0:
112,212,45956,1,8,0:0:0:0:
115,311,46272,6,0,P|190:356|268:320,1,180,2|2,0:0|0:0,0:0:0:0:
324,240,47219,1,8,0:0:0:0:
420,268,47535,2,0,P|431:310|421:354,2,90,2|8|2,0:0|0:0|0:0,0:0:0:0:
324,240,48483,1,8,0:0:0:0:
248,304,48798,6,0,L|152:312,1,90,6|8,0:0|0:0,0:0:0:0:
75,255,49430,2,0,P|64:213|74:169,1,90,2|8,0:0|0:0,0:0:0:0:
84,72,50061,2,0,B|140:80|160:128|160:128|248:112,1,180,2|2,0:0|0:0,0:0:0:0:
336,88,51009,1,8,0:0:0:0:
420,36,51325,6,0,P|436:80|424:128,1,90,2|8,0:0|0:0,0:0:0:0:
356,188,51956,2,0,P|391:214|435:218,1,90,2|8,0:0|0:0,0:0:0:0:
447,316,52588,2,0,P|359:309|286:258,1,180,2|2,0:0|0:0,0:0:0:0:
264,164,53535,1,8,0:0:0:0:
204,88,53851,6,0,B|156:88|156:88|116:112,1,90,2|8,0:0|0:0,0:0:0:0:
44,172,54483,2,0,P|52:216|40:264,1,90,2|8,0:0|0:0,0:0:0:0:
84,348,55114,2,0,B|144:348|144:348|204:324|204:324|268:324,1,180,2|2,0:0|0:0,0:0:0:0:
352,364,56061,1,8,0:0:0:0:
436,307,56377,6,0,P|447:264|440:220,1,90,2|8,0:0|0:0,0:0:0:0:
364,160,57009,2,0,P|356:115|368:72,1,90,2|8,0:0|0:0,0:0:0:0:
460,40,57640,2,0,L|260:20,1,180,2|10,0:0|0:0,0:0:0:0:
200,76,58588,1,8,0:0:0:0:
108,116,58904,6,0,P|173:173|258:157,1,180,6|2,0:0|0:0,0:0:0:0:
328,88,59851,1,8,0:0:0:0:
404,152,60167,2,0,P|415:194|405:238,1,90,2|8,0:0|0:0,0:0:0:0:
320,292,60798,2,0,L|228:284,1,90,2|8,0:0|0:0,0:0:0:0:
155,215,61430,6,0,P|69:205|7:265,1,180,2|2,0:0|0:0,0:0:0:0:
100,300,62377,1,8,0:0:0:0:
200,300,62693,2,0,L|180:120,1,180,2|2,0:0|0:0,0:0:0:0:
244,44,63640,1,8,0:0:0:0:
316,112,63956,6,0,P|360:120|404:113,1,90,6|8,0:0|0:0,0:0:0:0:
496,76,64588,2,0,L|488:172,1,90,2|8,0:0|0:0,0:0:0:0:
424,239,65219,2,0,P|380:247|337:235,1,90,2|8,0:0|0:0,0:0:0:0:
264,168,65851,2,0,P|220:160|177:172,1,90,2|8,0:0|0:0,0:0:0:0:
84,204,66483,6,0,L|72:112,2,90,2|8|2,0:0|0:0|0:0,0:0:0:0:
24,280,67430,1,8,0:0:0:0:
99,339,67746,2,0,P|186:351|254:296,1,180,2|2,0:0|0:0,0:0:0:0:
292,204,68693,1,12,0:0:0:0:
212,144,69009,6,0,P|125:132|57:187,1,180,6|2,0:0|0:0,0:0:0:0:
152,224,69956,1,8,0:0:0:0:
212,144,70272,2,0,L|200:48,1,90,2|8,0:0|0:0,0:0:0:0:
300,40,70904,2,0,L|312:136,1,90,2|8,0:0|0:0,0:0:0:0:
335,223,71535,6,0,P|421:242|488:187,1,180,2|2,0:0|0:0,0:0:0:0:
400,148,72483,1,8,0:0:0:0:
335,223,72798,2,0,L|352:328,2,90,2|8|2,0:0|0:0|0:0,0:0:0:0:
252,172,73746,1,8,0:0:0:0:
167,228,74061,6,0,P|81:231|25:164,1,180,6|2,0:0|0:0,0:0:0:0:
120,140,75009,1,8,0:0:0:0:
76,51,75325,2,0,P|162:48|218:115,1,180,2|2,0:0|0:0,0:0:0:0:
264,204,76272,1,8,0:0:0:0:
343,148,76588,6,0,P|356:105|344:62,1,90,2|8,0:0|0:0,0:0:0:0:
256,20,77219,2,0,L|160:28,1,90,2|8,0:0|0:0,0:0:0:0:
100,96,77851,2,0,P|88:144|100:184,1,90,2|8,0:0|0:0,0:0:0:0:
176,244,78483,2,0,P|186:287|174:329,2,90,2|2|6,0:0|0:0|0:0,0:0:0:0:
256,192,79272,12,0,84167,0:0:0:0:
20,55,89219,6,0,P|7:98|19:141,1,90,6|8,0:0|0:0,0:0:0:0:
92,208,89851,2,0,L|184:200,1,90,2|8,0:0|0:0,0:0:0:0:
252,131,90483,2,0,P|236:217|295:281,1,180,2|2,0:0|0:0,0:0:0:0:
332,188,91430,1,8,0:0:0:0:
412,248,91746,6,0,P|427:162|368:98,1,180,2|2,0:0|0:0,0:0:0:0:
292,36,92693,1,8,0:0:0:0:
204,80,93009,2,0,P|160:88|112:76,1,90,2|8,0:0|0:0,0:0:0:0:
28,32,93640,2,0,L|40:128,1,90,2|8,0:0|0:0,0:0:0:0:
8,216,94272,6,0,B|100:192|84:280|184:248,1,180,2|2,0:0|0:0,0:0:0:0:
256,192,95219,1,8,0:0:0:0:
335,250,95535,2,0,B|428:280|412:192|504:216,1,180,2|2,0:0|0:0,0:0:0:0:
480,312,96483,1,8,0:0:0:0:
387,352,96798,6,0,P|343:352|302:334,1,90,2|8,0:0|0:0,0:0:0:0:
231,259,97430,2,0,P|187:259|148:279,1,90,2|8,0:0|0:0,0:0:0:0:
72,343,98061,2,0,P|102:261|75:176,1,180,2|2,0:0|0:0,0:0:0:0:
12,100,99009,1,8,0:0:0:0:
88,36,99325,6,0,L|180:52,1,90,6|8,0:0|0:0,0:0:0:0:
255,107,99956,2,0,P|300:109|341:92,1,90,2|8,0:0|0:0,0:0:0:0:
408,20,100588,2,0,L|384:204,1,180,2|2,0:0|0:0,0:0:0:0:
320,276,101535,1,8,0:0:0:0:
252,204,101851,6,0,P|208:204|164:228,1,90,2|8,0:0|0:0,0:0:0:0:
76,264,102483,2,0,L|64:172,1,90,2|8,0:0|0:0,0:0:0:0:
0,95,103114,2,0,P|83:72|151:126,1,180,2|2,0:0|0:0,0:0:0:0:
208,208,104061,1,8,0:0:0:0:
296,164,104377,6,0,L|312:68,1,90,2|8,0:0|0:0,0:0:0:0:
408,84,105009,2,0,L|393:172,1,90,2|8,0:0|0:0,0:0:0:0:
396,272,105640,2,0,P|440:288|488:280,2,90,2|8|2,0:0|0:0|0:0,0:0:0:0:
312,220,106588,1,8,0:0:0:0:
228,276,106904,5,8,0:0:0:0:
32,52,107851,1,8,0:0:0:0:
92,132,108167,2,0,P|178:140|239:77,1,180,0|2,0:0|0:0,0:0:0:0:
328,32,109114,1,12,0:0:0:0:
392,108,109430,6,0,L|356:288,1,180,6|2,0:0|0:0,0:0:0:0:
280,348,110377,1,8,0:0:0:0:
200,280,110693,2,0,P|152:280|116:304,2,90,2|8|2,0:0|0:0|0:0,0:0:0:0:
292,248,111640,1,8,0:0:0:0:
364,315,111956,6,0,P|393:234|345:161,1,180,2|2,0:0|0:0,0:0:0:0:
248,136,112904,1,8,0:0:0:0:
316,63,113219,2,0,P|360:64|401:82,2,90,2|8|2,0:0|0:0|0:0,0:0:0:0:
248,136,114167,1,8,0:0:0:0:
176,204,114483,6,0,L|212:20,2,180,6|2|2,0:0|0:0|0:0,0:0:0:0:
224,292,116061,1,8,0:0:0:0:
308,239,116377,2,0,P|352:240|389:264,1,90,2|8,0:0|0:0,0:0:0:0:
456,336,117009,6,0,P|439:248|476:168,1,180,2|2,0:0|0:0,0:0:0:0:
432,80,117956,1,8,0:0:0:0:
344,128,118272,2,0,L|248:116,1,90,2|2,0:0|0:0,0:0:0:0:
184,48,118904,2,0,P|139:53|100:75,1,90,2|12,0:0|0:0,0:0:0:0:
20,132,119535,6,0,B|48:180|48:180|28:304,1,180,6|2,0:0|0:0,0:0:0:0:
108,360,120483,1,8,0:0:0:0:
183,300,120798,2,0,P|228:298|264:324,1,90,2|8,0:0|0:0,0:0:0:0:
352,372,121430,2,0,L|444:360,1,90,2|8,0:0|0:0,0:0:0:0:
496,280,122061,6,0,P|467:196|496:112,1,180,2|2,0:0|0:0,0:0:0:0:
436,36,123009,1,8,0:0:0:0:
352,92,123325,2,0,L|248:80,1,90,2|8,0:0|0:0,0:0:0:0:
180,28,123956,2,0,P|160:68|168:116,1,90,2|8,0:0|0:0,0:0:0:0:
200,208,124588,6,0,B|164:240|164:240|120:240,2,90,6|8|2,0:0|0:0|0:0,0:0:0:0:
256,136,125535,1,8,0:0:0:0:
312,208,125851,2,0,B|348:240|348:240|392:240,2,90,2|8|2,0:0|0:0|0:0,0:0:0:0:
256,136,126798,1,8,0:0:0:0:
175,80,127114,6,0,P|254:41|332:79,1,180,2|2,0:0|0:0,0:0:0:0:
400,152,128061,1,8,0:0:0:0:
484,104,128377,2,0,P|496:56|484:16,2,90,2|8|2,0:0|0:0|0:0,0:0:0:0:
400,152,129325,1,8,0:0:0:0:
256,192,129640,12,0,132167,0:0:0:0:
48,76,139746,6,0,L|60:176,1,90,6|8,0:0|0:0,0:0:0:0:
132,232,140377,2,0,P|175:240|216:223,1,90,2|8,0:0|0:0,0:0:0:0:
295,160,141009,2,0,P|382:165|424:240,1,180,2|2,0:0|0:0,0:0:0:0:
328,248,141956,1,8,0:0:0:0:
232,220,142272,6,0,P|208:180|208:136,1,90,2|8,0:0|0:0,0:0:0:0:
264,56,142904,2,0,L|360:68,1,90,2|8,0:0|0:0,0:0:0:0:
440,19,143535,2,0,P|392:93|409:180,1,180,2|2,0:0|0:0,0:0:0:0:
480,252,144483,1,8,0:0:0:0:
412,324,144798,6,0,B|368:324|368:324|320:300,1,90,6|8,0:0|0:0,0:0:0:0:
240,260,145430,2,0,B|192:260|192:260|144:284,1,90,2|8,0:0|0:0,0:0:0:0:
80,343,146061,2,0,P|104:258|78:173,1,180,2|2,0:0|0:0,0:0:0:0:
28,80,147009,1,8,0:0:0:0:
116,32,147325,6,0,L|212:52,1,90,2|8,0:0|0:0,0:0:0:0:
276,120,147956,2,0,P|320:125|360:107,1,90,2|8,0:0|0:0,0:0:0:0:
424,32,148588,2,0,L|408:216,1,180,2|8,0:0|0:0,0:0:0:0:
348,288,149535,1,2,0:0:0:0:
268,228,149851,1,4,0:0:0:0:
124,176,159956,6,0,B|156:132|160:72|160:72|204:84|208:128,1,180,6|2,0:0|0:0,0:0:0:0:
256,204,160904,1,2,0:0:0:0:
305,117,161219,2,0,B|308:84|352:72|352:72|356:132|388:176,1,180,2|2,0:0|0:0,0:0:0:0:
472,228,162167,1,2,0:0:0:0:
407,304,162483,6,0,P|363:303|322:285,1,90,2|2,0:0|0:0,0:0:0:0:
252,216,163114,2,0,P|207:213|168:235,1,90,2|2,0:0|0:0,0:0:0:0:
132,328,163746,2,0,L|104:136,1,180,2|2,0:0|0:0,0:0:0:0:
272,40,165009,6,0,L|288:136,1,90,2|2,0:0|0:0,0:0:0:0:
356,200,165640,2,0,L|340:296,1,90,2|2,0:0|0:0,0:0:0:0:
255,340,166272,2,0,P|211:341|173:317,1,90,2|2,0:0|0:0,0:0:0:0:
112,240,166904,1,2,0:0:0:0:
168,160,167219,1,2,0:0:0:0:
256,204,167535,1,8,0:0:0:0:
256,192,167693,12,2,168798,0:0:0:0:
108,268,170061,6,0,P|173:211|258:227,1,180,6|2,0:0|0:0,0:0:0:0:
328,296,171009,1,8,0:0:0:0:
404,232,171325,2,0,P|415:190|405:146,1,90,2|8,0:0|0:0,0:0:0:0:
320,92,171956,2,0,L|228:100,1,90,2|8,0:0|0:0,0:0:0:0:
155,169,172588,6,0,P|69:179|7:119,1,180,2|2,0:0|0:0,0:0:0:0:
100,84,173535,1,8,0:0:0:0:
200,84,173851,2,0,L|180:264,1,180,2|2,0:0|0:0,0:0:0:0:
244,340,174798,1,8,0:0:0:0:
316,272,175114,6,0,P|360:264|404:271,1,90,6|8,0:0|0:0,0:0:0:0:
496,308,175746,2,0,L|488:212,1,90,2|8,0:0|0:0,0:0:0:0:
424,145,176377,2,0,P|380:137|337:149,1,90,2|8,0:0|0:0,0:0:0:0:
264,216,177009,2,0,P|220:224|177:212,1,90,2|8,0:0|0:0,0:0:0:0:
84,180,177640,6,0,L|72:272,2,90,2|8|2,0:0|0:0|0:0,0:0:0:0:
24,104,178588,1,8,0:0:0:0:
99,45,178904,2,0,P|186:33|254:88,1,180,2|2,0:0|0:0,0:0:0:0:
292,180,179851,1,12,0:0:0:0:
212,240,180167,6,0,P|125:252|57:197,1,180,6|2,0:0|0:0,0:0:0:0:
152,160,181114,1,8,0:0:0:0:
212,240,181430,2,0,L|200:336,1,90,2|8,0:0|0:0,0:0:0:0:
300,344,182061,2,0,L|312:248,1,90,2|8,0:0|0:0,0:0:0:0:
335,161,182693,6,0,P|421:142|488:197,1,180,2|2,0:0|0:0,0:0:0:0:
400,236,183640,1,8,0:0:0:0:
335,161,183956,2,0,L|352:56,2,90,2|8|2,0:0|0:0|0:0,0:0:0:0:
252,212,184904,1,8,0:0:0:0:
167,156,185219,6,0,P|81:153|25:220,1,180,6|2,0:0|0:0,0:0:0:0:
120,244,186167,1,8,0:0:0:0:
76,333,186483,2,0,P|162:336|218:269,1,180,2|2,0:0|0:0,0:0:0:0:
264,180,187430,1,8,0:0:0:0:
343,236,187746,6,0,P|356:279|344:322,1,90,2|8,0:0|0:0,0:0:0:0:
256,364,188377,2,0,L|160:356,1,90,2|8,0:0|0:0,0:0:0:0:
100,288,189009,2,0,P|88:240|100:200,1,90,2|8,0:0|0:0,0:0:0:0:
176,140,189640,2,0,P|186:97|174:55,1,90,2|8,0:0|0:0,0:0:0:0:
81,14,190272,1,4,0:0:0:0:
256,192,190430,12,0,192798,0:0:0:0:
