osu file format v14

[General]
AudioFilename: audio.mp3
AudioLeadIn: 0
PreviewTime: 58525
Countdown: 0
SampleSet: Soft
StackLeniency: 0.7
Mode: 0
LetterboxInBreaks: 0
WidescreenStoryboard: 0

[Editor]
DistanceSpacing: 0.7
BeatDivisor: 4
GridSize: 4
TimelineZoom: 2.2

[Metadata]
Title:Platonic Love
TitleUnicode:プラトニック・ラヴ
Artist:Kano
ArtistUnicode:鹿乃
Creator:Fycho
Version:Normal
Source:
Tags:メル メリー
BeatmapID:1083296
BeatmapSetID:509292

[Difficulty]
HPDrainRate:4
CircleSize:3.2
OverallDifficulty:4
ApproachRate:5
SliderMultiplier:1.2
SliderTickRate:1

[Events]
//Background and Video events
0,0,"bg1.jpg",0,0
//Break Periods
2,79250,87956
2,149987,158693
//Storyboard Layer 0 (Background)
//Storyboard Layer 1 (Fail)
//Storyboard Layer 2 (Pass)
//Storyboard Layer 3 (Foreground)
//Storyboard Sound Samples

[TimingPoints]
18420,315.789473684211,4,2,1,80,1,0
38630,-100,4,2,1,70,0,0
58841,-100,4,2,1,90,0,1
79051,-100,4,2,1,80,0,0
89156,-100,4,2,1,70,0,0
109367,-100,4,2,1,90,0,1
129577,-100,4,2,1,80,0,0
159893,-100,4,2,1,60,0,0
167472,-100,4,2,1,70,0,0
168735,-100,4,2,1,80,0,0
169998,-100,4,2,1,90,0,1
190209,-100,4,2,1,80,0,0

[Colours]
Combo1 : 255,64,222
Combo2 : 40,240,240
Combo3 : 0,101,225
Combo4 : 255,9,15

[HitObjects]
165,113,18419,6,0,P|235:101|297:92,2,120,4|8|0,0:0|0:0|0:0,0:0:0:0:
124,124,19209,2,0,P|120:183|116:243,1,120,2|0,0:0|0:0,0:0:0:0:
133,282,19683,2,0,P|190:271|241:301,1,120,2|8,0:0|0:0,0:0:0:0:
260,338,20156,2,0,L|272:218,1,120,2|0,0:0|0:0,0:0:0:0:
279,177,20630,1,8,0:0:0:0:
284,93,20946,6,0,P|232:66|173:69,2,120,2|8|0,0:0|0:0|0:0,0:0:0:0:
326,92,21735,2,0,L|445:86,1,120,2|0,0:0|0:0,0:0:0:0:
479,110,22209,2,0,L|467:229,1,120,2|8,0:0|0:0,0:0:0:0:
439,261,22683,2,0,P|380:269|329:299,1,120,2|0,0:0|0:0,0:0:0:0:
305,334,23156,1,8,0:0:0:0:
221,327,23472,6,0,L|216:207,2,120,4|8|0,0:0|0:0|0:0,0:0:0:0:
181,343,24262,2,0,P|123:354|66:337,1,120,2|0,0:0|0:0,0:0:0:0:
24,331,24735,2,0,L|38:211,1,120,2|8,0:0|0:0,0:0:0:0:
65,180,25209,2,0,P|124:180|172:214,1,120,2|0,0:0|0:0,0:0:0:0:
198,247,25683,1,8,0:0:0:0:
279,264,25998,6,0,B|393:229,2,120,2|8|0,0:0|0:0|0:0,0:0:0:0:
297,226,26788,2,0,L|313:107,1,120,2|0,0:0|0:0,0:0:0:0:
283,76,27262,1,2,0:0:0:0:
346,21,27577,1,8,0:0:0:0:
346,21,27735,2,0,L|465:33,1,120,2|0,0:0|0:0,0:0:0:0:
491,66,28209,1,8,0:0:0:0:
483,149,28525,6,0,L|470:268,1,120,4|8,0:0|0:0,0:0:0:0:
389,290,29156,1,0,0:0:0:0:
389,290,29314,2,0,L|405:171,1,120,2|0,0:0|0:0,0:0:0:0:
372,143,29788,2,0,P|314:151|268:188,1,120,2|8,0:0|0:0,0:0:0:0:
228,204,30262,2,0,L|108:197,1,120,2|0,0:0|0:0,0:0:0:0:
66,199,30735,1,8,0:0:0:0:
105,273,31051,6,0,P|129:325|108:380,2,120,2|8|0,0:0|0:0|0:0,0:0:0:0:
66,255,31841,2,0,L|90:137,1,120,2|0,0:0|0:0,0:0:0:0:
85,95,32314,2,0,L|204:85,1,120,2|8,0:0|0:0,0:0:0:0:
246,81,32788,1,2,0:0:0:0:
328,96,33104,2,0,L|387:95,2,60,0|8|2,0:0|0:0|0:0,0:0:0:0:
312,134,33577,6,0,P|288:188|294:247,2,120,4|8|0,0:0|0:0|0:0,0:0:0:0:
328,96,34367,1,2,0:0:0:0:
408,121,34683,2,0,L|473:107,1,60,0|2,0:0|0:0,0:0:0:0:
484,190,35156,2,0,L|478:249,1,60,8|2,0:0|0:0,0:0:0:0:
401,285,35630,2,0,L|387:226,2,60,0|8|2,0:0|0:0|0:0,0:0:0:0:
367,311,36104,6,0,P|310:324|253:306,1,120,2|8,0:0|0:0,0:0:0:0:
168,305,36735,2,0,L|193:232,1,60,0|2,0:0|0:0,0:0:0:0:
214,168,37209,1,0,0:0:0:0:
214,168,37367,2,0,P|270:148|329:151,1,120,2|12,0:0|0:0,0:0:0:0:
351,186,37841,2,0,L|364:66,1,120,2|8,0:0|0:0,0:0:0:0:
341,31,38314,1,8,0:0:0:0:
257,27,38630,6,0,L|137:28,2,120,4|8|2,0:0|0:0|0:0,0:0:0:0:
269,110,39577,1,8,0:0:0:0:
333,163,39893,2,0,L|452:151,1,120,2|8,0:0|0:0,0:0:0:0:
472,232,40525,1,2,0:0:0:0:
407,288,40841,1,8,0:0:0:0:
323,282,41156,6,0,P|264:274|204:277,2,120,2|8|2,0:0|0:0|0:0,0:0:0:0:
344,200,42104,1,8,0:0:0:0:
273,153,42420,2,0,P|214:155|155:144,1,120,2|8,0:0|0:0,0:0:0:0:
78,106,43051,1,2,0:0:0:0:
51,185,43367,1,8,0:0:0:0:
109,245,43683,6,0,L|76:360,2,120,2|8|2,0:0|0:0|0:0,0:0:0:0:
181,203,44630,1,8,0:0:0:0:
247,254,44946,1,2,0:0:0:0:
326,227,45262,1,8,0:0:0:0:
396,272,45577,2,0,L|411:348,2,60,2|0|8,0:0|0:0|0:0,0:0:0:0:
326,227,46209,6,0,P|316:167|311:108,1,120,2|8,0:0|0:0,0:0:0:0:
371,49,46841,2,0,L|442:75,2,60,2|0|8,0:0|0:0|0:0,0:0:0:0:
292,19,47472,2,0,P|233:29|174:29,1,120,2|8,0:0|0:0,0:0:0:0:
96,65,48104,1,2,0:0:0:0:
166,111,48420,1,8,0:0:0:0:
146,192,48735,6,0,L|28:215,1,120,4|8,0:0|0:0,0:0:0:0:
7,296,49367,2,0,P|6:325|0:355,1,60,2|0,0:0|0:0,0:0:0:0:
35,378,49683,2,0,L|153:356,1,120,8|2,0:0|0:0,0:0:0:0:
199,285,50314,1,8,0:0:0:0:
156,212,50630,1,2,0:0:0:0:
233,179,50946,1,8,0:0:0:0:
279,248,51262,6,0,L|398:233,2,120,2|8|2,0:0|0:0|0:0,0:0:0:0:
196,263,52209,1,8,0:0:0:0:
120,226,52525,2,0,L|85:341,1,120,2|8,0:0|0:0,0:0:0:0:
166,362,53156,2,0,L|184:304,1,60,2|0,0:0|0:0,0:0:0:0:
196,263,53472,1,8,0:0:0:0:
256,204,53788,6,0,L|375:192,2,120,2|8|2,0:0|0:0|0:0,0:0:0:0:
180,161,54735,2,0,L|61:178,1,120,8|2,0:0|0:0,0:0:0:0:
46,95,55367,1,8,0:0:0:0:
122,60,55683,2,0,L|113:-9,2,60,2|0|8,0:0|0:0|0:0,0:0:0:0:
201,86,56314,6,0,P|258:99|310:72,1,120,2|8,0:0|0:0,0:0:0:0:
385,33,56946,1,2,0:0:0:0:
436,99,57262,1,8,0:0:0:0:
385,165,57577,2,0,P|366:221|355:280,2,120,2|8|8,0:0|0:0|0:0,0:0:0:0:
307,130,58525,2,0,L|247:121,1,60,8|0,0:0|0:0,0:0:0:0:
208,106,58841,6,0,L|88:91,2,120,4|8|2,0:0|0:0|0:0,0:0:0:0:
256,37,59788,1,8,0:0:0:0:
339,46,60104,2,0,P|364:99|359:158,1,120,2|8,0:0|0:0,0:0:0:0:
298,217,60735,2,0,P|272:163|278:104,1,120,2|8,0:0|0:0,0:0:0:0:
339,46,61367,5,2,0:0:0:0:
422,39,61683,1,8,0:0:0:0:
485,94,61998,2,0,L|499:213,1,120,2|8,0:0|0:0,0:0:0:0:
501,297,62630,2,0,L|375:285,1,120,2|8,0:0|0:0,0:0:0:0:
298,274,63262,1,2,0:0:0:0:
229,322,63577,1,8,0:0:0:0:
147,300,63893,6,0,L|135:180,2,120,4|8|2,0:0|0:0|0:0,0:0:0:0:
229,322,64841,1,8,0:0:0:0:
298,274,65156,2,0,P|315:218|305:159,1,120,2|8,0:0|0:0,0:0:0:0:
290,75,65788,2,0,L|172:100,1,120,2|8,0:0|0:0,0:0:0:0:
94,132,66420,5,2,0:0:0:0:
73,213,66735,1,8,0:0:0:0:
154,233,67051,2,0,L|154:292,1,60,2|0,0:0|0:0,0:0:0:0:
161,334,67367,1,8,0:0:0:0:
242,313,67683,2,0,L|242:253,1,60,8|0,0:0|0:0,0:0:0:0:
262,216,67998,2,0,L|320:202,1,60,0|8,0:0|0:0,0:0:0:0:
362,202,68314,2,0,P|381:258|381:318,1,120,0|8,0:0|0:0,0:0:0:0:
305,355,68946,6,0,L|185:360,2,120,4|8|2,0:0|0:0|0:0,0:0:0:0:
380,318,69893,2,0,P|397:262|379:206,1,120,8|2,0:0|0:0,0:0:0:0:
342,129,70525,1,8,0:0:0:0:
262,155,70841,2,0,L|253:92,1,60,2|0,0:0|0:0,0:0:0:0:
252,53,71156,1,8,0:0:0:0:
171,76,71472,6,0,P|142:127|145:186,1,120,2|8,0:0|0:0,0:0:0:0:
152,270,72104,1,2,0:0:0:0:
232,245,72420,1,8,0:0:0:0:
280,313,72735,2,0,P|340:337|399:321,2,120,2|8|2,0:0|0:0|0:0,0:0:0:0:
232,245,73683,2,0,L|244:182,1,60,8|2,0:0|0:0,0:0:0:0:
230,146,73998,6,0,L|112:171,1,120,4|8,0:0|0:0,0:0:0:0:
30,196,74630,1,2,0:0:0:0:
22,279,74946,1,8,0:0:0:0:
87,331,75262,2,0,P|150:303|177:251,1,120,2|8,0:0|0:0,0:0:0:0:
175,176,75893,2,0,L|177:113,2,60,2|0|8,0:0|0:0|0:0,0:0:0:0:
255,152,76525,6,0,P|313:148|360:184,1,120,2|8,0:0|0:0,0:0:0:0:
372,224,76998,1,2,0:0:0:0:
372,224,77156,2,0,L|357:343,1,120,2|8,0:0|0:0,0:0:0:0:
272,338,77788,1,2,0:0:0:0:
192,309,78104,2,0,P|137:289|78:299,1,120,12|8,0:0|0:0,0:0:0:0:
31,228,78735,2,0,L|45:169,2,60,8|8|4,0:0|0:0|0:0,0:0:0:0:
34,193,89156,6,0,L|32:73,2,120,4|8|2,0:0|0:0|0:0,0:0:0:0:
96,249,90104,1,8,0:0:0:0:
174,218,90420,2,0,L|185:337,1,120,2|8,0:0|0:0,0:0:0:0:
266,317,91051,1,2,0:0:0:0:
348,334,91367,1,8,0:0:0:0:
430,318,91683,6,0,P|438:259|435:199,2,120,2|8|2,0:0|0:0|0:0,0:0:0:0:
348,334,92630,1,8,0:0:0:0:
297,267,92946,2,0,P|295:208|306:149,1,120,2|8,0:0|0:0,0:0:0:0:
368,91,93577,1,2,0:0:0:0:
308,31,93893,1,8,0:0:0:0:
227,53,94209,6,0,L|111:20,2,120,2|8|2,0:0|0:0|0:0,0:0:0:0:
249,134,95156,1,8,0:0:0:0:
212,209,95472,1,2,0:0:0:0:
266,273,95788,1,8,0:0:0:0:
246,354,96104,2,0,L|188:336,1,60,2|0,0:0|0:0,0:0:0:0:
147,327,96420,1,8,0:0:0:0:
65,347,96735,6,0,P|55:288|50:229,1,120,2|8,0:0|0:0,0:0:0:0:
96,157,97367,2,0,L|92:97,2,60,2|0|8,0:0|0:0|0:0,0:0:0:0:
174,187,97998,2,0,P|233:187|292:177,1,120,2|8,0:0|0:0,0:0:0:0:
335,179,98472,2,0,P|338:238|324:296,1,120
299,331,98946,1,8,0:0:0:0:
218,354,99262,6,0,P|157:353|96:356,1,120,4|8,0:0|0:0,0:0:0:0:
76,274,99893,2,0,P|106:273|136:266,1,60,2|0,0:0|0:0,0:0:0:0:
175,254,100209,1,8,0:0:0:0:
230,190,100525,1,2,0:0:0:0:
311,168,100841,1,8,0:0:0:0:
392,185,101156,2,0,P|390:243|344:278,1,120,2|8,0:0|0:0,0:0:0:0:
260,265,101788,6,0,L|274:384,2,120,2|8|2,0:0|0:0|0:0,0:0:0:0:
283,184,102735,1,8,0:0:0:0:
213,137,103051,2,0,L|94:155,1,120,2|8,0:0|0:0,0:0:0:0:
76,72,103683,2,0,L|135:64,1,60,2|0,0:0|0:0,0:0:0:0:
171,41,103998,1,8,0:0:0:0:
253,26,104314,6,0,L|394:59,2,120,2|8|2,0:0|0:0|0:0,0:0:0:0:
252,110,105262,2,0,L|269:228,1,120,8|2,0:0|0:0,0:0:0:0:
217,295,105893,1,8,0:0:0:0:
290,335,106209,2,0,L|349:338,2,60,2|0|8,0:0|0:0|0:0,0:0:0:0:
217,295,106841,6,0,L|180:226,1,60,8|8,0:0|0:0,0:0:0:0:
324,81,107788,2,0,L|353:134,1,60,8|8,0:0|0:0,0:0:0:0:
153,67,108735,2,0,L|26:81,1,120,2|12,0:0|0:0,0:0:0:0:
15,162,109367,6,0,L|0:281,2,120,4|8|2,0:0|0:0|0:0,0:0:0:0:
98,171,110314,1,8,0:0:0:0:
151,235,110630,2,0,P|210:240|263:214,1,120,2|8,0:0|0:0,0:0:0:0:
310,143,111262,2,0,P|363:117|422:122,1,120,2|8,0:0|0:0,0:0:0:0:
474,188,111893,5,2,0:0:0:0:
478,271,112209,1,8,0:0:0:0:
411,322,112525,2,0,L|291:336,1,120,2|8,0:0|0:0,0:0:0:0:
208,325,113156,2,0,P|194:256|201:207,1,120,2|8,0:0|0:0,0:0:0:0:
268,156,113788,1,2,0:0:0:0:
201,104,114104,1,8,0:0:0:0:
269,55,114420,6,0,L|388:43,2,120,4|8|2,0:0|0:0|0:0,0:0:0:0:
191,22,115367,1,8,0:0:0:0:
145,92,115683,2,0,L|21:108,1,120,2|8,0:0|0:0,0:0:0:0:
49,188,116314,2,0,L|174:173,1,120,2|8,0:0|0:0,0:0:0:0:
233,120,116946,5,2,0:0:0:0:
310,152,117262,1,8,0:0:0:0:
389,124,117577,2,0,L|403:192,1,60,2|0,0:0|0:0,0:0:0:0:
429,214,117893,1,8,0:0:0:0:
406,295,118209,2,0,L|346:295,1,60,12|0,0:0|0:0,0:0:0:0:
306,310,118525,2,0,L|292:251,1,60,0|8,0:0|0:0,0:0:0:0:
250,247,118841,2,0,P|188:249|133:266,1,120,0|8,0:0|0:0,0:0:0:0:
56,301,119472,6,0,L|50:181,2,120,4|8|2,0:0|0:0|0:0,0:0:0:0:
116,360,120420,1,8,0:0:0:0:
194,330,120735,2,0,L|272:326,1,60,2|0,0:0|0:0,0:0:0:0:
296,322,121051,1,8,0:0:0:0:
369,362,121367,2,0,P|421:275|415:245,1,120,2|8,0:0|0:0,0:0:0:0:
413,178,121998,6,0,P|318:114|289:114,1,120,2|8,0:0|0:0,0:0:0:0:
236,90,122630,1,2,0:0:0:0:
181,153,122946,1,8,0:0:0:0:
104,187,123262,2,0,P|93:245|107:303,2,120,2|8|10,0:0|0:0|0:0,0:0:0:0:
181,153,124209,2,0,L|242:168,1,60,8|0,0:0|0:0,0:0:0:0:
280,178,124525,6,0,L|254:60,1,120,4|8,0:0|0:0,0:0:0:0:
171,46,125156,1,2,0:0:0:0:
110,104,125472,1,8,0:0:0:0:
105,187,125788,2,0,P|132:249|196:278,1,120,2|8,0:0|0:0,0:0:0:0:
259,274,126420,2,0,L|333:283,2,60,2|0|8,0:0|0:0|0:0,0:0:0:0:
292,196,127051,6,0,P|327:148|323:90,1,120,4|8,0:0|0:0,0:0:0:0:
295,58,127525,1,0,0:0:0:0:
295,58,127683,2,0,L|175:43,1,120,2|8,0:0|0:0,0:0:0:0:
101,81,128314,1,2,0:0:0:0:
152,147,128630,2,0,P|161:205|141:261,1,120,12|8,0:0|0:0,0:0:0:0:
200,320,129262,2,0,L|258:334,2,60,8|8|4,0:0|0:0|0:0,0:0:0:0:
120,346,129893,5,8,0:0:0:0:
44,308,130209,1,2,0:0:0:0:
49,224,130525,1,8,0:0:0:0:
100,157,130841,2,0,L|180:143,1,60,2|0,0:0|0:0,0:0:0:0:
195,125,131156,2,0,L|270:145,1,60,8|0,0:0|0:0,0:0:0:0:
295,145,131472,2,0,P|313:250|311:261,1,120,2|8,0:0|0:0,0:0:0:0:
284,343,132104,6,0,L|148:343,1,120,2|8,0:0|0:0,0:0:0:0:
123,265,132735,1,2,0:0:0:0:
60,320,133051,1,8,0:0:0:0:
25,243,133367,2,0,L|18:169,1,60,2|0,0:0|0:0,0:0:0:0:
36,144,133683,2,0,L|109:135,1,60,8|0,0:0|0:0,0:0:0:0:
132,116,133998,1,2,0:0:0:0:
215,109,134314,1,8,0:0:0:0:
289,70,134630,6,0,P|326:88|349:176,1,120,4|8,0:0|0:0,0:0:0:0:
385,236,135262,1,2,0:0:0:0:
368,318,135577,1,8,0:0:0:0:
290,349,135893,2,0,L|180:277,2,120,2|8|2,0:0|0:0|0:0,0:0:0:0:
368,318,136841,1,8,0:0:0:0:
420,249,137156,6,0,P|430:174|408:126,1,120,2|8,0:0|0:0,0:0:0:0:
343,87,137788,1,2,0:0:0:0:
269,128,138104,1,8,0:0:0:0:
185,119,138420,2,0,L|54:111,2,120,2|8|2,0:0|0:0|0:0,0:0:0:0:
228,191,139367,2,0,L|217:259,1,60,8|8,0:0|0:0,0:0:0:0:
195,285,139683,5,4,0:0:0:0:
252,346,139998,1,8,0:0:0:0:
321,298,140314,1,2,0:0:0:0:
393,350,140630,1,8,0:0:0:0:
450,288,140946,2,0,L|472:225,1,60,2|0,0:0|0:0,0:0:0:0:
464,189,141262,2,0,L|389:209,1,60,8|0,0:0|0:0,0:0:0:0:
373,177,141577,2,0,P|370:117|356:50,1,120,2|8,0:0|0:0,0:0:0:0:
279,29,142209,6,0,L|153:58,1,120,2|8,0:0|0:0,0:0:0:0:
95,107,142841,1,2,0:0:0:0:
165,152,143156,1,8,0:0:0:0:
105,211,143472,2,0,P|104:240|108:270,1,60,2|0,0:0|0:0,0:0:0:0:
133,304,143788,2,0,L|192:311,1,60,8|0,0:0|0:0,0:0:0:0:
234,310,144104,1,2,0:0:0:0:
313,336,144420,1,8,0:0:0:0:
386,295,144735,6,0,P|400:238|396:173,1,120,4|8,0:0|0:0,0:0:0:0:
341,113,145367,1,2,0:0:0:0:
256,111,145683,1,8,0:0:0:0:
188,160,145998,2,0,L|78:88,2,120,2|8|2,0:0|0:0|0:0,0:0:0:0:
188,244,146946,1,8,0:0:0:0:
104,255,147262,6,0,P|85:311|97:369,1,120,4|8,0:0|0:0,0:0:0:0:
180,375,147893,1,0,0:0:0:0:
259,346,148209,1,8,0:0:0:0:
343,344,148525,2,0,L|474:336,2,120,2|12|8,0:0|0:0|0:0,0:0:0:0:
327,261,149472,2,0,L|336:201,2,60,8|8|4,0:0|0:0|0:0,0:0:0:0:
237,202,159893,6,0,L|115:193,1,120,4|0,0:0|0:0,0:0:0:0:
157,118,160525,2,0,L|276:125,1,120,2|0,0:0|0:0,0:0:0:0:
354,157,161156,1,2,0:0:0:0:
437,144,161472,1,0,0:0:0:0:
479,216,161788,2,0,P|477:256|406:304,1,120,2|0,0:0|0:0,0:0:0:0:
335,285,162420,6,0,L|200:288,1,120,2|0,0:0|0:0,0:0:0:0:
146,238,163051,1,2,0:0:0:0:
203,176,163367,1,0,0:0:0:0:
134,126,163683,2,0,L|128:0,2,120,2|0|2,0:0|0:0|0:0,0:0:0:0:
58,162,164630,1,0,0:0:0:0:
109,228,164946,6,0,L|231:237,1,120,2|0,0:0|0:0,0:0:0:0:
278,304,165577,2,0,L|397:296,1,120,2|0,0:0|0:0,0:0:0:0:
467,248,166209,1,2,0:0:0:0:
465,163,166525,1,0,0:0:0:0:
397,113,166841,2,0,P|357:115|309:186,1,120,2|0,0:0|0:0,0:0:0:0:
244,227,167472,6,0,L|109:224,1,120,8|0,0:0|0:0,0:0:0:0:
81,151,168104,2,0,B|194:114|194:114|328:163,1,240,0|8,0:0|0:0,0:0:0:0:
375,205,169051,1,12,0:0:0:0:
300,242,169367,2,0,L|271:313,1,60,8|8,0:0|0:0,0:0:0:0:
251,330,169683,2,0,L|289:397,1,60,8|8,0:0|0:0,0:0:0:0:
322,380,169998,6,0,L|446:354,2,120,4|8|2,0:0|0:0|0:0,0:0:0:0:
251,330,170946,1,8,0:0:0:0:
169,309,171262,2,0,P|157:246|178:177,1,120,2|8,0:0|0:0,0:0:0:0:
162,108,171893,2,0,P|108:82|49:87,1,120,2|8,0:0|0:0,0:0:0:0:
7,159,172525,5,2,0:0:0:0:
22,241,172841,1,8,0:0:0:0:
72,308,173156,2,0,L|191:322,1,120,2|8,0:0|0:0,0:0:0:0:
274,331,173788,2,0,P|288:262|281:213,1,120,2|8,0:0|0:0,0:0:0:0:
210,167,174420,1,2,0:0:0:0:
265,104,174735,1,8,0:0:0:0:
188,68,175051,6,0,L|59:35,2,120,6|8|2,0:0|0:0|0:0,0:0:0:0:
258,22,175998,1,8,0:0:0:0:
341,17,176314,2,0,L|465:33,1,120,2|8,0:0|0:0,0:0:0:0:
497,107,176946,2,0,P|506:174|460:225,1,120,2|8,0:0|0:0,0:0:0:0:
396,236,177577,5,2,0:0:0:0:
312,223,177893,1,8,0:0:0:0:
229,206,178209,2,0,L|215:274,1,60,2|0,0:0|0:0,0:0:0:0:
189,296,178525,1,8,0:0:0:0:
107,314,178841,2,0,L|124:242,1,60,12|0,0:0|0:0,0:0:0:0:
97,220,179156,2,0,L|36:233,1,60,0|8,0:0|0:0,0:0:0:0:
9,201,179472,2,0,L|19:75,1,120,0|8,0:0|0:0,0:0:0:0:
81,25,180104,6,0,P|135:25|208:59,2,120,4|8|2,0:0|0:0|0:0,0:0:0:0:
92,108,181051,1,8,0:0:0:0:
148,170,181367,2,0,L|207:173,1,60,2|0,0:0|0:0,0:0:0:0:
248,184,181683,1,8,0:0:0:0:
331,189,181998,2,0,P|354:118|314:66,1,120,2|8,0:0|0:0,0:0:0:0:
264,34,182630,6,0,P|208:54|177:108,1,120,2|8,0:0|0:0,0:0:0:0:
196,185,183262,1,2,0:0:0:0:
273,215,183577,1,8,0:0:0:0:
351,244,183893,2,0,P|361:302|331:357,2,120,2|8|2,0:0|0:0|0:0,0:0:0:0:
271,217,184841,2,0,L|210:229,1,60,8|8,0:0|0:0,0:0:0:0:
171,216,185156,6,0,L|196:98,1,120,4|8,0:0|0:0,0:0:0:0:
265,51,185788,1,2,0:0:0:0:
347,65,186104,1,8,0:0:0:0:
400,129,186420,2,0,L|417:259,1,120,2|8,0:0|0:0,0:0:0:0:
348,298,187051,2,0,L|364:366,2,60,2|0|8,0:0|0:0|0:0,0:0:0:0:
307,224,187683,6,0,P|300:167|258:121,1,120,2|8,0:0|0:0,0:0:0:0:
228,93,188156,1,0,0:0:0:0:
228,93,188314,2,0,L|113:135,1,120,2|8,0:0|0:0,0:0:0:0:
39,170,188946,1,2,0:0:0:0:
101,225,189262,2,0,P|121:281|111:339,1,120,12|8,0:0|0:0,0:0:0:0:
191,364,189893,2,0,L|253:368,2,60,8|8|4,0:0|0:0|0:0,0:0:0:0:
208,281,190525,5,8,0:0:0:0:
259,214,190841,2,0,L|337:197,1,60,0|2,0:0|0:0,0:0:0:0:
401,211,191314,2,0,L|395:288,1,60,0|2,0:0|0:0,0:0:0:0:
350,341,191788,1,8,0:0:0:0:
350,341,191946,2,0,L|216:339,1,120,2|0,0:0|0:0,0:0:0:0:
188,345,192420,1,8,0:0:0:0:
118,304,192735,6,0,P|65:276|6:279,2,120,2|8|0,0:0|0:0|0:0,0:0:0:0:
139,267,193525,2,0,L|176:152,1,120,2|0,0:0|0:0,0:0:0:0:
184,111,193998,2,0,L|303:87,1,120,2|8,0:0|0:0,0:0:0:0:
334,61,194472,2,0,P|393:68|444:98,1,120,2|0,0:0|0:0,0:0:0:0:
473,128,194946,1,8,0:0:0:0:
481,211,195262,6,0,L|477:331,2,120,4|8|0,0:0|0:0|0:0,0:0:0:0:
439,214,196051,2,0,P|385:200|317:222,1,120,2|0,0:0|0:0,0:0:0:0:
290,242,196525,2,0,L|275:122,1,120,2|8,0:0|0:0,0:0:0:0:
263,82,196998,2,0,P|203:81|155:115,1,120,2|0,0:0|0:0,0:0:0:0:
117,131,197472,1,8,0:0:0:0:
85,208,197788,6,0,B|44:344,2,120,0|8|0,0:0|0:0|0:0,0:0:0:0:
123,225,198577,2,0,L|250:205,1,120,2|0,0:0|0:0,0:0:0:0:
283,203,199051,1,2,0:0:0:0:
320,128,199367,1,8,0:0:0:0:
320,128,199525,2,0,L|439:138,1,120,2|0,0:0|0:0,0:0:0:0:
480,148,199998,1,8,0:0:0:0:
460,228,200314,6,0,L|472:347,1,120,4|8,0:0|0:0,0:0:0:0:
388,348,200946,1,0,0:0:0:0:
388,348,201104,2,0,L|371:229,1,120,2|0,0:0|0:0,0:0:0:0:
346,194,201577,2,0,P|299:156|241:149,1,120,2|8,0:0|0:0,0:0:0:0:
206,125,202051,2,0,L|75:179,1,120,2|0,0:0|0:0,0:0:0:0:
58,191,202525,1,8,0:0:0:0:
33,271,202841,6,0,P|56:329|29:378,2,120,2|8|0,0:0|0:0|0:0,0:0:0:0:
10,235,203630,2,0,L|128:272,1,120,2|0,0:0|0:0,0:0:0:0:
166,265,204104,2,0,L|291:233,1,120,2|8,0:0|0:0,0:0:0:0:
318,214,204577,1,2,0:0:0:0:
382,160,204893,2,0,L|399:95,2,60,0|8|2,0:0|0:0|0:0,0:0:0:0:
421,175,205367,6,0,P|445:229|429:288,2,120,4|8|0,0:0|0:0|0:0,0:0:0:0:
382,160,206156,1,2,0:0:0:0:
299,141,206472,2,0,L|276:196,1,60,0|2,0:0|0:0,0:0:0:0:
206,244,206946,2,0,L|188:186,1,60,8|2,0:0|0:0,0:0:0:0:
151,110,207420,2,0,L|164:51,2,60,0|8|2,0:0|0:0|0:0,0:0:0:0:
110,122,207893,6,0,L|77:254,1,120,0|8,0:0|0:0,0:0:0:0:
86,322,208525,1,0,0:0:0:0:
86,322,208683,1,2,0:0:0:0:
168,308,208998,1,2,0:0:0:0:
168,308,209156,2,0,L|299:289,1,120,2|12,0:0|0:0,0:0:0:0:
324,271,209630,2,0,P|293:203|310:151,1,120,8|8,0:0|0:0,0:0:0:0:
329,128,210104,2,0,L|394:127,1,60,8|12,0:0|0:0,0:0:0:0:
