osu file format v14

[General]
AudioFilename: audio.mp3
AudioLeadIn: 0
PreviewTime: -1
Countdown: 0
SampleSet: Normal
StackLeniency: 0.3
Mode: 0
LetterboxInBreaks: 0
WidescreenStoryboard: 0

[Editor]
DistanceSpacing: 1.7
BeatDivisor: 4
GridSize: 16
TimelineZoom: 1.7

[Metadata]
Title:Nameless
TitleUnicode:Nameless
Artist:Kano
ArtistUnicode:Kano
Creator:Miles_Naismith
Version:Hard
Source:
Tags:
BeatmapID:2059517
BeatmapSetID:984279

[Difficulty]
HPDrainRate:3
CircleSize:3
OverallDifficulty:5
ApproachRate:7
SliderMultiplier:0.999999999999999
SliderTickRate:1

[Events]
//Background and Video events
//Break Periods
//Storyboard Layer 0 (Background)
//Storyboard Layer 1 (Fail)
//Storyboard Layer 2 (Pass)
//Storyboard Layer 3 (Foreground)
//Storyboard Sound Samples

[TimingPoints]
5437,333.333333333333,4,1,0,100,1,0

[HitObjects]
312,208,5437,5,0,0:0:0:0:
268,280,5603,2,0,P|212:291|191:242,1,99.9999999999999
185,176,6103,1,0,0:0:0:0:
238,109,6270,2,0,P|294:98|315:147,1,99.9999999999999
324,212,6770,5,0,0:0:0:0:
339,295,6936,2,0,P|371:329|416:313,1,99.9999999999999
454,237,7436,1,0,0:0:0:0:
446,152,7603,2,0,P|424:109|377:111,1,99.9999999999999
308,162,8103,5,0,0:0:0:0:
281,242,8270,2,0,B|244:86|170:239|170:239|92:63|58:267|58:267,1,400
308,314,10103,6,0,P|383:302|394:234,1,150
362,157,10770,1,0,0:0:0:0:
208,84,11103,1,0,0:0:0:0:
107,220,11436,1,0,0:0:0:0:
49,59,11770,1,0,0:0:0:0:
207,120,12103,1,0,0:0:0:0:
97,249,12436,1,0,0:0:0:0:
258,303,12770,2,0,P|341:288|351:224,1,150
329,152,13436,5,0,0:0:0:0:
456,38,13936,1,0,0:0:0:0:
448,122,14103,1,0,0:0:0:0:
300,37,14436,1,0,0:0:0:0:
153,124,14770,5,0,0:0:0:0:
310,188,15103,1,0,0:0:0:0:
152,250,15436,1,0,0:0:0:0:
235,101,15770,1,0,0:0:0:0:
395,46,16103,1,0,0:0:0:0:
434,211,16436,5,0,0:0:0:0:
303,101,16770,1,0,0:0:0:0:
354,262,17103,1,0,0:0:0:0:
425,108,17436,1,0,0:0:0:0:
274,188,17770,1,0,0:0:0:0:
441,214,18103,5,0,0:0:0:0:
316,98,18436,1,0,0:0:0:0:
337,267,18770,1,0,0:0:0:0:
421,119,19103,1,0,0:0:0:0:
268,193,19436,1,0,0:0:0:0:
419,270,19770,6,0,P|373:334|290:315,3,150
225,310,21436,2,0,P|185:270|184:211,7,99.9999999999999
141,63,24103,5,0,0:0:0:0:
310,66,24436,1,0,0:0:0:0:
139,63,24770,1,0,0:0:0:0:
308,66,25103,1,0,0:0:0:0:
138,63,25436,1,0,0:0:0:0:
308,66,25770,1,0,0:0:0:0:
262,229,26103,1,0,0:0:0:0:
94,254,26436,1,0,0:0:0:0:
251,319,26770,6,0,P|333:323|369:256,1,150
414,110,27603,2,0,B|422:69|392:35|345:37,1,99.9999999999999
279,56,28103,5,0,0:0:0:0:
279,56,28270,1,0,0:0:0:0:
279,56,28436,1,0,0:0:0:0:
194,63,28603,5,0,0:0:0:0:
194,63,28770,1,0,0:0:0:0:
194,63,28936,1,0,0:0:0:0:
40,266,29436,6,0,P|79:320|159:303,1,150
408,301,30436,2,0,L|399:189,5,99.9999999999999
279,81,32436,5,0,0:0:0:0:
120,143,32770,1,0,0:0:0:0:
265,229,33103,1,0,0:0:0:0:
95,240,33436,1,0,0:0:0:0:
214,118,33770,1,0,0:0:0:0:
54,60,34103,1,0,0:0:0:0:
220,24,34436,1,0,0:0:0:0:
94,138,34770,1,0,0:0:0:0:
260,171,35103,5,0,0:0:0:0:
388,60,35436,1,0,0:0:0:0:
334,221,35770,1,0,0:0:0:0:
272,62,36103,1,0,0:0:0:0:
430,124,36436,1,0,0:0:0:0:
262,157,36770,1,0,0:0:0:0:
357,16,37103,1,0,0:0:0:0:
366,185,37436,1,0,0:0:0:0:
195,191,37770,5,0,0:0:0:0:
28,221,38103,1,0,0:0:0:0:
153,106,38436,1,0,0:0:0:0:
102,268,38770,1,0,0:0:0:0:
50,106,39103,1,0,0:0:0:0:
196,192,39436,1,0,0:0:0:0:
334,334,40103,6,0,L|449:209,1,150
411,141,40770,2,0,L|291:40,1,150
215,70,41436,2,0,L|105:180,1,150
152,249,42103,2,0,L|284:341,1,150
355,306,42770,5,0,0:0:0:0:
455,168,43103,1,0,0:0:0:0:
333,49,43436,1,0,0:0:0:0:
166,85,43770,1,0,0:0:0:0:
66,222,44103,1,0,0:0:0:0:
188,331,44436,1,0,0:0:0:0:
356,303,44770,1,0,0:0:0:0:
465,173,45103,1,0,0:0:0:0:
354,44,45436,6,0,L|293:45,1,50
218,38,45770,2,0,L|218:111,1,50
221,173,46103,2,0,L|221:235,1,50
221,308,46436,2,0,L|150:310,1,50
85,313,46770,2,0,L|85:248,1,50
85,177,47103,2,0,L|86:119,1,50
85,41,47436,2,0,L|142:41,1,50
220,41,47770,2,0,L|281:42,1,50
269,41,48436,6,0,L|271:103,1,50
271,176,48770,2,0,L|271:231,1,50
273,311,49103,2,0,L|274:376,1,50
438,318,49770,2,0,L|438:250,1,50
436,182,50103,2,0,L|434:131,1,50
431,46,50436,2,0,L|361:44,1,50
295,47,50770,2,0,L|182:49,7,99.9999999999999
256,192,53436,12,0,55103,0:0:0:0:
161,168,55436,5,0,0:0:0:0:
161,168,55603,1,0,0:0:0:0:
219,106,55770,1,0,0:0:0:0:
219,106,55936,1,0,0:0:0:0:
301,86,56103,5,0,0:0:0:0:
226,238,56436,1,0,0:0:0:0:
301,86,56770,1,0,0:0:0:0:
310,255,57103,1,0,0:0:0:0:
301,86,57436,1,0,0:0:0:0:
228,239,57770,1,0,0:0:0:0:
301,86,58103,1,0,0:0:0:0:
301,255,58436,1,0,0:0:0:0:
377,102,58770,5,0,0:0:0:0:
215,49,59103,1,0,0:0:0:0:
377,102,59436,1,0,0:0:0:0:
207,120,59770,1,0,0:0:0:0:
377,102,60103,1,0,0:0:0:0:
234,194,60436,1,0,0:0:0:0:
377,102,60770,1,0,0:0:0:0:
301,254,61103,1,0,0:0:0:0:
191,123,61436,5,0,0:0:0:0:
191,123,61603,1,0,0:0:0:0:
276,126,61770,5,0,0:0:0:0:
276,126,61936,1,0,0:0:0:0:
276,40,62103,5,0,0:0:0:0:
276,40,62270,1,0,0:0:0:0:
106,55,62603,6,0,P|86:103|110:142,1,99.9999999999999
269,196,63270,2,0,P|290:141|264:92,1,99.9999999999999
221,39,63770,2,0,L|180:90,5,50
146,151,64770,6,0,L|148:212,1,50
154,285,65103,2,0,L|156:348,1,50
240,336,65436,2,0,P|293:353|335:314,1,99.9999999999999
390,219,66020,2,0,P|388:133|310:97,1,175
232,109,66770,6,0,L|105:193,1,150
61,263,67436,2,0,P|64:303|126:319,1,99.9999999999999
199,318,67936,2,0,L|380:233,1,200
437,169,68770,2,0,P|463:118|393:94,1,150
311,118,69436,5,0,0:0:0:0:
311,118,69603,1,0,0:0:0:0:
227,132,69770,5,0,0:0:0:0:
227,132,69936,1,0,0:0:0:0:
145,155,70103,5,0,0:0:0:0:
145,155,70270,1,0,0:0:0:0:
116,234,70436,5,0,0:0:0:0:
116,234,70603,1,0,0:0:0:0:
114,319,70770,2,0,P|173:361|237:318,1,150
285,259,71436,2,0,P|289:182|215:187,1,150
157,217,72103,5,0,0:0:0:0:
46,87,72436,1,0,0:0:0:0:
216,76,72770,1,0,0:0:0:0:
383,104,73103,1,0,0:0:0:0:
326,264,73436,1,0,0:0:0:0:
170,334,73770,1,0,0:0:0:0:
48,214,74103,1,0,0:0:0:0:
185,113,74436,1,0,0:0:0:0:
303,235,74770,1,0,0:0:0:0:
141,286,75103,1,0,0:0:0:0:
91,123,75436,1,0,0:0:0:0:
252,69,75770,1,0,0:0:0:0:
377,183,76103,2,0,B|479:127|479:127|552:254|552:254|451:257|451:257|504:372|504:372|371:275|371:275|254:382|254:382|273:245|273:245|168:276|168:276|241:134|241:134|359:188,1,1350
362,76,80936,6,0,P|331:44|323:45,2,50
387,217,81436,5,0,0:0:0:0:
213,312,81770,1,0,0:0:0:0:
121,162,82103,1,0,0:0:0:0:
278,73,82436,1,0,0:0:0:0:
396,263,82770,6,0,L|429:197,3,50
425,62,83436,5,0,0:0:0:0:
217,75,83770,1,0,0:0:0:0:
423,172,84103,1,0,0:0:0:0:
207,184,84436,1,0,0:0:0:0:
312,25,84770,1,0,0:0:0:0:
331,285,85103,1,0,0:0:0:0:
439,211,85436,5,0,0:0:0:0:
270,259,85770,1,0,0:0:0:0:
298,35,86103,1,0,0:0:0:0:
480,125,86436,1,0,0:0:0:0:
231,174,86770,1,0,0:0:0:0:
407,33,87103,1,0,0:0:0:0:
445,228,87436,1,0,0:0:0:0:
355,160,87603,5,0,0:0:0:0:
355,160,87770,1,0,0:0:0:0:
355,160,87936,1,0,0:0:0:0:
355,160,88103,1,0,0:0:0:0:
426,215,88270,6,0,L|385:252,5,50
320,293,89270,2,0,L|248:296,1,50
211,235,89603,2,0,L|213:166,1,50
244,122,89936,2,0,L|308:124,1,50
336,175,90270,2,0,L|335:225,3,50
335,318,90936,6,0,L|406:320,1,50
430,254,91270,2,0,L|428:201,1,50
428,133,91603,2,0,L|426:78,1,50
357,45,91936,2,0,L|287:44,6,50
196,43,93103,5,0,0:0:0:0:
196,43,93270,1,0,0:0:0:0:
196,43,93436,1,0,0:0:0:0:
194,139,93603,6,0,L|189:195,1,50
191,267,93936,2,0,L|190:316,1,50
263,338,94270,2,0,L|327:338,1,50
387,333,94603,2,0,L|386:278,6,50
456,188,96103,6,0,B|264:58|264:58|138:168|138:168|305:281|305:281|97:345,1,799.999999999999
82,251,99103,2,0,L|86:187,1,50
93,123,99436,2,0,L|98:63,1,50
171,45,99770,2,0,L|238:46,3,50
240,121,100436,6,0,L|236:187,1,50
234,245,100770,2,0,L|230:306,1,50
269,356,101103,2,0,L|342:355,3,50
410,353,101770,5,0,0:0:0:0:
414,183,102103,1,0,0:0:0:0:
417,13,102436,1,0,0:0:0:0:
291,128,102770,1,0,0:0:0:0:
169,246,103103,1,0,0:0:0:0:
37,353,103436,1,0,0:0:0:0:
46,182,103770,1,0,0:0:0:0:
56,12,104103,1,0,0:0:0:0:
254,191,104436,5,0,0:0:0:0:
424,195,104770,1,0,0:0:0:0:
254,188,105103,1,0,0:0:0:0:
258,18,105436,1,0,0:0:0:0:
257,188,105770,5,0,0:0:0:0:
87,187,106103,1,0,0:0:0:0:
257,188,106436,1,0,0:0:0:0:
253,358,106770,1,0,0:0:0:0:
334,336,106936,6,0,B|426:255|426:255|330:254,1,200
271,217,107770,2,0,B|363:169|363:169|276:123,1,200
212,69,108603,2,0,B|86:127|86:127|194:178|194:178|67:240|67:240|201:302|201:302|36:361,1,699.999999999999
302,284,111436,2,0,L|366:268,3,50
413,214,112103,2,0,L|261:177,1,150
288,96,112770,2,0,L|445:81,1,150
452,165,113436,2,0,P|252:185|219:74,1,350
137,103,114770,2,0,P|193:4|296:113,1,300
369,53,115936,2,0,P|325:183|220:64,1,350
48,75,117436,5,0,0:0:0:0:
115,231,117770,1,0,0:0:0:0:
191,79,118103,1,0,0:0:0:0:
46,167,118436,1,0,0:0:0:0:
118,12,118770,1,0,0:0:0:0:
225,143,119103,1,0,0:0:0:0:
64,87,119436,1,0,0:0:0:0:
228,41,119770,5,0,0:0:0:0:
151,192,120103,1,0,0:0:0:0:
97,30,120436,1,0,0:0:0:0:
56,195,120770,1,0,0:0:0:0:
171,70,121103,1,0,0:0:0:0:
243,223,121436,1,0,0:0:0:0:
250,52,121770,1,0,0:0:0:0:
139,180,122103,1,0,0:0:0:0:
262,131,122436,5,0,0:0:0:0:
262,131,122603,1,0,0:0:0:0:
262,131,122770,2,0,L|265:291,1,150
341,284,123436,2,0,L|343:167,1,99.9999999999999
346,104,123936,1,0,0:0:0:0:
351,25,124103,2,0,L|236:27,1,99.9999999999999
167,28,124603,2,0,L|165:97,2,50
163,196,125436,6,0,L|281:198,1,99.9999999999999
348,204,125936,1,0,0:0:0:0:
351,302,126103,2,0,L|231:301,1,99.9999999999999
174,300,126603,5,0,0:0:0:0:
174,300,126770,1,0,0:0:0:0:
76,299,126936,1,0,0:0:0:0:
76,299,127103,1,0,0:0:0:0:
126,230,127270,1,0,0:0:0:0:
126,230,127436,1,0,0:0:0:0:
208,237,127603,6,0,L|327:236,1,99.9999999999999
390,234,128103,1,0,0:0:0:0:
309,84,128436,5,0,0:0:0:0:
176,190,128770,1,0,0:0:0:0:
118,30,129103,1,0,0:0:0:0:
257,126,129436,1,0,0:0:0:0:
87,137,129770,1,0,0:0:0:0:
226,40,130103,1,0,0:0:0:0:
56,48,130436,5,0,0:0:0:0:
133,199,130770,1,0,0:0:0:0:
151,30,131103,1,0,0:0:0:0:
44,162,131436,1,0,0:0:0:0:
233,101,131770,1,0,0:0:0:0:
161,344,132103,1,0,0:0:0:0:
161,344,132270,6,0,B|-23:113|158:2|239:131|239:131|329:13|515:152|199:358,1,899.999999999999
196,266,135436,1,0,0:0:0:0:
205,181,135603,1,0,0:0:0:0:
213,96,135770,1,0,0:0:0:0:
222,11,135936,1,0,0:0:0:0:
306,23,136103,6,0,P|377:52|376:128,1,150
354,198,136770,2,0,P|289:239|227:195,1,150
200,127,137436,6,0,P|100:59|82:226,1,350
147,265,138770,2,0,P|208:280|226:238,1,99.9999999999999
243,174,139270,6,0,L|179:153,1,50
262,106,139603,2,0,L|206:74,1,50
299,53,139936,2,0,L|250:12,1,50
344,39,140270,2,0,L|350:-18,1,50
396,59,140603,2,0,L|453:23,1,50
440,117,140936,1,0,0:0:0:0:
448,201,141103,6,0,P|437:278|361:276,1,150
293,265,141770,1,0,0:0:0:0:
332,190,141936,1,0,0:0:0:0:
246,188,142103,1,0,0:0:0:0:
208,264,142270,1,0,0:0:0:0:
147,323,142436,6,0,P|46:291|53:251,1,150
41,186,143103,2,0,P|60:107|134:97,1,150
204,89,143770,2,0,L|311:94,2,99.9999999999999
118,89,144603,2,0,L|51:88,2,50
204,89,145103,5,0,0:0:0:0:
86,211,145436,1,0,0:0:0:0:
255,225,145770,1,0,0:0:0:0:
114,129,146103,1,0,0:0:0:0:
168,289,146436,1,0,0:0:0:0:
263,147,146770,1,0,0:0:0:0:
108,216,147103,5,0,0:0:0:0:
208,79,147436,1,0,0:0:0:0:
261,240,147770,1,0,0:0:0:0:
120,144,148103,1,0,0:0:0:0:
289,147,148436,2,0,L|388:146,2,99.9999999999999
157,121,149436,6,0,L|36:123,2,99.9999999999999
242,114,150270,2,0,L|359:108,1,99.9999999999999
420,141,150770,2,0,L|282:303,1,200
205,282,151603,2,0,L|51:151,1,200
101,82,152436,2,0,L|298:42,1,200
367,91,153270,2,0,L|462:270,1,200
382,300,154103,5,0,0:0:0:0:
212,296,154436,1,0,0:0:0:0:
344,188,154770,1,0,0:0:0:0:
295,350,155103,1,0,0:0:0:0:
428,244,155436,5,0,0:0:0:0:
259,220,155770,1,0,0:0:0:0:
401,127,156103,1,0,0:0:0:0:
232,109,156436,1,0,0:0:0:0:
378,21,156770,5,0,0:0:0:0:
441,178,157103,1,0,0:0:0:0:
445,74,157436,2,0,L|132:269,1,350
306,321,158936,6,0,L|461:284,2,150
220,317,160103,2,0,L|64:270,2,150
305,320,161270,1,0,0:0:0:0:
389,321,161436,1,0,0:0:0:0:
429,155,161770,2,0,L|307:147,3,99.9999999999999
244,143,162936,5,0,0:0:0:0:
163,171,163103,1,0,0:0:0:0:
98,227,163270,1,0,0:0:0:0:
59,302,163436,1,0,0:0:0:0:
108,371,163603,2,0,L|209:375,1,99.9999999999999
442,121,164936,5,0,0:0:0:0:
356,121,165103,2,0,L|295:124,1,50
222,138,165436,2,0,P|166:139|151:191,1,99.9999999999999
198,336,166103,6,0,P|259:341|281:265,1,150
239,192,166770,2,0,P|189:165|144:233,1,150
185,302,167436,2,0,P|233:340|307:300,1,150
358,238,168103,2,0,P|359:152|300:135,1,150
224,129,168770,1,0,0:0:0:0:
139,129,168936,1,0,0:0:0:0:
420,109,169436,6,0,L|484:108,2,50
249,107,170103,2,0,L|180:106,1,50
113,109,170436,1,0,0:0:0:0:
94,278,170770,1,0,0:0:0:0:
261,307,171103,2,0,P|429:238|356:120,1,350
290,105,172436,1,0,0:0:0:0:
457,137,172770,6,0,P|481:212|420:242,1,150
375,177,173436,2,0,P|314:111|256:134,1,150
265,210,174103,2,0,P|187:203|174:139,1,150
258,130,174770,2,0,P|212:63|49:201,1,350
104,239,176103,5,0,0:0:0:0:
175,284,176270,1,0,0:0:0:0:
253,314,176436,2,0,P|323:336|368:270,1,150
388,201,177103,5,0,0:0:0:0:
391,115,177270,1,0,0:0:0:0:
345,43,177436,1,0,0:0:0:0:
260,33,177603,1,0,0:0:0:0:
180,63,177770,1,0,0:0:0:0:
139,137,177936,1,0,0:0:0:0:
123,220,178103,6,0,P|175:293|238:291,1,150
309,267,178770,2,0,P|356:252|385:213,1,99.9999999999999
416,133,179270,2,0,P|401:93|307:112,1,150
276,182,179936,2,0,P|246:221|198:231,1,99.9999999999999
117,203,180436,2,0,P|94:178|82:153,1,50
47,87,180770,2,0,P|64:40|116:35,1,99.9999999999999
195,36,181270,6,0,L|296:33,2,99.9999999999999
110,50,182103,2,0,L|19:53,2,74.9999999999999
195,36,182770,2,0,P|249:34|287:85,1,99.9999999999999
306,144,183270,1,0,0:0:0:0:
322,227,183436,1,0,0:0:0:0:
286,304,183603,1,0,0:0:0:0:
200,299,183770,2,0,L|137:294,1,50
65,288,184103,5,0,0:0:0:0:
214,207,184436,1,0,0:0:0:0:
57,140,184770,1,0,0:0:0:0:
206,58,185103,1,0,0:0:0:0:
352,144,185436,1,0,0:0:0:0:
184,174,185770,1,0,0:0:0:0:
339,242,186103,1,0,0:0:0:0:
180,303,186436,6,0,L|80:296,2,99.9999999999999
265,304,187270,1,0,0:0:0:0:
349,302,187436,2,0,L|448:299,2,99.9999999999999
264,313,188270,1,0,0:0:0:0:
180,297,188436,1,0,0:0:0:0:
127,229,188603,2,0,L|71:145,2,99.9999999999999
207,257,189436,5,0,0:0:0:0:
377,263,189770,1,0,0:0:0:0:
377,263,189936,1,0,0:0:0:0:
224,187,190270,1,0,0:0:0:0:
387,139,190603,1,0,0:0:0:0:
381,145,190770,6,0,L|332:353,1,200
250,329,191603,2,0,L|224:211,1,99.9999999999999
181,160,192103,2,0,P|141:189|115:232,1,99.9999999999999
74,307,192603,2,0,L|49:360,2,50
111,230,193103,6,0,L|152:191,1,50
208,136,193436,2,0,L|292:76,1,99.9999999999999
374,74,193936,1,0,0:0:0:0:
414,148,194103,2,0,P|396:220|317:215,1,150
92,131,195103,5,0,0:0:0:0:
258,95,195436,1,0,0:0:0:0:
203,256,195770,1,0,0:0:0:0:
165,90,196103,1,0,0:0:0:0:
326,141,196436,1,0,0:0:0:0:
160,181,196770,1,0,0:0:0:0:
309,261,197103,5,0,0:0:0:0:
239,106,197436,1,0,0:0:0:0:
176,264,197770,1,0,0:0:0:0:
308,157,198103,1,0,0:0:0:0:
169,58,198436,1,0,0:0:0:0:
179,228,198770,1,0,0:0:0:0:
203,265,198936,6,0,P|355:223|172:246,1,749.999999999999
250,244,201770,2,0,B|30:172|30:172|357:140|357:140|105:75,1,799.999999999999
294,65,204770,5,0,0:0:0:0:
294,65,204936,1,0,0:0:0:0:
354,125,205103,1,0,0:0:0:0:
354,125,205270,1,0,0:0:0:0:
402,194,205436,2,0,L|349:288,1,99.9999999999999
277,320,205936,2,0,L|166:280,1,99.9999999999999
200,202,206436,2,0,L|316:224,1,99.9999999999999
309,136,206936,2,0,L|200:130,1,99.9999999999999
145,186,207436,6,0,B|68:100|68:100|33:188|63:303,1,300
157,325,208770,2,0,B|360:306|360:306|153:239|153:239|375:201|375:201|157:146|157:146|373:64,1,1100
443,58,212603,2,0,L|450:177,2,99.9999999999999
357,53,213436,2,0,P|251:65|248:190,1,250
327,212,214436,2,0,P|250:300|164:278,1,200
81,147,215436,5,0,0:0:0:0:
151,99,215603,1,0,0:0:0:0:
208,162,215770,1,0,0:0:0:0:
145,218,215936,1,0,0:0:0:0:
80,273,216103,6,0,P|106:316|170:309,1,99.9999999999999
231,290,216603,2,0,P|287:257|296:215,1,99.9999999999999
292,142,217103,2,0,P|320:91|367:95,1,99.9999999999999
429,134,217603,2,0,P|463:186|430:224,1,99.9999999999999
394,280,218103,5,0,0:0:0:0:
324,230,218270,1,0,0:0:0:0:
280,302,218436,1,0,0:0:0:0:
224,237,218603,1,0,0:0:0:0:
173,168,218770,5,0,0:0:0:0:
173,168,218853,1,0,0:0:0:0:
173,168,218936,1,0,0:0:0:0:
173,168,219020,2,0,L|333:74,1,175
399,39,219770,2,0,P|474:236|334:351,1,400
208,321,221436,5,0,0:0:0:0:
208,321,221603,1,0,0:0:0:0:
158,251,221770,1,0,0:0:0:0:
158,251,221936,1,0,0:0:0:0:
155,165,222103,1,0,0:0:0:0:
310,96,222436,5,0,0:0:0:0:
142,64,222770,1,0,0:0:0:0:
269,176,223103,1,0,0:0:0:0:
99,177,223436,1,0,0:0:0:0:
233,72,223770,1,0,0:0:0:0:
194,237,224103,1,0,0:0:0:0:
339,324,224436,6,0,P|404:209|369:140,1,200
225,88,225436,5,0,0:0:0:0:
77,172,225770,1,0,0:0:0:0:
198,290,226103,1,0,0:0:0:0:
330,183,226436,1,0,0:0:0:0:
160,165,226770,2,0,L|46:165,2,99.9999999999999
330,167,227770,5,0,0:0:0:0:
228,303,228103,1,0,0:0:0:0:
95,196,228436,1,0,0:0:0:0:
212,72,228770,1,0,0:0:0:0:
331,192,229103,1,0,0:0:0:0:
178,116,229436,1,0,0:0:0:0:
102,108,229603,5,0,0:0:0:0:
102,108,229770,1,0,0:0:0:0:
102,108,229853,2,0,L|101:243,1,125
100,318,230436,2,0,P|156:331|183:291,1,99.9999999999999
199,264,230853,5,0,0:0:0:0:
199,264,231020,1,0,0:0:0:0:
199,264,231103,2,0,L|201:156,1,99.9999999999999
238,87,231603,5,0,0:0:0:0:
296,25,231770,1,0,0:0:0:0:
378,9,231936,1,0,0:0:0:0:
256,192,232103,12,0,234770,0:0:0:0:
