osu file format v14

[General]
AudioFilename: audio.ogg
AudioLeadIn: 0
PreviewTime: 39023
Countdown: 0
SampleSet: Soft
StackLeniency: 0.7
Mode: 0
LetterboxInBreaks: 0
WidescreenStoryboard: 1

[Editor]
DistanceSpacing: 1
BeatDivisor: 12
GridSize: 4
TimelineZoom: 1.9

[Metadata]
Title:Koyoi Dance ~ Hanabi ya nen
TitleUnicode:今宵Dance~花火やねん
Artist:Kano
ArtistUnicode:鹿乃
Creator:Moecho
Version:yf's Easy
Source:Genshin Impact
Tags:yf_bmp Muziyami S_Saika Teages -Hitomi L1gHT_u Dance Tonight ~ It's fireworks! 长 長野原 宵宮 Naganohara Yoimiya 平茸 Hiratake Heavenz 鹿乃 Kano N emd 原神 YuanShen HoYoFair 2023 Fan Art Program A Marvelous Night in the Serenitea Pot 同人 doujin video game japanese
BeatmapID:3992067
BeatmapSetID:1923104

[Difficulty]
HPDrainRate:3
CircleSize:3
OverallDifficulty:4
ApproachRate:4
SliderMultiplier:0.9
SliderTickRate:1

[Events]
//Background and Video events
0,0,"bg.jpg",0,0
Video,-62,"video.mp4"
//Break Periods
//Storyboard Layer 0 (Background)
//Storyboard Layer 1 (Fail)
//Storyboard Layer 2 (Pass)
//Storyboard Layer 3 (Foreground)
//Storyboard Layer 4 (Overlay)
//Storyboard Sound Samples

[TimingPoints]
85,410.958904109589,4,2,1,100,1,0
1728,-100,4,2,1,70,0,0
8304,-100,4,2,1,80,0,0
13235,-100,4,2,1,85,0,0
14879,-100,4,2,1,100,0,1
26386,-100,4,2,1,80,0,0
32242,-100,4,2,1,90,0,0
32961,-100,4,2,1,80,0,0
39537,-100,4,2,1,100,0,1
51044,-100,4,2,1,100,0,0
52687,-100,4,2,1,75,0,0
65838,-100,4,2,1,65,0,0
78989,-100,4,2,1,60,0,0
90495,-100,4,2,1,65,0,0
92139,-100,4,2,1,75,0,0
98715,-100,4,2,1,80,0,0
103646,-100,4,2,1,85,0,0
105290,-100,4,2,1,90,0,0
106934,-100,4,2,1,100,0,1
118852,-100,4,2,1,100,0,0
119468,-100,4,2,1,85,0,0
120085,-100,4,2,1,100,0,1
131181,-100,4,2,1,100,0,0
132413,-100,4,2,1,85,0,0
133235,-100,4,2,1,80,0,0
133646,-100,4,2,1,70,0,0
134057,-100,4,2,1,60,0,0
134468,-100,4,2,1,50,0,0
134879,-100,4,2,1,40,0,0
135290,-100,4,2,1,30,0,0
135701,-100,4,2,1,20,0,0
136112,-100,4,2,1,10,0,0
136523,-100,4,2,1,5,0,0

[Colours]
Combo1 : 17,254,176
Combo2 : 173,255,95
Combo3 : 255,88,100
Combo4 : 255,94,55

[HitObjects]
34,189,1728,6,0,P|82:189|126:157,1,90,4|2,0:0|0:0,0:0:0:0:
171,94,2550,2,0,P|171:58|155:22,2,67.5,2|0|2,0:3|0:0|0:0,0:0:0:0:
203,111,3372,2,0,P|287:113|389:122,1,180,2|2,0:1|0:0,0:0:0:0:
450,181,4605,1,2,0:1:0:0:
371,224,5016,2,0,P|323:224|279:256,1,90,4|2,0:0|0:0,0:0:0:0:
234,319,5838,2,0,P|234:355|250:391,2,67.5,2|0|2,0:3|0:0|0:0,0:0:0:0:
202,302,6660,2,0,P|118:300|16:291,1,180,2|2,0:3|0:0,0:0:0:0:
1,204,7893,1,2,0:1:0:0:
74,151,8304,6,0,L|79:58,1,90,4|2,3:2|3:1,0:0:0:0:
168,68,9126,1,4,3:2:0:0:
163,157,9537,1,2,3:1:0:0:
252,161,9948,2,0,L|345:166,2,90,4|0|4,3:2|3:0|3:2,0:0:0:0:
257,71,11180,1,2,3:1:0:0:
346,75,11591,6,0,P|406:62|462:125,1,135,4|2,3:2|0:1,0:0:0:0:
464,143,12413,1,2,3:1:0:0:
415,219,12824,1,2,3:1:0:0:
457,298,13235,2,0,B|471:330|471:330|458:359,1,67.5,4|0,3:1|3:0,0:0:0:0:
300,376,14263,2,0,P|308:350|332:334,1,45,6|6,0:3|0:3,0:0:0:0:
329,249,14879,6,0,P|285:253|245:232,1,90,4|8,3:1|0:0,0:0:0:0:
156,244,15701,2,0,P|129:208|127:162,1,90,0|8,3:0|0:0,0:0:0:0:
73,92,16523,2,0,P|90:51|176:16,1,135,4|2,3:2|0:3,0:0:0:0:
244,63,17550,2,0,P|268:68|300:68,1,45,8|8,3:1|3:1,0:0:0:0:
299,158,18167,6,0,P|255:154|215:175,1,90,4|8,3:2|0:0,0:0:0:0:
126,163,18989,2,0,P|99:199|97:245,1,90,0|8,3:0|0:3,0:0:0:0:
44,315,19811,2,0,P|61:356|153:379,1,135,8|0,3:0|3:0,0:0:0:0:
208,321,20838,2,0,P|214:299|224:279,1,45,6|6,3:0|3:0,0:0:0:0:
312,291,21454,6,0,P|351:270|372:229,1,90,4|8,3:1|0:0,0:0:0:0:
378,140,22276,2,0,P|367:96|333:65,1,90,4|8,3:2|0:0,0:0:0:0:
245,77,23098,2,0,L|102:96,1,135,4|4,3:2|3:1,0:0:0:0:
36,44,24126,6,0,L|-16:8,2,45,10|10|4,0:1|3:1|3:1,0:0:0:0:
67,175,25153,1,2,3:1:0:0:
28,256,25564,2,0,B|14:289|14:289|33:315,1,67.5,6|6,3:1|3:2,0:0:0:0:
140,281,26386,5,4,3:1:0:0:
180,361,26797,1,8,0:0:0:0:
266,338,27208,2,0,P|289:327|337:321,2,67.5,4|2|2,3:2|0:1|0:3,0:0:0:0:
252,304,28030,1,0,3:0:0:0:
292,224,28441,1,8,0:0:0:0:
332,144,28852,2,0,P|360:92|388:56,1,90,2|8,3:1|0:0,0:0:0:0:
304,20,29674,5,4,3:2:0:0:
224,60,30085,1,8,0:0:0:0:
247,146,30495,2,0,P|257:169|264:217,2,67.5,6|2|2,3:2|0:1|0:3,0:0:0:0:
211,148,31317,1,0,3:0:0:0:
131,188,31728,1,8,0:0:0:0:
32,240,32242,6,0,P|28:288|64:332,1,90,6|6,3:1|3:1,0:0:0:0:
102,336,32961,6,0,L|191:329,1,90,4|8,3:1|0:0,0:0:0:0:
244,256,33783,2,0,P|234:219|212:184,2,67.5,4|2|2,3:2|0:1|0:3,0:0:0:0:
268,283,34605,1,0,3:0:0:0:
320,356,35016,1,8,0:0:0:0:
404,328,35427,2,0,L|492:300,1,90,2|8,3:1|0:0,0:0:0:0:
476,212,36249,6,0,P|429:184|412:141,1,90,4|8,3:2|0:0,0:0:0:0:
336,112,37071,2,0,P|346:75|368:40,2,67.5,4|2|2,3:2|0:1|0:3,0:0:0:0:
312,139,37893,1,0,3:0:0:0:
288,224,38304,1,8,3:2:0:0:
204,196,38715,2,0,L|116:168,1,90,4|2,3:1|0:1,0:0:0:0:
76,88,39537,6,0,P|0:192|16:332,1,270,4|8,3:1|0:0,0:0:0:0:
96,364,41180,1,4,3:2:0:0:
176,320,41591,1,8,0:0:0:0:
176,232,42002,2,0,P|176:213|192:176,2,45,4|14|14,3:2|3:0|3:0,0:0:0:0:
256,276,42824,6,0,P|286:310|331:343,1,90,4|8,0:1|0:0,0:0:0:0:
408,308,43646,2,0,P|422:264|429:208,1,90,0|8,3:0|0:0,0:0:0:0:
348,176,44468,1,4,3:2:0:0:
268,132,44879,1,8,0:0:0:0:
244,44,45290,2,0,P|244:25|228:-12,2,45,0|14|14,3:0|3:0|3:0,0:0:0:0:
180,108,46112,6,0,P|128:112|48:72,1,135,4|2,3:1|0:0,0:0:0:0:
24,96,46934,2,0,L|40:204,1,90,6|8,3:2|0:0,0:0:0:0:
0,272,47756,1,4,3:2:0:0:
44,352,48167,1,8,0:0:0:0:
132,360,48578,2,0,P|160:352|200:300,1,90,0|8,3:0|0:0,0:0:0:0:
276,260,49400,6,0,P|272:208|312:128,1,135,4|2,3:2|0:1,0:0:0:0:
320,100,50221,2,0,L|428:116,1,90,0|8,3:0|0:0,0:0:0:0:
468,180,51043,2,0,B|482:213|482:213|463:239,1,67.5,4|4,3:1|3:2,0:0:0:0:
196,360,52687,6,0,L|183:278,1,67.5,4|8,3:1|0:0,0:0:0:0:
76,268,53509,2,0,L|63:186,1,67.5,0|8,3:0|0:0,0:0:0:0:
160,140,54331,2,0,L|147:58,2,67.5,4|8|8,3:2|0:0|0:0,0:0:0:0:
176,228,55358,2,0,P|182:245|206:266,1,45,6|6,3:0|3:0,0:0:0:0:
288,288,55975,6,0,L|301:206,1,67.5,4|8,3:2|0:0,0:0:0:0:
408,196,56797,2,0,L|421:114,1,67.5,0|8,3:0|0:0,0:0:0:0:
324,68,57619,2,0,L|337:-14,2,67.5,4|8|8,3:2|0:0|0:0,0:0:0:0:
308,156,58646,2,0,P|302:173|278:194,1,45,10|10,3:1|3:1,0:0:0:0:
220,256,59263,6,0,P|187:260|155:271,1,67.5,4|8,3:1|0:0,0:0:0:0:
60,213,60085,2,0,P|56:180|45:148,1,67.5,0|8,3:0|0:0,0:0:0:0:
108,53,60906,2,0,P|141:49|173:38,2,67.5,0|8|8,3:0|0:0|0:0,0:0:0:0:
136,140,61934,2,0,P|145:160|145:182,1,45,6|6,3:0|3:0,0:0:0:0:
228,220,62550,6,0,P|261:224|293:235,1,67.5,4|8,3:2|0:0,0:0:0:0:
388,177,63372,2,0,P|392:144|403:112,1,67.5,0|8,3:0|0:0,0:0:0:0:
340,17,64194,2,0,P|307:13|275:2,2,67.5,4|8|8,3:2|0:0|0:0,0:0:0:0:
312,104,65221,2,0,P|303:124|303:146,1,45,8|8,0:1|0:1,0:0:0:0:
352,224,65838,6,0,P|409:261|424:384,1,180,4|10,3:1|3:0,0:0:0:0:
252,380,67482,1,10,0:3:0:0:
236,292,67893,1,2,3:2:0:0:
172,228,68304,2,0,P|144:211|111:202,1,60,2|4,3:2|3:2,0:0:0:0:
24,132,69126,6,0,P|61:75|184:60,1,180,10|10,3:0|3:0,0:0:0:0:
180,232,70769,1,10,0:3:0:0:
92,248,71180,1,2,3:2:0:0:
28,312,71591,2,0,P|11:340|2:373,1,60,2|4,3:2|0:0,0:0:0:0:
124,380,72413,6,0,P|211:369|265:300,1,180,10|10,3:0|3:0,0:0:0:0:
240,160,74057,1,10,0:3:0:0:
152,176,74468,1,2,3:2:0:0:
124,92,74879,2,0,P|129:65|152:36,2,60,10|2|2,3:0|3:2|3:2,0:0:0:0:
82,115,75701,6,0,P|56:176|68:296,1,180,6|8,3:2|0:0,0:0:0:0:
232,216,77345,1,8,0:3:0:0:
312,176,77756,1,0,3:0:0:0:
360,252,78167,2,0,P|367:277|364:320,2,60,2|2|2,3:2|3:2|0:0,0:0:0:0:
394,218,78989,1,10,3:0:0:0:
256,192,79091,12,10,80632,3:0:0:0:
340,176,82276,6,0,B|244:144|268:240|172:208,2,180,10|8|10,3:0|0:0|3:0,0:0:0:0:
256,192,84023,12,10,85564,3:0:0:0:
212,272,87208,6,0,L|300:112,2,180,10|10|10,3:0|0:0|3:0,0:0:0:0:
256,192,88954,12,2,90495,0:3:0:0:
224,296,92139,6,0,P|190:308|168:332,1,67.5,4|2,3:2|0:1,0:0:0:0:
140,376,92756,2,0,L|73:362,1,67.5,2|2,0:1|0:1,0:0:0:0:
21,348,93372,1,2,0:0:0:0:
16,260,93783,2,0,P|28:226|52:204,1,67.5,6|2,0:0|0:1,0:0:0:0:
96,176,94400,2,0,L|82:109,2,67.5,2|2|2,0:1|0:1|0:1,0:0:0:0:
172,224,95427,6,0,P|206:212|212:112,1,135,6|2,0:0|0:1,0:0:0:0:
188,112,96249,2,0,P|222:100|228:0,1,135,6|2,0:0|0:0,0:0:0:0:
204,0,97071,1,6,0:0:0:0:
364,84,97893,1,2,0:1:0:0:
320,164,98304,1,6,3:0:0:0:
364,244,98715,6,0,B|388:228|388:228|460:236,1,90,4|2,3:2|3:1,0:0:0:0:
492,316,99537,2,0,B|467:372|467:372|441:384,1,90,2|2,3:2|3:1,0:0:0:0:
353,360,100358,2,0,L|253:340,1,90,4|2,3:2|3:2,0:0:0:0:
204,276,101180,2,0,L|104:296,1,90,2|2,3:2|3:2,0:0:0:0:
28,316,102002,6,0,B|4:256|4:256|51:204,1,135,4|2,3:2|0:0,0:0:0:0:
88,200,102824,2,0,B|53:113|53:113,1,90,2|2,3:1|3:0,0:0:0:0:
144,96,103646,2,0,B|132:65|132:65|155:39,1,67.5,4|0,3:1|3:0,0:0:0:0:
352,88,104879,1,6,3:2:0:0:
440,112,105290,6,0,B|452:143|452:143|429:169,1,67.5,4|0,3:1|3:0,0:0:0:0:
429,168,106934,6,0,P|325:92|185:108,1,270,4|8,3:1|0:0,0:0:0:0:
153,188,108578,1,4,3:2:0:0:
197,268,108989,1,8,0:0:0:0:
285,268,109400,2,0,P|304:268|341:284,2,45,4|14|14,3:2|3:0|3:0,0:0:0:0:
240,348,110221,6,0,P|196:360|140:364,1,90,4|8,0:1|0:0,0:0:0:0:
76,316,111043,2,0,P|64:272|60:216,1,90,0|8,3:0|0:0,0:0:0:0:
40,140,111865,1,4,3:2:0:0:
84,60,112276,1,8,0:0:0:0:
172,36,112687,2,0,P|191:36|228:20,2,45,0|14|14,3:0|3:0|3:0,0:0:0:0:
148,124,113509,6,0,P|144:176|184:256,1,135,4|2,3:1|0:0,0:0:0:0:
212,240,114331,2,0,L|320:256,1,90,6|8,3:2|0:0,0:0:0:0:
380,296,115153,1,4,3:2:0:0:
460,252,115564,1,8,0:0:0:0:
468,164,115975,2,0,P|460:136|408:96,1,90,0|8,3:0|0:0,0:0:0:0:
340,44,116797,6,0,P|288:40|208:80,1,135,4|2,3:2|0:1,0:0:0:0:
180,88,117619,2,0,L|196:196,1,90,0|8,3:0|0:0,0:0:0:0:
136,248,118441,2,0,B|103:262|103:262|77:243,1,67.5,4|4,3:1|3:2,0:0:0:0:
190,353,119468,2,0,L|246:345,1,45,6|6,0:3|0:3,0:0:0:0:
324,332,120085,6,0,P|328:288|307:248,1,90,4|8,3:1|0:0,0:0:0:0:
319,159,120906,2,0,P|283:132|237:130,1,90,0|8,3:0|0:0,0:0:0:0:
167,76,121728,2,0,P|126:93|91:179,1,135,4|2,0:0|0:3,0:0:0:0:
138,247,122756,2,0,P|143:271|143:303,1,45,8|8,3:1|3:1,0:0:0:0:
233,302,123372,6,0,P|229:258|250:218,1,90,4|8,3:2|0:0,0:0:0:0:
238,129,124194,2,0,P|274:102|320:100,1,90,0|8,3:0|0:3,0:0:0:0:
390,47,125016,2,0,P|431:64|454:156,1,135,6|2,3:2|3:2,0:0:0:0:
396,211,126043,2,0,P|374:217|354:227,1,45,6|6,3:0|3:0,0:0:0:0:
366,315,126660,6,0,P|345:354|304:375,1,90,4|8,3:1|0:0,0:0:0:0:
215,381,127482,2,0,P|171:370|140:336,1,90,4|8,3:2|0:0,0:0:0:0:
152,248,128304,2,0,L|171:105,1,135,4|4,3:2|3:1,0:0:0:0:
119,39,129331,6,0,L|83:-13,2,45,10|10|4,0:1|3:1|3:1,0:0:0:0:
250,70,130358,1,2,3:1:0:0:
331,31,130769,2,0,B|364:17|364:17|390:36,1,67.5,6|6,3:1|3:2,0:0:0:0:
224,288,132413,6,0,B|256:300|256:300|288:288,2,67.5,4|4|14,3:1|3:2|3:1,0:0:0:0:
256,192,133235,12,0,136523,0:0:0:0:
