osu file format v14

[General]
AudioFilename: audio.ogg
AudioLeadIn: 0
PreviewTime: 39023
Countdown: 0
SampleSet: Soft
StackLeniency: 0.7
Mode: 0
LetterboxInBreaks: 0
WidescreenStoryboard: 0

[Editor]
DistanceSpacing: 0.3
BeatDivisor: 4
GridSize: 32
TimelineZoom: 1.9

[Metadata]
Title:Koyoi Dance ~ Hanabi ya nen
TitleUnicode:今宵Dance~花火やねん
Artist:Kano
ArtistUnicode:鹿乃
Creator:Moecho
Version:Nayami mo poi!
Source:Genshin Impact
Tags:yf_bmp Muziyami S_Saika Teages -Hitomi L1gHT_u Dance Tonight ~ It's fireworks! 长 長野原 宵宮 Naganohara Yoimiya 平茸 Hiratake Heavenz 鹿乃 Kano N emd 原神 YuanShen HoYoFair 2023 Fan Art Program A Marvelous Night in the Serenitea Pot 同人 doujin video game japanese
BeatmapID:3969871
BeatmapSetID:1923104

[Difficulty]
HPDrainRate:6
CircleSize:4
OverallDifficulty:8
ApproachRate:9
SliderMultiplier:1.6
SliderTickRate:1

[Events]
//Background and Video events
0,0,"bg.jpg",0,0
Video,-62,"video.mp4"
//Break Periods
//Storyboard Layer 0 (Background)
//Storyboard Layer 1 (Fail)
//Storyboard Layer 2 (Pass)
//Storyboard Layer 3 (Foreground)
//Storyboard Layer 4 (Overlay)
//Storyboard Sound Samples

[TimingPoints]
85,410.958904109589,4,2,1,100,1,0
1317,-100,4,2,1,70,0,0
8304,-100,4,2,1,80,0,0
13235,-100,4,2,1,85,0,0
14879,-66.6666666666667,4,2,1,100,0,1
17550,-50,4,2,1,100,0,1
17961,-66.6666666666667,4,2,1,100,0,1
24948,-33.3333333333333,4,2,1,100,0,1
25564,-66.6666666666667,4,2,1,100,0,1
25872,-33.3333333333333,4,2,1,100,0,1
26386,-100,4,2,1,80,0,0
28852,-66.6666666666667,4,2,1,80,0,0
29263,-50,4,2,1,80,0,0
29879,-100,4,2,1,80,0,0
31934,-100,4,2,1,90,0,0
32242,-40,4,2,1,90,0,0
32653,-66.6666666666667,4,2,1,90,0,0
32961,-100,4,2,1,80,0,0
35427,-66.6666666666667,4,2,1,80,0,0
35838,-50,4,2,1,80,0,0
36455,-100,4,2,1,80,0,0
38715,-200,4,2,1,80,0,0
39537,-66.6666666666667,4,2,1,100,0,1
42208,-40,4,2,1,100,0,1
42619,-66.6666666666667,4,2,1,100,0,1
45495,-40,4,2,1,100,0,1
45701,-33.3333333333333,4,2,1,100,0,1
46112,-66.6666666666667,4,2,1,100,0,1
51043,-50,4,2,1,100,0,0
52687,-100,4,2,1,75,0,0
53098,-50,4,2,1,75,0,0
53304,-100,4,2,1,75,0,0
55358,-66.6666666666667,4,2,1,75,0,0
55770,-100,4,2,1,75,0,0
57002,-100,4,2,1,75,0,0
58646,-66.6666666666667,4,2,1,75,0,0
59057,-100,4,2,1,75,0,0
61934,-66.6666666666667,4,2,1,75,0,0
62345,-100,4,2,1,75,0,0
66249,-133.333333333333,4,2,1,65,0,0
78989,-200,4,2,1,60,0,0
90187,-200,4,2,1,65,0,0
90495,-133.333333333333,4,2,1,65,0,0
91728,-133.333333333333,4,2,1,75,0,0
92139,-100,4,2,1,75,0,0
98098,-66.6666666666667,4,2,1,75,0,0
98715,-100,4,2,1,80,0,0
103646,-100,4,2,1,85,0,0
105290,-50,4,2,1,90,0,0
106318,-133.333333333333,4,2,1,85,0,0
106934,-66.6666666666667,4,2,1,100,0,1
109605,-40,4,2,1,100,0,1
110016,-66.6666666666667,4,2,1,100,0,1
112893,-40,4,2,1,100,0,1
113098,-33.3333333333333,4,2,1,100,0,1
113509,-66.6666666666667,4,2,1,100,0,1
118441,-50,4,2,1,100,0,1
118852,-100,4,2,1,100,0,0
119057,-100,4,2,1,85,0,0
120085,-66.6666666666667,4,2,1,100,0,1
122756,-50,4,2,1,100,0,1
123167,-66.6666666666667,4,2,1,100,0,1
123372,-66.6666666666667,4,2,1,100,0,1
130153,-33.3333333333333,4,2,1,100,0,1
130769,-66.6666666666667,4,2,1,100,0,1
131078,-33.3333333333333,4,2,1,100,0,1
131181,-100,4,2,1,100,0,0
131386,-100,4,2,1,85,0,0
132413,-50,4,2,1,85,0,0
133030,-200,4,2,1,85,0,0
133235,-200,4,2,1,80,0,0
133646,-200,4,2,1,70,0,0
134057,-200,4,2,1,60,0,0
134468,-200,4,2,1,50,0,0
134879,-200,4,2,1,40,0,0
135290,-200,4,2,1,30,0,0
135701,-200,4,2,1,20,0,0
136112,-200,4,2,1,10,0,0
136523,-200,4,2,1,5,0,0

[Colours]
Combo1 : 17,254,176
Combo2 : 173,255,95
Combo3 : 255,88,100
Combo4 : 255,94,55

[HitObjects]
202,144,1317,5,2,0:1:0:0:
209,135,1523,1,2,0:1:0:0:
106,7,1728,2,0,P|52:27|38:83,1,120,4|0,0:0|0:0,0:0:0:0:
96,135,2139,2,0,P|113:125|132:120,3,40,2|0|2|0,0:0|0:0|0:3|0:0,0:0:0:0:
232,49,2550,5,2,0:3:0:0:
237,61,2653,2,0,P|275:66|302:95,1,80,2|0,0:0|0:0,0:0:0:0:
378,94,2961,1,2,0:0:0:0:
348,264,3167,2,0,L|394:255,1,40,2|0,0:0|0:0,0:0:0:0:
446,207,3372,5,2,0:1:0:0:
237,141,3578,1,2,0:0:0:0:
280,311,3783,1,2,0:3:0:0:
309,343,3886,1,2,0:3:0:0:
335,343,3989,1,2,0:0:0:0:
481,316,4194,1,2,0:0:0:0:
494,324,4297,2,0,P|499:284|512:246,1,80,2|0,0:3|0:0,0:0:0:0:
446,207,4605,5,2,0:1:0:0:
452,196,4811,1,2,0:1:0:0:
505,17,5016,2,0,P|446:29|390:50,1,120,4|0,0:0|0:0,0:0:0:0:
340,110,5427,2,0,P|322:100|303:95,3,40,2|0|2|0,0:0|0:0|0:3|0:0,0:0:0:0:
251,30,5838,5,2,0:3:0:0:
246,42,5941,2,0,P|208:47|181:76,1,80,2|0,0:0|0:0,0:0:0:0:
109,100,6249,1,2,0:0:0:0:
0,0,6454,1,2,0:0:0:0:
3,129,6660,6,0,P|22:132|41:139,1,40,2|0,0:3|0:0,0:0:0:0:
104,180,6865,2,0,P|123:183|142:190,1,40,2|0,0:3|0:0,0:0:0:0:
366,313,7071,1,2,0:3:0:0:
314,365,7174,2,0,P|307:326|298:287,1,80,2|0,0:0|0:0,0:0:0:0:
378,224,7482,2,0,P|322:231|291:293,1,120,2|0,0:0|0:0,0:0:0:0:
233,329,7893,5,2,0:1:0:0:
222,323,8098,1,2,0:1:0:0:
8,384,8304,2,0,P|30:352|68:343,1,80,4|0,3:2|0:0,0:0:0:0:
144,366,8612,1,0,0:0:0:0:
151,357,8715,2,0,P|146:338|141:319,1,40,2|0,3:1|0:0,0:0:0:0:
86,269,8920,2,0,P|81:249|76:230,1,40,2|0,0:1|0:0,0:0:0:0:
156,67,9126,2,0,P|194:75|216:107,1,80,4|2,3:2|0:0,0:0:0:0:
180,176,9434,1,2,0:0:0:0:
171,183,9537,2,0,P|151:178|132:173,1,40,2|0,3:1|0:0,0:0:0:0:
58,158,9742,1,2,0:0:0:0:
190,259,9948,6,0,P|228:250|268:245,1,80,4|0,3:2|0:0,0:0:0:0:
491,361,10358,1,0,3:0:0:0:
358,299,10564,1,2,0:3:0:0:
271,337,10769,1,4,3:2:0:0:
261,330,10872,2,0,P|269:291|274:251,1,80,2|0,0:0|0:0,0:0:0:0:
328,197,11180,5,2,3:1:0:0:
339,191,11386,1,2,0:1:0:0:
504,0,11591,2,0,P|482:32|444:41,1,80,4|2,3:2|0:0,0:0:0:0:
368,18,11900,1,2,0:0:0:0:
361,27,12002,2,0,P|366:46|371:65,1,40,2|0,3:1|0:0,0:0:0:0:
426,115,12208,2,0,P|431:135|436:154,1,40,2|0,0:1|0:0,0:0:0:0:
498,201,12413,5,2,3:1:0:0:
368,186,12619,1,2,3:0:0:0:
212,168,12824,1,2,3:1:0:0:
24,146,13030,1,2,3:0:0:0:
359,272,13235,6,0,P|363:232|373:194,1,80,4|2,3:1|0:3,0:0:0:0:
216,120,13543,2,0,P|214:140|208:159,1,40,0|0,3:0|0:0,0:0:0:0:
57,296,13852,5,2,0:3:0:0:
36,220,13954,1,2,0:3:0:0:
105,140,14057,1,2,0:3:0:0:
98,179,14160,1,2,0:3:0:0:
159,241,14263,1,6,0:3:0:0:
155,227,14365,1,2,0:3:0:0:
208,159,14468,1,6,0:3:0:0:
204,173,14571,1,2,0:3:0:0:
275,207,14674,1,2,0:3:0:0:
273,199,14776,1,2,0:3:0:0:
348,192,14879,6,0,P|407:195|467:203,1,120.000004577637,4|2,3:1|0:0,0:0:0:0:
475,212,15153,1,2,0:0:0:0:
479,223,15221,1,2,0:0:0:0:
479,234,15290,1,8,0:0:0:0:
304,129,15495,1,2,0:3:0:0:
448,28,15701,2,0,P|455:84|410:119,1,120.000004577637,0|2,3:0|0:0,0:0:0:0:
400,112,15975,1,2,0:0:0:0:
388,107,16043,1,2,0:0:0:0:
376,106,16112,1,8,0:0:0:0:
221,121,16317,6,0,P|229:149|235:179,1,60.0000022888184,10|2,0:3|0:1,0:0:0:0:
337,260,16523,2,0,P|308:251|278:245,1,60.0000022888184,4|0,3:2|0:0,0:0:0:0:
178,272,16728,1,2,0:0:0:0:
183,261,16797,1,2,0:0:0:0:
191,253,16865,1,2,0:0:0:0:
202,248,16934,1,8,0:0:0:0:
374,331,17139,1,2,0:3:0:0:
312,175,17345,1,0,3:0:0:0:
109,326,17550,6,0,P|103:286|95:247,1,80,8|0,3:1|0:0,0:0:0:0:
458,361,17756,2,0,P|452:321|444:282,1,80,8|0,3:1|0:0,0:0:0:0:
392,165,17961,6,0,P|389:194|402:221,1,60.0000022888184,2|2,0:1|0:3,0:0:0:0:
502,229,18167,2,0,P|511:171|484:119,1,120.000004577637,4|2,3:2|0:0,0:0:0:0:
472,122,18441,1,2,0:0:0:0:
460,122,18509,1,2,0:0:0:0:
449,116,18578,1,8,0:0:0:0:
512,0,18783,2,0,P|482:5|453:14,1,60.0000022888184,2|0,0:3|0:0,0:0:0:0:
256,116,18989,6,0,P|313:100|372:88,1,120.000004577637,0|2,3:0|0:3,0:0:0:0:
379,72,19297,1,2,0:3:0:0:
396,61,19400,1,8,0:3:0:0:
181,126,19605,1,8,0:3:0:0:
343,279,19811,2,0,P|349:249|360:221,1,60.0000022888184,8|2,3:0|0:3,0:0:0:0:
423,143,20016,5,2,0:0:0:0:
427,154,20085,1,2,0:0:0:0:
426,165,20153,1,2,0:0:0:0:
418,174,20221,1,8,0:0:0:0:
227,185,20427,1,0,3:0:0:0:
230,233,20530,1,0,3:0:0:0:
275,249,20632,1,0,3:0:0:0:
417,384,20838,6,0,P|412:354|407:324,1,60.0000022888184,6|0,3:0|0:0,0:0:0:0:
512,273,21043,2,0,P|482:267|452:263,1,60.0000022888184,6|0,3:0|0:0,0:0:0:0:
344,279,21249,5,2,0:3:0:0:
312,318,21352,1,2,0:1:0:0:
303,344,21454,2,0,P|243:352|185:365,1,120.000004577637,4|2,3:1|0:0,0:0:0:0:
176,356,21728,1,2,0:0:0:0:
166,348,21797,1,2,0:0:0:0:
154,345,21865,1,8,0:0:0:0:
82,161,22071,5,2,0:3:0:0:
0,255,22276,2,0,P|60:263|118:276,1,120.000004577637,4|2,3:2|0:0,0:0:0:0:
127,267,22550,1,2,0:0:0:0:
137,259,22619,1,2,0:0:0:0:
149,256,22687,1,8,0:0:0:0:
239,130,22893,5,2,0:3:0:0:
286,142,22995,1,0,0:0:0:0:
304,167,23098,2,0,P|244:175|186:188,1,120.000004577637,4|2,3:2|0:0,0:0:0:0:
177,179,23372,1,2,0:0:0:0:
167,171,23441,1,2,0:0:0:0:
155,168,23509,1,8,0:0:0:0:
0,0,23715,6,0,P|13:58|20:117,1,120.000004577637,4|2,3:1|0:0,0:0:0:0:
44,136,24023,1,2,0:0:0:0:
86,134,24126,1,10,0:1:0:0:
123,94,24228,1,2,0:0:0:0:
166,44,24331,1,10,3:1:0:0:
242,28,24434,1,2,0:0:0:0:
314,65,24537,2,0,P|343:70|372:78,1,60.0000022888184,4|2,3:1|0:3,0:0:0:0:
457,348,24948,6,0,P|447:291|394:268,1,120.000004577637,2|0,3:1|0:0,0:0:0:0:
309,72,25153,6,0,P|283:123|313:172,1,120.000004577637,2|0,3:1|0:0,0:0:0:0:
267,382,25358,6,0,P|317:355|322:297,1,120.000004577637,2|0,3:1|0:0,0:0:0:0:
483,155,25564,6,0,P|426:146|388:190,1,120.000004577637,6|0,3:1|0:0,0:0:0:0:
176,212,25872,6,0,P|217:252|273:239,1,120.000004577637,6|0,3:2|0:0,0:0:0:0:
383,196,26386,5,4,3:1:0:0:
503,295,26591,1,2,0:3:0:0:
484,351,26694,1,2,0:1:0:0:
460,361,26797,2,0,P|421:349|382:343,1,80,8|2,0:0|0:3,0:0:0:0:
317,152,27208,1,4,3:2:0:0:
357,90,27311,2,0,P|373:101|383:118,1,40,2|0,0:0|0:0,0:0:0:0:
252,187,27516,1,2,0:1:0:0:
241,192,27619,2,0,P|222:183|203:181,1,40,8|0,0:0|0:0,0:0:0:0:
151,122,27824,5,2,0:3:0:0:
104,152,27927,1,2,0:3:0:0:
91,174,28030,2,0,P|96:193|102:212,1,40,0|2,3:0|0:1,0:0:0:0:
18,195,28235,2,0,P|23:214|29:233,1,40,2|0,0:3|0:0,0:0:0:0:
186,290,28441,6,0,P|166:284|147:278,1,40,8|0,0:0|0:0,0:0:0:0:
166,363,28646,2,0,P|146:357|127:351,1,40,2|0,0:1|0:0,0:0:0:0:
226,109,28852,6,0,P|217:80|209:51,1,60.0000022888184,2|0,3:1|0:0,0:0:0:0:
298,87,29057,2,0,P|289:58|281:29,1,60.0000022888184,2|2,0:3|0:1,0:0:0:0:
411,285,29263,6,0,P|451:297|487:307,1,80,8|0,0:0|0:0,0:0:0:0:
364,216,29468,1,2,0:1:0:0:
410,190,29571,1,2,0:3:0:0:
436,213,29674,2,0,P|474:226|512:235,1,80,4|0,3:2|0:0,0:0:0:0:
500,152,29879,5,2,0:1:0:0:
332,288,30085,2,0,P|295:300|274:333,1,80,8|2,0:0|0:1,0:0:0:0:
73,297,30495,1,6,3:2:0:0:
11,337,30598,2,0,P|22:353|39:363,1,40,2|0,0:0|0:0,0:0:0:0:
108,232,30804,1,2,0:1:0:0:
113,221,30906,2,0,P|104:202|102:183,1,40,8|0,0:0|0:0,0:0:0:0:
46,32,31112,5,2,0:3:0:0:
76,17,31215,1,2,0:3:0:0:
127,43,31317,2,0,P|122:62|116:81,1,40,0|0,3:0|0:0,0:0:0:0:
5,129,31523,1,2,0:0:0:0:
16,138,31626,2,0,P|35:133|54:127,1,40,2|8,0:1|0:0,0:0:0:0:
181,175,31934,5,2,0:1:0:0:
187,184,32037,1,2,0:1:0:0:
262,160,32139,5,12,3:2:0:0:
194,193,32242,2,0,P|243:202|284:229,2,100,6|2|2,3:1|0:3|0:3,0:0:0:0:
338,283,32550,5,12,3:2:0:0:
375,349,32653,2,0,P|405:349|432:335,2,60.0000022888184,6|2|2,3:1|0:3|0:3,0:0:0:0:
487,284,32961,5,4,3:1:0:0:
263,301,33167,1,2,0:3:0:0:
256,358,33269,1,2,0:1:0:0:
290,375,33372,2,0,P|329:363|368:357,1,80,8|2,0:0|0:3,0:0:0:0:
352,164,33783,1,4,3:2:0:0:
312,102,33886,2,0,P|296:113|286:130,1,40,2|0,0:0|0:0,0:0:0:0:
417,199,34091,1,2,0:1:0:0:
428,204,34194,2,0,P|447:195|466:193,1,40,8|0,0:0|0:0,0:0:0:0:
512,133,34400,5,2,0:3:0:0:
482,86,34502,1,2,0:3:0:0:
460,73,34605,2,0,P|441:78|422:84,1,40,0|2,3:0|0:1,0:0:0:0:
439,0,34811,2,0,P|420:5|401:11,1,40,2|0,0:3|0:0,0:0:0:0:
274,169,35016,6,0,P|280:149|286:130,1,40,8|0,0:0|0:0,0:0:0:0:
201,149,35221,2,0,P|207:129|213:110,1,40,2|0,0:1|0:0,0:0:0:0:
18,16,35427,6,0,P|47:7|76:-1,1,60.0000022888184,2|0,3:1|0:0,0:0:0:0:
98,71,35632,2,0,P|69:78|40:87,1,60.0000022888184,2|2,0:0|0:1,0:0:0:0:
138,301,35838,6,0,P|150:261|160:225,1,80,8|0,0:0|0:0,0:0:0:0:
123,147,36043,1,2,0:1:0:0:
85,159,36146,1,2,0:3:0:0:
88,199,36249,2,0,P|78:237|65:275,1,80,4|0,3:2|0:0,0:0:0:0:
0,318,36454,5,2,0:1:0:0:
231,199,36660,1,8,0:0:0:0:
281,234,36763,1,2,0:3:0:0:
296,255,36865,2,0,P|315:257|333:266,1,40,2|0,0:0|0:0,0:0:0:0:
437,303,37071,1,4,3:2:0:0:
499,343,37174,2,0,P|488:359|471:369,1,40,2|0,0:0|0:0,0:0:0:0:
402,238,37379,1,2,0:1:0:0:
397,227,37482,2,0,P|406:208|408:189,1,40,8|0,0:0|0:0,0:0:0:0:
489,57,37687,5,2,0:3:0:0:
430,9,37790,1,2,0:3:0:0:
364,47,37893,2,0,P|369:66|375:85,1,40,0|0,3:0|0:0,0:0:0:0:
325,193,38098,5,2,0:3:0:0:
281,234,38201,1,2,0:1:0:0:
231,199,38304,2,0,P|236:180|242:161,1,40,8|0,3:2|0:0,0:0:0:0:
54,97,38509,5,2,0:3:0:0:
22,78,38612,1,2,0:3:0:0:
15,157,38715,2,0,P|8:127|0:99,1,60,4|2,3:1|0:3,0:0:0:0:
84,26,39126,5,2,0:1:0:0:
93,33,39331,1,2,0:1:0:0:
80,241,39537,2,0,P|26:221|12:165,1,120.000004577637,4|2,3:1|0:3,0:0:0:0:
170,30,39845,1,2,0:3:0:0:
146,108,39948,5,8,0:0:0:0:
167,112,40050,2,0,P|194:100|223:93,1,60.0000022888184,2|2,0:1|0:3,0:0:0:0:
279,149,40256,1,2,0:3:0:0:
289,165,40358,2,0,P|299:106|316:48,1,120.000004577637,2|2,3:2|0:3,0:0:0:0:
457,5,40667,1,2,0:1:0:0:
480,76,40769,2,0,P|458:96|430:106,1,60.0000022888184,8|0,0:0|0:0,0:0:0:0:
321,237,40975,5,2,0:3:0:0:
391,264,41078,1,2,0:3:0:0:
417,235,41180,2,0,P|406:207|399:177,1,60.0000022888184,4|0,3:2|0:0,0:0:0:0:
182,318,41386,1,2,0:1:0:0:
192,324,41489,1,2,0:3:0:0:
257,287,41591,2,0,P|246:259|239:229,1,60.0000022888184,8|0,0:0|0:0,0:0:0:0:
437,328,41797,1,2,0:1:0:0:
447,334,41900,1,2,0:3:0:0:
512,297,42002,2,0,P|501:269|494:239,1,60.0000022888184,4|0,3:2|0:0,0:0:0:0:
507,1,42208,6,0,P|467:30|418:30,1,100,14|0,3:0|0:0,0:0:0:0:
474,169,42413,2,0,P|455:129|375:106,1,100,14|0,3:0|0:0,0:0:0:0:
346,57,42619,5,2,0:3:0:0:
300,85,42721,1,2,0:3:0:0:
288,111,42824,2,0,P|229:123|173:144,1,120,4|2,0:1|0:3,0:0:0:0:
98,145,43132,1,2,0:3:0:0:
56,83,43235,1,8,0:0:0:0:
62,71,43338,1,2,0:3:0:0:
71,64,43441,1,2,0:3:0:0:
140,211,43646,5,0,3:0:0:0:
147,220,43749,2,0,P|176:225|205:234,1,60.0000022888184,2|2,0:1|0:3,0:0:0:0:
93,282,43954,1,2,0:3:0:0:
100,291,44057,2,0,P|159:299|216:318,1,120.000004577637,8|2,0:0|0:3,0:0:0:0:
450,333,44365,1,2,0:3:0:0:
383,384,44468,6,0,P|377:354|366:326,1,60.0000022888184,4|0,3:2|0:0,0:0:0:0:
297,296,44674,2,0,P|291:266|280:238,1,60.0000022888184,2|0,0:3|0:0,0:0:0:0:
0,27,44879,6,0,P|29:32|57:43,1,60.0000022888184,8|0,0:0|0:0,0:0:0:0:
93,138,45085,1,2,0:1:0:0:
168,143,45187,1,0,3:0:0:0:
102,133,45290,2,0,P|131:138|159:149,1,60.0000022888184,0|0,3:0|0:0,0:0:0:0:
324,77,45495,6,0,P|274:82|236:113,1,100,14|0,3:0|0:0,0:0:0:0:
385,225,45701,2,0,P|348:178|291:165,1,120.000004577637,14|0,3:0|0:0,0:0:0:0:
201,224,45906,5,2,0:3:0:0:
146,253,46009,1,2,0:3:0:0:
135,273,46112,2,0,P|142:213|156:155,1,120.000004577637,4|2,3:1|0:3,0:0:0:0:
0,68,46420,1,2,0:3:0:0:
0,145,46523,2,0,P|29:138|53:122,1,60.0000022888184,8|0,0:0|0:0,0:0:0:0:
134,25,46728,2,0,P|127:54|122:83,1,60.0000022888184,2|0,0:0|0:0,0:0:0:0:
139,280,46934,6,0,P|146:220|160:162,1,120.000004577637,6|2,3:2|0:3,0:0:0:0:
3,74,47242,1,2,0:3:0:0:
3,151,47345,2,0,P|32:144|56:128,1,60.0000022888184,8|0,0:0|0:0,0:0:0:0:
184,77,47550,2,0,P|154:84|125:89,1,60.0000022888184,2|0,0:0|0:0,0:0:0:0:
57,17,47756,5,4,3:2:0:0:
231,135,47961,1,2,0:3:0:0:
260,107,48064,1,2,0:3:0:0:
261,89,48167,2,0,P|266:60|274:31,1,60.0000022888184,8|0,0:0|0:0,0:0:0:0:
399,0,48372,1,2,0:3:0:0:
426,20,48475,1,2,0:3:0:0:
427,32,48578,2,0,P|421:61|413:90,3,60.0000022888184,0|2|2|2,3:0|0:3|0:1|0:3,0:0:0:0:
503,3,48989,5,8,0:0:0:0:
339,116,49194,1,2,0:3:0:0:
375,155,49297,1,2,0:3:0:0:
383,175,49400,2,0,P|441:159|499:147,1,120.000004577637,4|2,3:2|0:3,0:0:0:0:
346,0,49708,1,2,0:3:0:0:
274,30,49811,2,0,P|266:59|261:89,1,60.0000022888184,8|0,0:0|0:0,0:0:0:0:
307,193,50016,5,2,0:1:0:0:
232,198,50119,1,0,3:0:0:0:
299,187,50221,2,0,P|269:192|241:203,1,60.0000022888184,0|0,3:0|0:0,0:0:0:0:
140,286,50427,2,0,P|110:291|82:302,1,60.0000022888184,2|0,0:1|0:0,0:0:0:0:
0,113,50632,6,0,P|29:118|57:129,1,60.0000022888184,8|0,0:0|0:0,0:0:0:0:
98,195,50838,2,0,P|127:200|155:211,1,60.0000022888184,2|0,0:1|0:0,0:0:0:0:
414,18,51043,6,0,P|395:95|383:174,1,160,4|2,3:1|0:3,0:0:0:0:
215,276,51352,2,0,P|225:237|232:198,1,80,4|0,3:2|0:0,0:0:0:0:
0,52,52687,6,0,P|38:94|95:84,1,120,4|8,3:1|0:0,0:0:0:0:
147,29,53098,2,0,B|177:26|189:56|189:56|176:50|165:52,1,80,2|0,3:0|0:0,0:0:0:0:
121,158,53304,5,8,0:0:0:0:
109,171,53406,2,0,P|89:176|71:184,1,40,2|0,0:0|3:0,0:0:0:0:
250,375,53715,5,2,0:3:0:0:
286,384,53817,1,8,0:0:0:0:
322,345,53920,2,0,P|320:325|306:311,1,40,10|0,3:0|0:0,0:0:0:0:
203,195,54126,2,0,P|188:208|187:228,1,40,10|0,0:3|0:0,0:0:0:0:
132,337,54331,6,0,P|171:333|194:291,1,80,4|2,3:2|0:3,0:0:0:0:
271,158,54639,1,8,0:0:0:0:
337,202,54742,2,0,P|313:169|266:171,1,80,0|8,3:0|0:0,0:0:0:0:
57,148,55153,2,0,P|60:167|71:184,1,40,2|0,3:1|0:0,0:0:0:0:
128,237,55358,6,0,P|158:232|188:227,1,60.0000022888184,6|0,3:0|0:0,0:0:0:0:
281,99,55564,2,0,P|275:128|271:158,1,60.0000022888184,6|0,3:0|0:0,0:0:0:0:
405,236,55769,5,2,0:3:0:0:
362,282,55872,1,2,0:3:0:0:
331,280,55975,2,0,P|302:252|264:241,1,80,4|2,3:2|0:3,0:0:0:0:
197,129,56283,1,8,0:0:0:0:
179,145,56386,2,0,P|159:149|141:156,1,40,2|0,3:0|0:0,0:0:0:0:
63,319,56591,1,8,0:0:0:0:
44,296,56694,2,0,P|51:277|55:258,1,40,2|0,0:0|3:0,0:0:0:0:
78,8,57002,5,2,0:3:0:0:
42,0,57105,1,8,0:0:0:0:
6,38,57208,2,0,P|8:58|22:72,1,40,10|0,3:0|0:0,0:0:0:0:
125,188,57413,2,0,P|140:175|141:155,1,40,10|0,0:3|0:0,0:0:0:0:
0,144,57619,6,0,P|37:153|69:131,1,80,4|2,3:2|0:3,0:0:0:0:
217,165,57927,1,8,0:0:0:0:
265,230,58030,2,0,P|253:192|218:175,1,80,0|8,3:0|0:0,0:0:0:0:
167,0,58441,2,0,P|152:13|148:32,1,40,0|2,3:0|0:3,0:0:0:0:
200,87,58646,6,0,P|230:92|260:97,1,60.0000022888184,10|0,3:1|3:0,0:0:0:0:
453,52,58852,2,0,P|423:45|393:41,1,60.0000022888184,10|0,3:1|0:0,0:0:0:0:
316,150,59057,5,2,3:0:0:0:
361,186,59160,1,2,0:3:0:0:
373,217,59263,2,0,P|402:190|441:184,1,80,4|2,3:1|0:3,0:0:0:0:
506,227,59571,1,8,0:0:0:0:
512,247,59674,5,2,3:0:0:0:
503,268,59776,2,0,P|483:262|464:257,1,40,2|8,0:0|0:0,0:0:0:0:
428,357,59982,2,0,P|423:337|417:318,1,40,2|0,0:0|3:0,0:0:0:0:
384,120,60290,5,2,0:3:0:0:
420,112,60393,1,8,0:0:0:0:
456,150,60495,2,0,P|454:170|440:184,1,40,10|0,3:0|0:0,0:0:0:0:
343,313,60701,2,0,P|328:300|327:280,1,40,10|0,0:3|0:0,0:0:0:0:
335,207,60906,6,0,P|354:211|373:217,1,40,0|0,3:0|0:0,0:0:0:0:
241,90,61112,2,0,P|260:94|279:100,1,40,2|8,0:0|0:0,0:0:0:0:
130,135,61317,2,0,P|149:139|168:145,1,40,0|0,3:0|0:0,0:0:0:0:
79,50,61523,2,0,P|98:54|117:60,1,40,8|0,0:0|0:0,0:0:0:0:
5,59,61728,1,4,3:2:0:0:
28,185,61934,6,0,P|34:156|38:126,1,60.0000022888184,6|0,3:0|0:0,0:0:0:0:
181,47,62139,2,0,P|151:52|121:57,1,60.0000022888184,6|0,3:0|0:0,0:0:0:0:
102,205,62345,5,2,0:3:0:0:
148,243,62448,1,2,0:3:0:0:
159,273,62550,2,0,P|198:281|235:295,1,80,4|0,3:2|0:0,0:0:0:0:
295,246,62858,1,8,0:0:0:0:
301,226,62961,5,2,3:0:0:0:
292,205,63064,2,0,P|272:211|253:216,1,40,2|8,0:0|0:0,0:0:0:0:
217,116,63269,2,0,P|212:136|206:155,1,40,2|0,0:0|3:0,0:0:0:0:
8,312,63578,5,2,0:3:0:0:
0,348,63680,1,8,0:0:0:0:
38,384,63783,2,0,P|58:382|72:368,1,40,10|0,3:0|0:0,0:0:0:0:
181,236,63989,2,0,P|168:221|148:220,1,40,10|0,0:3|0:0,0:0:0:0:
93,271,64194,1,4,3:2:0:0:
14,27,64400,5,2,0:3:0:0:
88,38,64502,1,8,0:0:0:0:
123,105,64605,1,2,3:0:0:0:
269,212,64811,5,8,0:0:0:0:
241,158,64913,1,2,0:3:0:0:
182,150,65016,1,2,3:0:0:0:
317,269,65221,5,8,0:1:0:0:
364,275,65324,1,2,3:0:0:0:
387,319,65427,1,8,0:1:0:0:
512,384,65632,5,2,3:0:0:0:
493,348,65735,1,2,0:3:0:0:
456,344,65838,1,4,3:1:0:0:
511,0,66249,6,0,P|476:17|461:53,1,80.0000030517579,10|2,0:3|0:0,0:0:0:0:
503,178,66660,5,10,3:2:0:0:
429,208,66797,1,2,0:0:0:0:
374,153,66934,1,2,0:1:0:0:
444,128,67071,2,0,P|404:133|366:145,1,80.0000030517579,2|2,0:0|0:1,0:0:0:0:
307,193,67482,5,10,0:3:0:0:
313,203,67619,1,2,0:0:0:0:
98,162,67756,1,10,0:3:0:0:
104,172,67893,1,2,3:2:0:0:
174,200,68030,1,2,0:0:0:0:
237,165,68167,1,8,0:1:0:0:
307,193,68304,1,10,3:2:0:0:
41,214,68578,6,0,P|49:155|63:96,1,120.000004577637,4|2,3:2|0:3,0:0:0:0:
51,289,69126,1,10,3:0:0:0:
488,371,69537,6,0,P|471:336|435:321,1,80.0000030517579,10|2,0:3|0:0,0:0:0:0:
360,315,69948,1,10,3:2:0:0:
303,368,70085,2,0,P|283:372|264:379,1,40.000001525879,2|2,0:0|0:1,0:1:0:0:
122,260,70358,2,0,P|162:264|200:276,1,80.0000030517579,2|2,0:0|0:1,0:0:0:0:
276,289,70769,5,10,0:3:0:0:
286,295,70906,1,2,0:0:0:0:
245,80,71043,1,10,0:3:0:0:
255,86,71180,1,2,3:2:0:0:
283,156,71317,1,2,0:0:0:0:
248,219,71454,1,8,0:1:0:0:
276,289,71591,1,10,3:2:0:0:
207,18,71865,6,0,P|265:30|323:48,1,120.000004577637,4|2,0:0|0:3,0:0:0:0:
134,30,72413,1,10,3:0:0:0:
4,331,72824,5,10,0:3:0:0:
72,365,72961,1,2,0:0:0:0:
135,322,73098,1,2,0:0:0:0:
209,341,73235,1,10,3:2:0:0:
266,291,73372,2,0,P|260:271|255:252,1,40.000001525879,2|2,0:0|0:1,0:0:0:0:
83,142,73646,2,0,P|122:150|161:154,1,80.0000030517579,2|2,0:0|0:1,0:0:0:0:
237,169,74057,5,10,0:3:0:0:
243,179,74194,1,2,0:0:0:0:
446,200,74331,1,10,0:3:0:0:
452,210,74468,1,2,3:2:0:0:
376,172,74605,1,8,0:1:0:0:
313,207,74742,1,2,0:0:0:0:
243,179,74879,5,10,3:2:0:0:
350,99,75153,1,2,3:2:0:0:
512,163,75427,1,2,3:2:0:0:
267,331,75701,2,0,P|262:291|254:252,1,80.0000030517579,6|2,3:2|0:3,0:0:0:0:
275,113,76112,6,0,P|272:152|243:179,1,80.0000030517579,8|0,0:3|0:0,0:0:0:0:
121,66,76523,2,0,P|135:54|155:49,1,40.000001525879,10|0,0:0|0:0,0:0:0:0:
232,48,76797,6,0,P|229:28|224:8,1,40.000001525879,2|2,0:1|0:3,0:0:0:0:
350,99,77071,6,0,P|347:79|342:59,1,40.000001525879,2|2,0:0|0:1,0:0:0:0:
512,163,77345,6,0,P|509:143|504:123,1,40.000001525879,8|0,0:3|0:0,0:0:0:0:
332,253,77619,6,0,P|329:233|324:213,1,40.000001525879,8|0,0:3|3:0,0:0:0:0:
137,366,77893,6,0,P|134:346|129:326,1,40.000001525879,2|8,0:1|0:1,0:0:0:0:
418,294,78167,6,0,P|415:274|410:254,1,40.000001525879,10|2,3:2|0:3,0:0:0:0:
162,258,78441,6,0,P|159:238|154:218,1,40.000001525879,2|0,3:2|0:0,0:0:0:0:
283,152,78715,6,0,P|280:132|275:112,1,40.000001525879,2|0,0:0|0:0,0:0:0:0:
256,40,78989,6,0,B|212:51|229:66|188:78,2,80,10|10|8,3:0|3:0|0:0,0:0:0:0:
47,155,80085,5,2,0:1:0:0:
102,213,80221,2,0,P|129:214|155:219,1,53.3333333333333,2|2,0:1|0:1,0:0:0:0:
50,162,80632,1,10,3:0:0:0:
14,27,80838,6,0,L|12:13,1,13.3333333333333,2|8,0:0|0:3,0:0:0:0:
88,38,81043,2,0,L|99:29,1,13.3333333333333,2|0,3:2|0:0,0:0:0:0:
123,105,81249,2,0,L|136:110,1,13.3333333333333,2|8,0:0|0:1,0:0:0:0:
279,234,81454,6,0,L|292:239,1,13.3333333333333,10|0,0:0|0:0,0:0:0:0:
251,180,81660,2,0,L|262:171,1,13.3333333333333,2|0,0:0|3:0,0:0:0:0:
192,172,81865,2,0,L|190:158,1,13.3333333333333,2|0,0:0|0:0,0:0:0:0:
155,219,82071,2,0,L|141:213,1,13.3333333333333,2|0,3:2|0:0,0:0:0:0:
256,344,82276,6,0,B|300:333|283:318|324:306,2,80,10|10|8,3:0|3:0|0:0,0:0:0:0:
72,183,83372,5,2,0:1:0:0:
14,238,83509,2,0,P|13:265|8:291,1,53.3333333333333,2|2,0:1|0:1,0:0:0:0:
65,186,83920,1,10,3:0:0:0:
251,180,84126,6,0,L|262:171,1,13.3333333333333,2|8,0:0|0:3,0:0:0:0:
192,172,84331,2,0,L|190:158,1,13.3333333333333,2|0,3:2|0:0,0:0:0:0:
155,219,84537,2,0,L|141:213,1,13.3333333333333,2|8,0:0|0:1,0:0:0:0:
325,231,84742,6,0,L|323:217,1,13.3333333333333,10|0,0:0|0:0,0:0:0:0:
372,237,84948,2,0,L|383:228,1,13.3333333333333,2|0,0:0|0:0,0:0:0:0:
395,281,85153,2,0,L|408:286,1,13.3333333333333,2|2,0:0|0:3,0:0:0:0:
374,328,85358,2,0,L|376:341,1,13.3333333333333,2|0,0:0|0:0,0:0:0:0:
256,344,85564,6,0,B|212:333|229:318|188:306,2,80,10|10|8,3:0|3:0|0:0,0:0:0:0:
442,198,86660,5,2,0:1:0:0:
500,142,86797,2,0,P|501:115|506:89,1,53.3333333333333,2|2,0:1|0:1,0:0:0:0:
449,195,87208,1,10,3:0:0:0:
310,199,87413,6,0,L|308:185,1,13.3333333333333,2|8,0:0|0:3,0:0:0:0:
357,205,87619,2,0,L|368:196,1,13.3333333333333,2|0,3:2|0:0,0:0:0:0:
380,249,87824,2,0,L|393:254,1,13.3333333333333,2|8,0:0|0:1,0:0:0:0:
499,379,88030,6,0,L|512:384,1,13.3333333333333,10|0,0:0|0:0,0:0:0:0:
480,343,88235,2,0,L|491:334,1,13.3333333333333,2|0,0:0|3:0,0:0:0:0:
443,339,88441,2,0,L|439:312,1,26.6666666666667,2|0,0:0|3:0,0:0:0:0:
382,384,88646,2,0,L|355:380,1,26.6666666666667,2|2,0:0|0:3,0:0:0:0:
256,344,88852,6,0,B|300:333|283:318|324:306,2,80,10|10|8,3:0|3:0|0:0,0:0:0:0:
495,260,89948,2,0,P|496:246|497:233,1,26.6666666666667,2|2,0:1|0:1,0:0:0:0:
505,142,90187,5,2,0:3:0:0:
496,152,90358,1,2,0:1:0:0:
487,160,90495,2,0,P|458:166|436:186,1,60.0000022888184,2|2,0:3|0:3,0:0:0:0:
430,197,90804,1,2,0:3:0:0:
427,208,90906,2,0,L|397:215,3,30.0000011444092,2|2|2|2,0:1|0:3|0:3|0:3,0:0:0:0:
426,295,91317,6,0,L|396:287,1,30.0000011444092,2|2,0:1|0:3,0:0:0:0:
324,234,91523,2,0,L|294:226,1,30.0000011444092,2|2,0:1|0:3,0:0:0:0:
217,242,91728,5,2,0:1:0:0:
210,233,91934,1,2,0:1:0:0:
309,66,92139,2,0,P|363:86|377:142,1,120,4|2,3:2|0:1,0:0:0:0:
364,148,92550,2,0,P|344:144|324:140,1,40,2|2,0:0|0:3,0:0:0:0:
253,163,92756,2,0,P|246:123|233:85,1,80,2|2,0:1|0:3,0:0:0:0:
98,10,93064,2,0,P|137:16|175:29,1,80,2|2,0:1|0:3,0:0:0:0:
251,12,93372,1,2,0:0:0:0:
159,102,93578,1,2,0:3:0:0:
72,83,93783,6,0,P|86:120|92:160,1,80,6|0,0:0|0:0,0:0:0:0:
19,166,94091,2,0,P|15:146|9:127,1,40,2|2,0:1|0:3,0:0:0:0:
0,53,94297,1,2,0:3:0:0:
6,47,94400,1,2,0:1:0:0:
64,228,94605,1,2,0:3:0:0:
70,234,94708,2,0,P|90:238|109:244,1,40,2|2,0:1|0:3,0:0:0:0:
169,195,94913,1,2,0:3:0:0:
163,189,95016,1,2,0:1:0:0:
134,316,95221,1,2,0:0:0:0:
300,384,95427,6,0,P|296:344|276:309,1,80,6|2,0:0|0:3,0:0:0:0:
245,240,95735,1,2,0:1:0:0:
239,234,95838,2,0,P|243:214|249:195,1,40,2|2,0:0|0:3,0:0:0:0:
288,130,96043,1,2,0:1:0:0:
449,20,96249,5,6,0:0:0:0:
446,29,96352,2,0,P|406:33|371:53,1,80,2|2,0:1|0:3,0:0:0:0:
331,116,96660,2,0,P|311:120|292:126,1,40,2|0,0:1|0:0,0:0:0:0:
213,131,96865,1,2,0:0:0:0:
0,137,97071,6,0,P|40:141|75:161,1,80,6|0,0:0|0:0,0:0:0:0:
134,207,97379,2,0,P|154:203|173:197,1,40,2|2,0:1|0:0,0:0:0:0:
219,88,97585,2,0,P|215:108|209:127,1,40,2|2,0:1|0:0,0:0:0:0:
330,245,97790,1,2,0:3:0:0:
324,239,97893,2,0,P|328:219|334:200,1,40,2|0,0:1|0:0,0:0:0:0:
352,116,98098,6,0,P|323:122|293:126,1,60.0000022888184,6|0,3:0|0:0,0:0:0:0:
238,252,98304,2,0,P|243:222|248:192,1,60.0000022888184,6|0,3:0|0:0,0:0:0:0:
209,127,98509,5,2,0:0:0:0:
63,236,98715,6,0,P|24:244|2:276,1,80,4|2,3:2|0:3,0:0:0:0:
32,348,99023,1,2,0:3:0:0:
41,355,99126,2,0,P|60:350|79:345,2,40,2|2|2,3:1|0:3|0:3,0:0:0:0:
238,252,99537,1,2,3:2:0:0:
244,262,99639,2,0,P|283:269|322:278,1,80,2|2,0:1|0:3,0:0:0:0:
385,321,99948,2,0,P|416:298|424:260,1,80,2|2,3:1|0:3,0:0:0:0:
376,203,100256,1,2,0:3:0:0:
369,194,100358,6,0,P|374:175|379:156,1,40,4|0,3:2|0:0,0:0:0:0:
453,177,100564,2,0,P|458:158|463:139,1,40,2|0,0:3|0:0,0:0:0:0:
408,0,100769,6,0,P|389:5|370:10,1,40,2|0,3:2|0:0,0:0:0:0:
302,152,100975,2,0,P|283:157|264:162,1,40,2|0,0:3|0:0,0:0:0:0:
202,82,101180,6,0,P|183:87|164:92,1,40,2|0,3:2|0:0,0:0:0:0:
135,182,101386,2,0,P|116:187|97:192,1,40,2|0,0:3|0:0,0:0:0:0:
0,0,101591,6,0,P|5:19|10:38,1,40,2|0,3:2|0:0,0:0:0:0:
84,17,101797,2,0,P|89:36|94:55,1,40,2|0,0:3|0:0,0:0:0:0:
22,169,102002,6,0,P|62:173|97:193,1,80,4|2,3:2|0:3,0:0:0:0:
124,263,102311,1,2,0:0:0:0:
130,269,102413,2,0,P|150:265|169:259,1,40,2|0,3:2|0:0,0:0:0:0:
241,236,102619,1,2,0:0:0:0:
508,345,102824,5,2,3:1:0:0:
378,330,103030,1,2,3:0:0:0:
222,312,103235,1,2,3:1:0:0:
34,290,103441,1,2,3:0:0:0:
227,158,103646,6,0,P|231:198|241:236,1,80,4|2,3:1|0:3,0:0:0:0:
102,375,103954,2,0,P|100:355|94:336,1,40,0|0,3:0|0:0,0:0:0:0:
0,32,104263,5,2,0:3:0:0:
57,17,104365,1,2,0:3:0:0:
53,60,104468,1,2,0:3:0:0:
23,54,104571,1,2,0:3:0:0:
36,80,104674,1,2,0:3:0:0:
46,77,104776,1,2,0:3:0:0:
62,154,104879,1,6,3:2:0:0:
73,150,104982,1,2,0:3:0:0:
72,165,105085,1,2,0:3:0:0:
66,163,105187,1,2,0:3:0:0:
90,238,105290,6,0,P|169:248|246:268,1,160,4|2,3:1|0:3,0:0:0:0:
409,90,105598,2,0,P|369:84|331:72,1,80,0|0,3:0|0:0,0:0:0:0:
154,18,106317,5,2,0:0:0:0:
143,23,106386,1,2,0:0:0:0:
135,31,106454,1,2,0:0:0:0:
130,42,106523,2,0,P|140:70|146:99,1,60.0000022888184,2|2,0:0|0:0,0:0:0:0:
512,237,106934,6,0,P|498:180|444:160,1,120.000004577637,4|2,3:1|0:3,0:0:0:0:
298,205,107242,1,2,0:3:0:0:
324,283,107345,5,8,0:0:0:0:
303,287,107448,2,0,P|276:275|247:268,1,60.0000022888184,2|2,0:1|0:3,0:0:0:0:
172,274,107653,1,2,0:3:0:0:
162,290,107756,2,0,P|152:231|135:173,1,120.000004577637,2|2,3:2|0:3,0:0:0:0:
34,54,108064,1,2,0:1:0:0:
11,125,108167,2,0,P|33:145|61:155,1,60.0000022888184,8|0,0:0|0:0,0:0:0:0:
242,97,108372,5,2,0:3:0:0:
312,70,108475,1,2,0:3:0:0:
338,99,108578,2,0,P|327:127|320:157,1,60.0000022888184,4|0,3:2|0:0,0:0:0:0:
103,16,108783,1,2,0:1:0:0:
113,10,108886,1,2,0:3:0:0:
178,47,108989,2,0,P|167:75|160:105,1,60.0000022888184,8|0,0:0|0:0,0:0:0:0:
358,6,109194,1,2,0:1:0:0:
368,0,109297,1,2,0:3:0:0:
433,37,109400,2,0,P|422:65|415:95,1,60.0000022888184,4|0,3:2|0:0,0:0:0:0:
431,336,109605,6,0,P|391:308|341:308,1,100,14|0,3:0|0:0,0:0:0:0:
398,168,109811,2,0,P|375:212|331:234,1,100,14|0,3:0|0:0,0:0:0:0:
270,280,110016,5,2,0:3:0:0:
224,308,110119,1,2,0:3:0:0:
212,334,110221,2,0,P|153:346|97:367,1,120,4|2,0:1|0:3,0:0:0:0:
81,292,110530,1,2,0:3:0:0:
19,250,110632,1,8,0:0:0:0:
7,256,110735,1,2,0:3:0:0:
0,265,110838,1,2,0:3:0:0:
186,160,111043,5,0,3:0:0:0:
195,153,111146,2,0,P|200:124|209:95,1,60.0000022888184,2|2,0:1|0:3,0:0:0:0:
257,207,111352,1,2,0:3:0:0:
266,200,111454,2,0,P|274:141|293:84,1,120.000004577637,8|2,0:0|0:3,0:0:0:0:
438,36,111763,1,2,0:3:0:0:
489,103,111865,6,0,P|459:109|431:120,1,60.0000022888184,4|0,3:2|0:0,0:0:0:0:
401,189,112071,2,0,P|371:195|343:206,1,60.0000022888184,2|0,0:3|0:0,0:0:0:0:
66,384,112276,6,0,P|71:355|82:327,1,60.0000022888184,8|0,0:0|0:0,0:0:0:0:
179,311,112482,1,2,0:1:0:0:
184,236,112585,1,0,3:0:0:0:
174,302,112687,2,0,P|179:273|190:245,1,60.0000022888184,0|0,3:0|0:0,0:0:0:0:
61,56,112893,6,0,P|111:61|149:92,1,100,14|0,3:0|0:0,0:0:0:0:
0,204,113098,2,0,P|37:157|94:144,1,120.000004577637,14|0,3:0|0:0,0:0:0:0:
200,151,113304,5,2,0:3:0:0:
255,180,113406,1,2,0:3:0:0:
266,200,113509,2,0,P|259:140|245:82,1,120.000004577637,4|2,3:1|0:3,0:0:0:0:
439,54,113817,1,2,0:3:0:0:
439,131,113920,2,0,P|410:124|386:108,1,60.0000022888184,8|0,0:0|0:0,0:0:0:0:
306,8,114126,2,0,P|313:37|318:66,1,60.0000022888184,2|0,0:0|0:0,0:0:0:0:
262,204,114331,6,0,P|255:144|241:86,1,120.000004577637,6|2,3:2|0:3,0:0:0:0:
435,58,114639,1,2,0:3:0:0:
435,135,114742,2,0,P|406:128|382:112,1,60.0000022888184,8|0,0:0|0:0,0:0:0:0:
243,0,114948,2,0,P|272:5|301:12,1,60.0000022888184,2|0,0:0|0:0,0:0:0:0:
384,0,115153,5,4,3:2:0:0:
237,90,115358,1,2,0:3:0:0:
209,119,115461,1,2,0:3:0:0:
191,120,115564,2,0,P|162:125|133:133,1,60.0000022888184,8|0,0:0|0:0,0:0:0:0:
90,28,115769,1,2,0:3:0:0:
70,1,115872,1,2,0:3:0:0:
58,0,115975,2,0,P|29:6|0:14,3,60.0000022888184,0|2|2|2,3:0|0:3|0:1|0:3,0:0:0:0:
167,48,116386,5,8,0:0:0:0:
63,163,116591,1,2,0:3:0:0:
17,184,116694,1,2,0:3:0:0:
3,201,116797,2,0,P|19:143|31:85,1,120.000004577637,4|2,3:2|0:3,0:0:0:0:
244,63,117105,1,2,0:3:0:0:
191,120,117208,2,0,P|182:148|177:178,1,60.0000022888184,8|0,0:0|0:0,0:0:0:0:
151,304,117413,5,2,0:1:0:0:
226,299,117516,1,0,3:0:0:0:
159,310,117619,2,0,P|189:305|217:294,1,60.0000022888184,0|0,3:0|0:0,0:0:0:0:
318,211,117824,2,0,P|348:206|376:195,1,60.0000022888184,2|0,0:1|0:0,0:0:0:0:
458,384,118030,6,0,P|429:379|401:368,1,60.0000022888184,8|0,0:0|0:0,0:0:0:0:
360,302,118235,2,0,P|331:297|303:286,1,60.0000022888184,2|0,0:1|0:0,0:0:0:0:
136,384,118441,6,0,P|124:304|104:227,1,160,4|2,3:1|0:3,0:0:0:0:
264,38,118749,2,0,P|271:78|281:117,1,80,4|0,3:2|0:0,0:0:0:0:
455,88,119057,5,2,0:3:0:0:
476,164,119160,1,2,0:3:0:0:
407,244,119263,1,2,0:3:0:0:
414,205,119365,1,2,0:3:0:0:
353,143,119468,1,6,0:3:0:0:
357,157,119571,1,2,0:3:0:0:
304,225,119674,1,6,0:3:0:0:
308,211,119776,1,2,0:3:0:0:
237,177,119879,1,2,0:3:0:0:
239,185,119982,1,2,0:3:0:0:
164,192,120085,6,0,P|105:195|45:203,1,120.000004577637,4|2,3:1|0:0,0:0:0:0:
37,212,120358,1,2,0:0:0:0:
33,223,120427,1,2,0:0:0:0:
33,234,120495,1,8,0:0:0:0:
135,120,120701,1,2,0:3:0:0:
0,0,120906,2,0,P|-7:56|38:91,1,120.000004577637,0|2,3:0|0:0,0:0:0:0:
48,84,121180,1,2,0:0:0:0:
60,79,121249,1,2,0:0:0:0:
72,78,121317,1,8,0:0:0:0:
237,177,121523,6,0,P|245:149|251:119,1,60.0000022888184,10|2,0:3|0:1,0:0:0:0:
353,38,121728,2,0,P|324:47|294:53,1,60.0000022888184,4|0,0:0|0:0,0:0:0:0:
194,26,121934,1,2,0:0:0:0:
199,37,122002,1,2,0:0:0:0:
207,45,122071,1,2,0:0:0:0:
218,50,122139,1,8,0:0:0:0:
422,0,122345,1,2,0:3:0:0:
325,124,122550,1,0,3:0:0:0:
492,326,122756,6,0,P|486:286|478:247,1,80,8|0,3:1|0:0,0:0:0:0:
251,256,122961,2,0,P|245:216|237:177,1,80,8|0,3:1|0:0,0:0:0:0:
411,308,123167,2,0,P|406:278|401:248,1,60.0000022888184,10|0,0:1|0:0,0:0:0:0:
455,72,123372,6,0,P|464:130|437:182,1,120.000004577637,4|2,3:2|0:0,0:0:0:0:
427,174,123646,1,2,0:0:0:0:
415,171,123715,1,2,0:0:0:0:
403,172,123783,1,8,0:0:0:0:
251,100,123989,2,0,P|221:104|192:113,1,60.0000022888184,2|0,0:3|0:0,0:0:0:0:
22,239,124194,6,0,P|79:223|138:211,1,120.000004577637,0|2,3:0|0:3,0:0:0:0:
145,195,124502,1,2,0:3:0:0:
162,184,124605,1,8,0:3:0:0:
325,124,124811,1,8,0:3:0:0:
159,0,125016,6,0,P|153:30|142:58,1,60.0000022888184,6|2,3:2|0:3,0:0:0:0:
76,94,125221,2,0,P|70:124|59:152,1,60.0000022888184,2|2,3:2|0:3,0:0:0:0:
188,310,125427,6,0,P|194:280|205:252,1,60.0000022888184,10|2,3:2|0:3,0:0:0:0:
308,181,125632,2,0,P|314:151|325:123,1,60.0000022888184,2|0,3:2|3:0,0:0:0:0:
512,0,125838,6,0,P|506:30|495:58,1,60.0000022888184,6|2,3:2|0:3,0:0:0:0:
344,302,126043,6,0,P|349:272|354:242,1,60.0000022888184,6|0,3:0|0:0,0:0:0:0:
193,113,126249,2,0,P|223:107|253:103,1,60.0000022888184,6|0,3:0|0:0,0:0:0:0:
413,124,126454,5,2,0:0:0:0:
466,148,126557,1,2,0:1:0:0:
474,175,126660,2,0,P|482:115|495:57,1,120.000004577637,4|2,3:1|0:0,0:0:0:0:
483,54,126934,1,2,0:0:0:0:
471,55,127002,1,2,0:0:0:0:
461,62,127071,1,8,0:0:0:0:
252,103,127276,5,2,0:3:0:0:
308,181,127482,2,0,P|248:189|190:202,1,120.000004577637,4|2,3:2|0:0,0:0:0:0:
187,190,127756,1,2,0:0:0:0:
188,178,127824,1,2,0:0:0:0:
195,168,127893,1,8,0:0:0:0:
329,281,128098,5,2,0:3:0:0:
353,319,128201,1,2,0:3:0:0:
386,335,128304,2,0,P|394:275|407:217,1,120.000004577637,4|2,3:2|0:0,0:0:0:0:
395,214,128578,1,2,0:0:0:0:
383,215,128646,1,2,0:0:0:0:
373,222,128715,1,8,0:0:0:0:
510,11,128920,6,0,P|497:69|490:128,1,120.000004577637,4|2,3:1|0:0,0:0:0:0:
466,147,129228,1,2,0:0:0:0:
424,145,129331,1,10,0:1:0:0:
387,105,129434,1,2,0:0:0:0:
344,55,129537,1,10,3:1:0:0:
268,39,129639,1,2,0:0:0:0:
199,68,129742,2,0,P|170:73|141:81,1,60.0000022888184,4|2,3:1|0:3,0:0:0:0:
55,348,130153,6,0,P|65:291|118:268,1,120.000004577637,2|0,3:1|0:0,0:0:0:0:
203,72,130358,6,0,P|229:123|199:172,1,120.000004577637,2|0,3:1|0:0,0:0:0:0:
245,382,130564,6,0,P|195:355|190:297,1,120.000004577637,2|0,3:1|0:0,0:0:0:0:
29,155,130769,6,0,P|86:146|124:190,1,120.000004577637,6|0,3:1|0:0,0:0:0:0:
336,212,131078,6,0,P|295:252|239:239,1,120.000004577637,6|0,3:2|0:0,0:0:0:0:
336,21,131386,5,2,0:3:0:0:
260,1,131489,1,2,0:3:0:0:
180,69,131591,1,2,0:3:0:0:
219,62,131694,1,2,0:3:0:0:
281,123,131797,1,2,0:3:0:0:
267,119,131900,1,2,0:3:0:0:
199,172,132002,1,2,0:3:0:0:
213,168,132105,1,2,0:3:0:0:
247,241,132208,1,2,0:3:0:0:
239,239,132311,1,2,0:3:0:0:
190,297,132413,6,0,P|269:308|346:328,1,160,4|2,3:1|0:3,0:0:0:0:
489,214,132721,2,0,P|450:204|411:197,1,80,4|0,3:2|0:0,0:0:0:0:
32,32,133030,5,14,3:1:0:0:
256,192,133132,12,0,136523,0:0:0:0:
