osu file format v14

[General]
AudioFilename: audio.ogg
AudioLeadIn: 0
PreviewTime: 39023
Countdown: 0
SampleSet: Soft
StackLeniency: 0.4
Mode: 0
LetterboxInBreaks: 0
WidescreenStoryboard: 1

[Editor]
Bookmarks: 92204,98780
DistanceSpacing: 1.1
BeatDivisor: 4
GridSize: 32
TimelineZoom: 2.699999

[Metadata]
Title:Koyoi Dance ~ Hanabi ya nen
TitleUnicode:今宵Dance~花火やねん
Artist:Kano
ArtistUnicode:鹿乃
Creator:Moecho
Version:L1gHT's Insane (feat. Moecho)
Source:Genshin Impact
Tags:yf_bmp Muziyami S_Saika Teages -Hitomi L1gHT_u Dance Tonight ~ It's fireworks! 长 長野原 宵宮 Naganohara Yoimiya 平茸 Hiratake Heavenz 鹿乃 Kano N emd 原神 YuanShen HoYoFair 2023 Fan Art Program A Marvelous Night in the Serenitea Pot 同人 doujin video game japanese
BeatmapID:3982810
BeatmapSetID:1923104

[Difficulty]
HPDrainRate:5
CircleSize:3.8
OverallDifficulty:8
ApproachRate:8.8
SliderMultiplier:1.6
SliderTickRate:1

[Events]
//Background and Video events
0,0,"bg_l1ght.jpg",0,0
Video,-62,"video.mp4"
//Break Periods
2,92338,98086
//Storyboard Layer 0 (Background)
//Storyboard Layer 1 (Fail)
//Storyboard Layer 2 (Pass)
//Storyboard Layer 3 (Foreground)
//Storyboard Layer 4 (Overlay)
//Storyboard Sound Samples

[TimingPoints]
85,410.958904109589,4,2,1,100,1,0
1318,-100,4,2,1,70,0,0
1728,-111.111111111111,4,2,1,70,0,0
2139,-76.9230769230769,4,2,1,70,0,0
3372,-100,4,2,1,70,0,0
5016,-111.111111111111,4,2,1,70,0,0
5427,-76.9230769230769,4,2,1,70,0,0
6659,-100,4,2,1,70,0,0
8304,-90.9090909090908,4,2,1,80,0,0
13235,-90.9090909090908,4,2,1,85,0,0
14879,-50,4,2,1,100,0,0
15290,-83.3333333333333,4,2,1,100,0,0
15701,-50,4,2,1,100,0,0
16112,-83.3333333333333,4,2,1,100,0,0
16523,-50,4,2,1,100,0,0
16934,-83.3333333333333,4,2,1,100,0,0
18167,-50,4,2,1,100,0,0
18578,-83.3333333333333,4,2,1,100,0,0
19811,-58.8235294117647,4,2,1,100,0,0
20221,-83.3333333333333,4,2,1,100,0,0
21454,-58.8235294117647,4,2,1,100,0,0
21865,-83.3333333333333,4,2,1,100,0,0
22276,-58.8235294117647,4,2,1,100,0,0
22687,-83.3333333333333,4,2,1,100,0,0
24948,-38.4615384615385,4,2,1,100,0,0
25564,-76.9230769230769,4,2,1,100,0,0
25872,-38.4615384615385,4,2,1,100,0,0
26386,-100,4,2,1,80,0,0
29057,-40,4,2,1,80,0,0
29468,-50,4,2,1,80,0,0
29879,-100,4,2,1,80,0,0
31317,-66.6666666666667,4,2,1,80,0,0
31934,-66.6666666666667,4,2,1,90,0,0
32961,-100,4,2,1,80,0,0
35838,-40,4,2,1,80,0,0
36043,-50,4,2,1,80,0,0
36660,-100,4,2,1,80,0,0
37893,-66.6666666666667,4,2,1,80,0,0
39537,-62.5,4,2,1,100,0,0
42208,-50,4,2,1,100,0,0
42824,-62.5,4,2,1,100,0,0
45495,-50,4,2,1,100,0,0
46112,-62.5,4,2,1,100,0,0
52687,-100,4,2,1,75,0,0
61934,-66.6666666666667,4,2,1,75,0,0
62345,-100,4,2,1,75,0,0
66249,-100,4,2,1,65,0,0
75701,-83.3333333333333,4,2,1,65,0,0
76523,-66.6666666666667,4,2,1,65,0,0
76797,-100,4,2,1,65,0,0
77345,-66.6666666666667,4,2,1,65,0,0
78167,-100,4,2,1,65,0,0
78577,-83.3333333333333,4,2,1,65,0,0
78989,-142.857142857143,4,2,1,60,0,0
90187,-142.857142857143,4,2,1,65,0,0
91729,-142.857142857143,4,2,1,75,0,0
98715,-111.111111111111,4,2,1,80,0,0
103646,-111.111111111111,4,2,1,85,0,0
105290,-55.5555555555556,4,2,1,90,0,0
106318,-55.5555555555556,4,2,1,85,0,0
106934,-62.5,4,2,1,100,0,0
109605,-50,4,2,1,100,0,0
110016,-62.5,4,2,1,100,0,0
112893,-50,4,2,1,100,0,0
113509,-62.5,4,2,1,100,0,0
118441,-55.5555555555556,4,2,1,100,0,0
119057,-90.9090909090909,4,2,1,85,0,0
120084,-50,4,2,1,100,0,0
120495,-83.3333333333333,4,2,1,100,0,0
120906,-50,4,2,1,100,0,0
121317,-83.3333333333333,4,2,1,100,0,0
121728,-50,4,2,1,100,0,0
122139,-83.3333333333333,4,2,1,100,0,0
123372,-50,4,2,1,100,0,0
123783,-83.3333333333333,4,2,1,100,0,0
125016,-100,4,2,1,100,0,0
125427,-66.6666666666667,4,2,1,100,0,0
125838,-50,4,2,1,100,0,0
126249,-40,4,2,1,100,0,0
126660,-58.8235294117647,4,2,1,100,0,0
127071,-83.3333333333333,4,2,1,100,0,0
127482,-58.8235294117647,4,2,1,100,0,0
127893,-83.3333333333333,4,2,1,100,0,0
130153,-38.4615384615385,4,2,1,100,0,0
130769,-76.9230769230769,4,2,1,100,0,0
131078,-38.4615384615385,4,2,1,100,0,0
131386,-38.4615384615385,4,2,1,85,0,0
132413,-40,4,2,1,85,0,0
133235,-55.5555555555556,4,2,1,80,0,0
133646,-55.5555555555556,4,2,1,70,0,0
134057,-55.5555555555556,4,2,1,60,0,0
134468,-55.5555555555556,4,2,1,50,0,0
134879,-55.5555555555556,4,2,1,40,0,0
135290,-55.5555555555556,4,2,1,30,0,0
135701,-55.5555555555556,4,2,1,20,0,0
136112,-55.5555555555556,4,2,1,10,0,0
136523,-55.5555555555556,4,2,1,5,0,0

[Colours]
Combo1 : 17,254,176
Combo2 : 173,255,95
Combo3 : 255,88,100
Combo4 : 255,94,55

[HitObjects]
215,57,1317,5,2,0:1:0:0:
215,57,1523,1,2,0:1:0:0:
65,146,1728,6,0,P|96:187|117:272,1,107.999996704102,4|0,0:0|0:0,0:0:0:0:
193,227,2139,2,0,P|173:299|101:319,1,155.999992858887,2|0,0:0|0:0,0:0:0:0:
90,328,2550,1,2,0:3:0:0:
162,120,2858,5,0,0:0:0:0:
192,141,2961,2,0,P|257:151|297:170,1,103.999995239258,2|2,0:0|0:0,0:0:0:0:
472,20,3372,6,0,P|465:38|461:58,1,40,2|0,0:1|0:0,0:0:0:0:
393,97,3578,2,0,P|386:115|382:135,1,40,2|0,0:0|0:0,0:0:0:0:
484,208,3783,2,0,P|483:168|462:135,1,80,2|2,0:3|0:0,0:0:0:0:
312,90,4194,1,2,0:0:0:0:
0,344,4605,5,2,0:1:0:0:
0,344,4811,1,2,0:1:0:0:
186,366,5016,6,0,P|155:325|134:240,1,107.999996704102,4|0,0:0|0:0,0:0:0:0:
58,285,5427,2,0,P|78:213|150:193,1,155.999992858887,2|0,0:0|0:0,0:0:0:0:
161,184,5838,1,2,0:3:0:0:
392,330,6146,5,0,0:0:0:0:
398,355,6249,2,0,P|350:335|298:329,1,103.999995239258,2|2,0:0|0:0,0:0:0:0:
28,101,6660,6,0,P|35:119|39:139,1,40,2|0,0:3|0:0,0:0:0:0:
150,146,6865,2,0,P|157:164|161:184,1,40,2|0,0:3|0:0,0:0:0:0:
58,285,7071,2,0,P|59:245|80:212,1,80,2|0,0:3|0:0,0:0:0:0:
234,152,7482,1,2,0:0:0:0:
242,166,7893,6,0,L|357:197,1,120,2|0,0:1|0:0,0:0:0:0:
448,192,8304,6,0,P|434:133|418:75,1,88.000002685547,4|0,3:2|0:0,0:0:0:0:
457,36,8612,1,0,0:0:0:0:
491,46,8715,2,0,P|447:87|405:130,1,88.000002685547,2|2,3:1|0:1,0:0:0:0:
349,116,9023,1,0,0:0:0:0:
343,83,9126,2,0,P|402:100|460:115,1,88.000002685547,4|2,3:2|0:0,0:0:0:0:
457,181,9434,1,2,0:0:0:0:
447,192,9537,2,0,P|430:232|422:275,1,88.000002685547,2|2,3:1|0:0,0:0:0:0:
377,376,9948,6,0,P|422:304|506:289,1,176.000005371094,4|0,3:2|3:0,0:0:0:0:
388,384,10564,1,2,0:3:0:0:
512,384,10769,2,0,P|507:340|497:297,1,88.000002685547,4|0,3:2|0:0,0:0:0:0:
287,81,11180,6,0,P|293:38|328:13,1,88.000002685547,2|2,3:1|0:1,0:0:0:0:
369,80,11489,1,0,0:0:0:0:
359,111,11591,6,0,P|293:121|228:130,1,132.00000402832,4|2,3:2|0:0,0:0:0:0:
219,137,12002,2,0,P|210:180|207:224,1,88.000002685547,2|2,3:1|0:1,0:0:0:0:
156,346,12413,6,0,L|178:384,1,44.0000013427735,2|0,3:1|0:0,0:0:0:0:
41,243,12619,2,0,L|0:227,1,44.0000013427735,2|0,3:0|0:0,0:0:0:0:
122,194,12824,2,0,L|126:150,1,44.0000013427735,2|0,3:1|0:0,0:0:0:0:
59,338,13030,2,0,L|29:370,1,44.0000013427735,2|0,3:0|0:0,0:0:0:0:
196,257,13235,2,0,L|282:239,1,88.000002685547,4|2,3:1|0:3,0:0:0:0:
116,275,13543,5,0,3:0:0:0:
353,277,13852,5,2,0:3:0:0:
339,331,13954,1,2,0:3:0:0:
375,366,14057,1,2,0:3:0:0:
396,360,14160,1,2,0:3:0:0:
417,354,14263,2,0,L|425:310,1,44.0000013427735,6|2,0:3|0:3,0:0:0:0:
494,368,14468,2,0,L|502:324,1,44.0000013427735,6|2,0:3|0:3,0:0:0:0:
492,225,14674,5,2,0:3:0:0:
484,240,14776,1,2,0:3:0:0:
477,250,14879,2,0,P|368:214|275:282,1,240,4|0,3:1|0:0,0:0:0:0:
161,329,15290,2,0,L|208:322,1,47.9999985351563,8|0,0:0|0:0,0:0:0:0:
151,324,15495,2,0,L|104:330,1,47.9999985351563,2|0,0:3|0:0,0:0:0:0:
263,381,15701,6,0,P|349:304|336:189,1,240,0|0,3:0|0:0,0:0:0:0:
340,63,16112,2,0,L|333:110,1,47.9999985351563,8|0,0:0|0:0,0:0:0:0:
335,53,16317,2,0,L|341:6,1,47.9999985351563,10|2,0:3|0:1,0:0:0:0:
256,130,16523,6,0,P|279:242|385:289,1,240,4|0,3:2|0:0,0:0:0:0:
455,207,16934,2,0,L|407:213,1,47.9999985351563,8|0,0:0|0:0,0:0:0:0:
465,212,17139,2,0,L|512:206,1,47.9999985351563,2|0,0:3|0:0,0:0:0:0:
336,189,17345,5,0,3:0:0:0:
466,349,17550,5,8,3:1:0:0:
263,381,17756,6,0,P|251:335|230:290,1,95.9999970703126,8|2,3:1|0:1,0:0:0:0:
302,258,18064,1,2,0:3:0:0:
306,271,18167,6,0,P|191:259|114:345,1,240,4|0,3:2|0:0,0:0:0:0:
43,327,18578,2,0,L|36:280,1,47.9999985351563,8|0,0:0|0:0,0:0:0:0:
38,337,18783,2,0,L|44:384,1,47.9999985351563,2|0,0:3|0:0,0:0:0:0:
63,204,18989,6,0,P|83:215|107:219,1,47.9999985351563,0|0,3:0|0:0,0:0:0:0:
187,212,19194,2,0,P|209:205|225:187,1,47.9999985351563,2|2,0:3|0:3,0:0:0:0:
267,122,19400,2,0,P|251:71|245:18,1,95.9999970703126,8|8,0:3|0:3,0:0:0:0:
171,0,19708,1,0,0:0:0:0:
171,12,19811,6,0,B|292:2|243:71|360:68,1,204.000003890991,8|0,3:0|0:0,0:0:0:0:
437,58,20221,2,0,P|397:106|397:148,1,95.9999970703126,8|0,0:0|3:0,0:0:0:0:
317,159,20530,1,0,3:0:0:0:
353,230,20632,2,0,P|386:196|395:150,1,95.9999970703126,0|6,3:0|3:0,0:0:0:0:
488,0,21043,1,6,3:0:0:0:
433,221,21352,1,2,0:1:0:0:
353,230,21454,6,0,P|281:193|140:207,1,204.000003890991,4|0,3:1|0:0,0:0:0:0:
84,218,21865,2,0,P|77:170|65:123,1,95.9999970703126,8|2,0:0|0:3,0:0:0:0:
191,78,22276,6,0,P|159:172|75:226,1,204.000003890991,4|0,3:2|0:0,0:0:0:0:
0,243,22687,2,0,P|11:289|18:337,1,95.9999970703126,8|2,0:0|0:3,0:0:0:0:
286,362,23098,6,0,P|258:324|214:307,1,95.9999970703126,4|2,3:2|0:0,0:0:0:0:
137,309,23406,1,0,0:0:0:0:
119,328,23509,2,0,P|71:335|24:347,1,95.9999970703126,8|4,0:0|3:1,0:0:0:0:
298,258,23920,5,2,0:0:0:0:
306,248,24023,1,2,0:0:0:0:
302,233,24126,1,10,0:1:0:0:
330,218,24228,1,2,0:0:0:0:
317,183,24331,1,10,3:1:0:0:
362,152,24434,1,2,0:0:0:0:
349,102,24537,1,4,3:1:0:0:
14,300,24948,6,0,P|66:303|114:283,1,103.999995239258,2|0,3:1|0:0,0:0:0:0:
317,183,25153,6,0,P|277:152|227:140,1,103.999995239258,2|0,3:1|0:0,0:0:0:0:
208,352,25358,6,0,P|226:304|222:253,1,103.999995239258,2|0,3:1|0:0,0:0:0:0:
187,43,25564,6,0,P|145:72|118:116,1,103.999995239258,6|0,3:1|0:0,0:0:0:0:
0,114,25872,6,0,P|14:164|48:204,1,103.999995239258,6|0,3:2|0:0,0:0:0:0:
208,352,26386,6,0,P|246:341|285:333,1,80,4|2,3:1|0:3,0:0:0:0:
407,273,26694,1,2,0:1:0:0:
411,286,26797,2,0,P|376:270|336:269,1,80,8|2,0:0|0:3,0:0:0:0:
227,268,27208,5,4,3:2:0:0:
222,255,27311,1,2,0:0:0:0:
395,194,27516,1,2,0:1:0:0:
392,182,27619,2,0,P|385:142|373:104,1,80,8|2,0:0|0:3,0:0:0:0:
325,43,27927,1,2,0:3:0:0:
302,69,28030,2,0,P|262:74|230:97,1,80,0|2,3:0|0:3,0:0:0:0:
79,269,28441,6,0,L|32:283,1,40,8|0,0:0|0:0,0:0:0:0:
97,268,28646,2,0,L|133:301,1,40,2|0,0:1|0:0,0:0:0:0:
88,251,28852,2,0,L|99:202,1,40,2|0,3:1|0:0,0:0:0:0:
90,260,29057,6,0,B|155:251|127:230|181:222,1,100,2|2,0:3|0:1,0:0:0:0:
260,381,29263,2,0,P|211:371|198:321,1,100,8|0,0:0|0:0,0:0:0:0:
250,268,29468,2,0,P|256:228|267:189,2,80,2|2|4,0:1|0:3|3:2,0:0:0:0:
408,55,29879,5,2,0:1:0:0:
401,82,29982,1,0,0:0:0:0:
383,90,30085,2,0,P|354:117|337:153,1,80,8|2,0:0|0:1,0:0:0:0:
398,209,30495,5,6,3:2:0:0:
411,204,30598,1,2,0:0:0:0:
280,295,30804,1,2,0:1:0:0:
276,307,30906,2,0,P|274:326|270:346,1,40,8|0,0:0|0:0,0:0:0:0:
345,384,31112,5,2,0:3:0:0:
396,361,31215,1,2,0:3:0:0:
439,377,31317,2,0,P|449:319|463:260,1,120.000004577637,0|2,3:0|0:0,0:0:0:0:
496,51,31728,2,0,P|438:76|360:93,1,120.000004577637,8|2,0:0|0:1,0:0:0:0:
366,87,32037,1,2,0:1:0:0:
288,74,32139,5,12,3:2:0:0:
252,140,32242,2,0,P|269:164|282:191,2,60.0000022888184,6|2|2,3:1|0:3|0:3,0:0:0:0:
204,259,32550,5,12,3:2:0:0:
216,232,32653,2,0,P|198:207|185:180,1,60.0000022888184,6|2,3:1|0:3,0:0:0:0:
8,0,32961,6,0,P|46:11|85:19,1,80,4|2,3:1|0:3,0:0:0:0:
207,79,33269,1,2,0:1:0:0:
211,66,33372,2,0,P|175:82|135:83,1,80,8|2,0:0|0:3,0:0:0:0:
59,93,33783,5,4,3:2:0:0:
54,106,33886,1,2,0:0:0:0:
186,181,34091,1,2,0:1:0:0:
183,193,34194,2,0,P|176:233|164:271,1,80,8|2,0:0|0:3,0:0:0:0:
116,332,34502,1,2,0:3:0:0:
141,361,34605,2,0,P|181:356|213:333,1,80,0|2,3:0|0:3,0:0:0:0:
491,185,35016,6,0,L|500:139,1,40,8|0,0:0|0:0,0:0:0:0:
491,68,35221,2,0,L|455:37,1,40,2|0,0:1|0:0,0:0:0:0:
363,10,35427,2,0,L|318:25,1,40,2|0,3:1|0:0,0:0:0:0:
239,117,35632,2,0,L|230:163,1,40,2|2,0:0|0:1,0:0:0:0:
368,302,35838,2,0,P|408:274|420:226,1,100,8|0,0:0|0:0,0:0:0:0:
386,157,36043,2,0,P|346:162|308:176,2,80,2|2|4,0:1|0:3|3:2,0:0:0:0:
87,318,36454,5,2,0:1:0:0:
241,367,36660,1,8,0:0:0:0:
206,298,36865,1,2,0:0:0:0:
7,355,37071,2,0,P|10:315|13:275,1,80,4|0,3:2|0:0,0:0:0:0:
66,217,37379,2,0,P|62:197|57:177,1,40,2|8,0:1|0:0,0:0:0:0:
176,0,37687,6,0,P|168:18|152:30,1,40,2|2,0:3|0:3,0:0:0:0:
14,0,37893,2,0,B|0:32|0:32|108:-3,1,120,0|2,3:0|0:3,0:0:0:0:
237,55,38304,1,8,3:2:0:0:
321,101,38509,1,2,0:3:0:0:
406,202,38715,1,4,3:1:0:0:
461,364,39126,5,2,0:1:0:0:
461,364,39331,5,2,0:1:0:0:
460,363,39537,6,0,P|401:340|338:333,1,128,4|2,3:1|0:3,0:0:0:0:
195,326,39845,1,2,0:3:0:0:
165,358,39948,2,0,P|256:343|305:264,1,192,8|2,0:0|0:3,0:0:0:0:
383,257,40358,6,0,P|378:193|363:131,1,128,2|2,3:2|0:3,0:0:0:0:
436,99,40667,1,2,0:1:0:0:
483,160,40769,2,0,P|420:144|357:141,1,128,8|2,0:0|0:3,0:0:0:0:
157,173,41180,6,0,P|125:176|93:183,1,64,4|0,3:2|0:0,0:0:0:0:
0,64,41386,2,0,P|6:95|10:127,1,64,2|2,0:1|0:3,0:0:0:0:
163,179,41591,6,0,P|159:210|152:242,1,64,8|0,0:0|0:0,0:0:0:0:
16,135,41797,2,0,P|9:166|5:198,1,64,2|2,0:1|0:3,0:0:0:0:
168,184,42002,6,0,P|174:152|178:120,1,64,4|0,3:2|0:0,0:0:0:0:
139,10,42208,6,0,P|100:7|67:29,1,80,14|0,3:0|0:0,0:0:0:0:
62,18,42413,2,0,P|95:-3|135:0,1,80,14|0,3:0|0:0,0:0:0:0:
207,46,42619,5,2,0:3:0:0:
237,73,42721,1,2,0:3:0:0:
245,88,42824,2,0,P|304:64|367:57,1,128,4|2,0:1|0:3,0:0:0:0:
476,121,43132,1,2,0:3:0:0:
511,141,43235,2,0,P|496:49|417:0,1,192,8|0,0:0|0:0,0:0:0:0:
373,65,43646,6,0,P|359:127|353:191,1,128,0|2,3:0|0:3,0:0:0:0:
410,242,43954,1,2,0:3:0:0:
430,235,44057,2,0,P|461:229|492:220,1,64,8|0,0:0|0:0,0:0:0:0:
328,264,44263,2,0,P|297:269|266:279,1,64,2|2,0:3|0:3,0:0:0:0:
203,378,44468,6,0,B|131:376|170:337|65:332,1,128,4|2,3:2|0:3,0:0:0:0:
0,375,44776,1,0,0:0:0:0:
15,300,44879,2,0,P|20:268|27:237,1,64,8|0,0:0|0:0,0:0:0:0:
175,121,45085,2,0,P|143:126|112:133,1,64,2|0,0:1|3:0,0:0:0:0:
39,159,45290,1,0,3:0:0:0:
72,1,45495,6,0,P|32:-1|0:19,1,80,14|0,3:0|0:0,0:0:0:0:
4,30,45701,2,0,P|36:8|75:11,1,80,14|0,3:0|0:0,0:0:0:0:
141,54,45906,5,2,0:3:0:0:
171,95,46009,1,2,0:3:0:0:
175,121,46112,2,0,L|305:143,1,128,4|2,3:1|0:3,0:0:0:0:
426,166,46420,1,2,0:3:0:0:
346,262,46523,6,0,L|300:138,1,128,8|2,0:0|0:0,0:0:0:0:
258,23,46831,1,0,0:0:0:0:
384,45,46934,6,0,L|298:146,1,128,6|2,3:2|0:3,0:0:0:0:
219,240,47242,1,2,0:3:0:0:
346,262,47345,6,0,P|349:231|357:200,1,64,8|0,0:0|0:0,0:0:0:0:
282,309,47550,2,0,P|250:312|219:320,1,64,2|0,0:0|0:0,0:0:0:0:
383,375,47756,6,0,B|384:304|423:343|427:259,1,128,4|2,3:2|0:3,0:0:0:0:
482,145,48064,1,2,0:3:0:0:
501,222,48167,2,0,P|505:254|513:285,1,64,8|0,0:0|0:0,0:0:0:0:
473,148,48372,2,0,P|469:116|461:85,1,64,2|2,0:3|0:3,0:0:0:0:
508,12,48578,6,0,P|416:18|363:94,1,192,0|2,3:0|0:3,0:0:0:0:
300,142,48989,2,0,P|264:129|225:123,1,64,8|0,0:0|0:0,0:0:0:0:
168,5,49194,2,0,P|174:36|186:65,1,64,2|2,0:3|0:3,0:0:0:0:
193,301,49400,6,0,P|247:225|232:132,1,192,4|2,3:2|0:3,0:0:0:0:
178,74,49811,2,0,P|146:78|114:88,1,64,8|0,0:0|0:0,0:0:0:0:
70,172,50016,2,0,P|38:175|7:185,1,64,2|0,0:1|3:0,0:0:0:0:
110,297,50221,6,0,P|119:266|123:234,1,64,0|0,3:0|0:0,0:0:0:0:
232,132,50427,2,0,P|228:163|218:194,1,64,2|0,0:1|0:0,0:0:0:0:
312,268,50632,2,0,P|321:237|325:205,1,64,8|0,0:0|0:0,0:0:0:0:
415,159,50838,2,0,P|411:190|401:221,1,64,2|0,0:1|0:0,0:0:0:0:
499,368,51043,6,0,P|509:306|470:258,1,128,4|2,3:1|0:3,0:0:0:0:
366,325,51352,2,0,P|394:335|419:316,1,64,4|0,3:2|0:0,0:0:0:0:
260,209,52687,6,0,P|318:195|377:188,1,120,4|8,3:1|0:0,0:0:0:0:
453,201,53098,1,2,3:0:0:0:
469,209,53201,2,0,P|475:190|475:170,1,40,2|8,0:0|0:0,0:0:0:0:
411,92,53406,5,2,0:0:0:0:
335,119,53509,2,0,P|325:77|313:29,1,80,0|2,3:0|0:3,0:0:0:0:
380,0,53817,1,8,0:0:0:0:
385,7,53920,2,0,P|404:10|423:16,1,40,10|0,3:0|0:0,0:0:0:0:
496,97,54126,2,0,P|490:77|486:58,1,40,10|0,0:3|0:0,0:0:0:0:
331,127,54331,6,0,B|266:119|283:87|221:80,1,120,4|8,3:2|0:0,0:0:0:0:
149,106,54742,2,0,P|142:67|130:28,1,80,0|8,3:0|0:0,0:0:0:0:
18,210,55153,2,0,P|11:171|-1:132,1,80,2|6,3:1|3:0,0:0:0:0:
58,0,55564,5,6,3:0:0:0:
205,8,55769,1,2,0:3:0:0:
213,156,55975,2,0,P|181:133|142:131,1,80,4|2,3:2|0:3,0:0:0:0:
124,142,56283,1,8,0:0:0:0:
121,158,56386,6,0,P|132:196|139:235,1,80,2|8,3:0|0:0,0:0:0:0:
130,324,56694,2,0,P|112:316|99:301,1,40,2|0,0:0|3:0,0:0:0:0:
287,177,57002,2,0,P|306:180|325:186,1,40,2|8,0:3|0:0,0:0:0:0:
412,240,57208,1,10,3:0:0:0:
479,365,57413,1,10,0:3:0:0:
204,292,57619,6,0,P|248:324|277:315,1,80,4|2,3:2|0:3,0:0:0:0:
279,311,57927,2,0,P|323:279|352:288,1,80,8|0,0:0|0:0,0:0:0:0:
350,292,58235,2,0,P|377:321|416:320,1,80,8|0,0:0|3:0,0:0:0:0:
512,142,58646,5,10,3:1:0:0:
466,174,58749,1,0,3:0:0:0:
457,198,58852,2,0,P|417:205|378:214,1,80,10|2,3:1|3:0,0:0:0:0:
239,43,59160,1,2,0:3:0:0:
188,100,59263,6,0,P|246:85|305:78,1,120,4|8,3:1|0:0,0:0:0:0:
382,89,59674,1,2,3:0:0:0:
387,102,59776,2,0,P|386:121|380:140,1,40,2|8,0:0|0:0,0:0:0:0:
215,192,59982,5,2,0:0:0:0:
282,232,60085,2,0,P|292:190|304:142,1,80,0|2,3:0|0:3,0:0:0:0:
306,78,60393,1,8,0:0:0:0:
301,71,60495,2,0,P|281:78|262:81,1,40,10|0,3:0|0:0,0:0:0:0:
187,85,60701,2,0,P|181:105|177:124,1,40,10|0,0:3|0:0,0:0:0:0:
289,241,60906,5,0,3:0:0:0:
84,132,61112,1,2,0:0:0:0:
56,172,61215,1,8,0:0:0:0:
57,207,61317,2,0,P|96:196|135:189,1,80,0|8,3:0|0:0,0:0:0:0:
352,311,61728,2,0,P|313:318|274:330,1,80,4|6,3:2|3:0,0:0:0:0:
461,134,62139,1,6,3:0:0:0:
433,337,62345,5,2,0:3:0:0:
465,363,62448,1,2,0:3:0:0:
471,384,62550,2,0,B|506:350|506:350|527:293|495:251,1,120,4|8,3:2|0:0,0:0:0:0:
455,225,62961,1,2,3:0:0:0:
443,242,63064,2,0,P|425:245|397:256,1,40,2|8,0:0|0:0,0:0:0:0:
275,330,63269,5,2,0:0:0:0:
289,353,63372,2,0,P|327:341|352:311,1,80,0|2,3:0|0:3,0:0:0:0:
317,241,63680,1,8,0:0:0:0:
310,236,63783,2,0,P|317:216|320:197,1,40,10|0,3:0|0:0,0:0:0:0:
394,176,63989,2,0,P|399:156|403:137,1,40,10|0,0:3|0:0,0:0:0:0:
304,241,64194,6,0,P|227:261|162:307,2,160,4|2|2,3:2|3:0|3:0,0:0:0:0:
485,230,65221,1,8,0:1:0:0:
476,278,65324,1,2,3:0:0:0:
461,242,65427,2,0,P|410:249|368:252,1,80,8|2,0:1|3:0,0:0:0:0:
168,320,65838,1,4,3:1:0:0:
182,314,66249,6,0,P|204:266|197:214,1,106.666666666667,10|2,0:3|0:0,0:0:0:0:
167,169,66660,1,10,3:2:0:0:
116,151,66797,1,2,0:0:0:0:
67,172,66934,1,2,0:1:0:0:
48,222,67071,1,2,0:0:0:0:
59,238,67482,5,10,0:3:0:0:
77,188,67619,1,2,0:0:0:0:
127,170,67756,1,10,0:3:0:0:
175,193,67893,1,2,3:2:0:0:
216,226,68030,1,2,0:0:0:0:
268,218,68167,1,8,0:1:0:0:
289,169,68304,1,10,3:2:0:0:
187,202,68578,5,4,3:2:0:0:
391,136,69126,1,10,3:0:0:0:
444,286,69537,6,0,P|450:233|458:180,1,106.666666666667,10|2,0:3|0:0,0:0:0:0:
503,150,69948,1,10,3:2:0:0:
483,100,70085,2,0,P|453:105|415:114,1,53.3333333333333,2|2,0:0|0:1,0:1:0:0:
233,190,70358,2,0,P|285:196|338:204,1,106.666666666667,2|2,0:0|0:1,0:0:0:0:
382,172,70769,5,10,0:3:0:0:
353,126,70906,1,2,0:0:0:0:
305,102,71043,1,10,0:3:0:0:
251,102,71180,1,2,3:2:0:0:
199,115,71317,1,2,0:0:0:0:
161,153,71454,1,8,0:1:0:0:
154,205,71591,1,10,3:2:0:0:
233,190,71865,6,0,P|250:111|261:32,1,160,4|2,0:0|0:3,0:0:0:0:
164,12,72413,2,0,P|216:8|257:40,1,106.666666666667,10|0,3:0|0:0,0:0:0:0:
292,81,72824,5,10,0:3:0:0:
340,103,72961,1,2,0:0:0:0:
392,94,73098,1,2,0:0:0:0:
431,58,73235,1,10,3:2:0:0:
484,58,73372,2,0,P|478:84|477:110,1,53.3333333333333,2|2,0:0|0:1,0:0:0:0:
475,227,73646,2,0,P|448:182|397:174,1,106.666666666667,2|2,0:0|0:1,0:0:0:0:
366,218,74057,5,10,0:3:0:0:
318,242,74194,1,2,0:0:0:0:
266,228,74331,1,10,0:3:0:0:
247,178,74468,1,2,3:2:0:0:
196,160,74605,1,8,0:1:0:0:
146,180,74742,1,2,0:0:0:0:
136,232,74879,5,10,3:2:0:0:
236,194,75153,1,2,3:2:0:0:
388,145,75427,1,2,3:2:0:0:
503,89,75701,2,0,B|449:61|404:82|414:105|383:122|328:120|272:81|338:-16|403:-5|427:94,1,319.999990234375,6|0,3:2|0:0,0:0:0:0:
497,96,76523,2,0,P|487:134|481:174,1,80.0000030517579,10|0,0:0|0:0,0:0:0:0:
340,264,76797,6,0,P|392:253|445:244,2,106.666666666667,2|2|8,0:1|0:0|0:3,0:0:0:0:
494,302,77619,2,0,P|477:337|442:354,1,80.0000030517579,8|0,0:3|3:0,0:0:0:0:
278,209,77893,2,0,P|313:225|330:260,1,80.0000030517579,2|8,0:1|0:1,0:0:0:0:
202,372,78167,6,0,P|175:366|149:363,1,53.3333333333333,10|2,3:2|0:3,0:0:0:0:
39,320,78441,2,0,P|65:317|92:313,1,53.3333333333333,2|0,3:2|0:0,0:0:0:0:
0,384,78715,1,0,0:0:0:0:
98,305,78989,6,0,P|105:249|120:195,2,111.999996582031,10|10|8,3:0|3:0|0:0,0:0:0:0:
77,133,80085,1,2,0:1:0:0:
86,128,80221,2,0,P|103:121|121:119,1,37.3333321940105,2|0,0:1|0:0,0:0:0:0:
187,160,80495,2,0,P|204:164|223:168,1,37.3333321940105,2|10,0:1|3:0,0:0:0:0:
415,119,80838,6,0,L|386:113,1,27.9999991455078,2|0,0:0|0:0,0:0:0:0:
382,19,81043,2,0,L|364:41,1,27.9999991455078,2|0,3:2|0:0,0:0:0:0:
272,0,81249,2,0,L|282:27,1,27.9999991455078,2|0,0:0|0:0,0:0:0:0:
380,121,81454,6,0,L|408:126,1,27.9999991455078,10|0,0:0|0:0,0:0:0:0:
354,41,81660,2,0,L|373:18,1,27.9999991455078,2|0,0:0|0:0,0:0:0:0:
271,26,81865,2,0,L|261:-1,1,27.9999991455078,2|0,0:0|0:0,0:0:0:0:
218,87,82071,2,0,L|189:81,1,27.9999991455078,2|0,3:2|0:0,0:0:0:0:
298,106,82276,5,10,3:0:0:0:
430,203,82482,2,0,L|433:224,4,13.9999995727539,2|2|2|2|10,0:3|0:3|0:3|0:3|3:0,0:0:0:0:
298,106,82893,1,0,0:0:0:0:
436,194,83098,2,0,P|440:231|448:267,1,74.6666643880209,8|2,0:0|0:1,0:0:0:0:
454,277,83509,2,0,P|447:294|445:312,1,37.3333321940105,2|0,0:1|0:0,0:0:0:0:
401,377,83783,2,0,P|383:381|364:385,1,37.3333321940105,2|10,0:1|3:0,0:0:0:0:
109,355,84126,6,0,L|105:326,1,27.9999991455078,2|0,0:0|0:0,0:0:0:0:
14,310,84331,2,0,L|38:292,1,27.9999991455078,2|0,3:2|0:0,0:0:0:0:
0,197,84537,2,0,L|26:209,1,27.9999991455078,2|0,0:0|0:0,0:0:0:0:
112,316,84742,6,0,L|115:344,1,27.9999991455078,10|0,0:0|0:0,0:0:0:0:
36,284,84948,2,0,L|13:301,1,27.9999991455078,2|0,0:0|0:0,0:0:0:0:
25,201,85153,2,0,L|-1:189,1,27.9999991455078,2|0,0:0|0:0,0:0:0:0:
90,151,85358,2,0,L|87:121,1,27.9999991455078,2|0,0:0|0:0,0:0:0:0:
102,235,85564,5,10,3:0:0:0:
249,178,85769,2,0,L|252:157,4,13.9999995727539,2|2|2|2|10,0:3|0:3|0:3|0:3|3:0,0:0:0:0:
102,235,86180,1,0,0:0:0:0:
254,186,86386,2,0,P|258:149|267:113,1,74.6666643880209,8|2,0:0|0:1,0:0:0:0:
275,104,86797,2,0,P|292:111|310:113,1,37.3333321940105,2|0,0:1|0:0,0:0:0:0:
375,157,87071,2,0,P|379:175|383:194,1,37.3333321940105,2|10,0:1|3:0,0:0:0:0:
501,362,87413,6,0,L|499:322,1,27.9999991455078,2|0,0:0|0:0,0:0:0:0:
399,380,87619,2,0,L|418:344,1,27.9999991455078,2|0,3:2|0:0,0:0:0:0:
308,346,87824,2,0,L|331:330,1,27.9999991455078,2|0,0:0|0:0,0:0:0:0:
510,330,88030,6,0,L|513:371,1,27.9999991455078,10|0,0:0|0:0,0:0:0:0:
422,359,88235,2,0,L|404:396,1,27.9999991455078,2|0,0:0|0:0,0:0:0:0:
331,340,88441,2,0,L|298:363,1,27.9999991455078,2|0,0:0|0:0,0:0:0:0:
262,278,88646,2,0,L|222:281,1,27.9999991455078,2|0,0:0|0:0,0:0:0:0:
254,186,88852,5,10,3:0:0:0:
389,274,89057,2,0,L|392:253,4,13.9999995727539,2|2|2|2|10,0:3|0:3|0:3|0:3|3:0,0:0:0:0:
254,186,89468,1,0,0:0:0:0:
394,282,89674,2,0,P|398:245|407:209,1,74.6666643880209,8|2,0:0|0:1,0:0:0:0:
471,165,90085,5,2,0:1:0:0:
482,156,90187,2,0,P|487:136|491:116,2,41.9999987182618,2|0|2,0:3|0:0|0:3,0:0:0:0:
312,267,90701,5,2,0:3:0:0:
302,264,90804,1,2,0:3:0:0:
290,273,90906,1,2,0:1:0:0:
278,267,91009,1,2,0:3:0:0:
262,278,91112,1,2,0:3:0:0:
240,272,91215,1,2,0:3:0:0:
223,293,91317,1,2,0:1:0:0:
199,274,91420,1,2,0:3:0:0:
161,303,91523,1,2,0:1:0:0:
126,287,91626,1,2,0:3:0:0:
83,319,91728,2,0,L|69:317,8,13.9999995727539,2|2|2|2|2|2|2|2|4,0:1|0:3|0:3|0:3|0:3|0:3|0:3|0:3|3:2,0:0:0:0:
32,32,98715,6,0,L|51:161,1,107.999996704102,4|2,3:2|0:3,0:0:0:0:
58,134,99126,2,0,L|77:263,1,107.999996704102,2|0,3:1|0:0,0:0:0:0:
84,236,99537,2,0,L|103:365,1,107.999996704102,2|2,3:2|0:3,0:0:0:0:
110,336,99948,1,2,3:1:0:0:
480,32,100358,6,0,L|461:161,1,107.999996704102,4|0,3:2|0:0,0:0:0:0:
454,134,100769,2,0,L|435:263,1,107.999996704102,2|0,3:2|0:0,0:0:0:0:
428,236,101180,2,0,L|409:365,1,107.999996704102,2|0,3:2|0:0,0:0:0:0:
402,336,101591,1,2,3:2:0:0:
256,192,102002,6,0,L|256:32,1,143.999995605469,4|2,3:2|3:2,0:0:0:0:
256,48,102824,1,2,3:1:0:0:
301,115,103030,1,2,3:0:0:0:
227,185,103235,1,2,3:1:0:0:
320,272,103441,1,2,3:0:0:0:
207,380,103646,1,4,3:1:0:0:
256,48,103954,1,0,3:0:0:0:
39,173,104263,5,2,0:3:0:0:
48,167,104365,1,2,0:3:0:0:
75,161,104468,5,2,0:3:0:0:
87,169,104571,1,2,0:3:0:0:
135,168,104674,5,2,0:3:0:0:
143,161,104776,1,2,0:3:0:0:
187,166,104879,5,6,3:2:0:0:
192,175,104982,1,2,0:3:0:0:
231,161,105085,5,2,0:3:0:0:
233,152,105187,1,2,0:3:0:0:
251,162,105290,6,0,P|144:175|37:192,1,215.999993408203,4|0,3:1|3:0,0:0:0:0:
222,369,106317,6,0,P|244:342|237:308,1,71.9999978027344,2|0,0:0|0:0,0:0:0:0:
18,330,106523,2,0,P|121:314|270:296,1,215.999993408203,2|0,0:0|0:0,0:0:0:0:
388,201,106934,6,0,P|326:194|279:235,1,128,4|2,3:1|0:3,0:0:0:0:
319,302,107242,1,2,0:3:0:0:
392,278,107345,2,0,P|406:200|446:69,1,192,8|2,0:0|0:3,0:0:0:0:
496,4,107756,6,0,P|491:72|433:100,1,128,2|2,3:2|0:3,0:0:0:0:
300,33,108064,1,2,0:1:0:0:
363,78,108167,2,0,P|332:69|301:63,1,64,8|0,0:0|0:0,0:0:0:0:
223,44,108372,2,0,P|192:35|161:29,1,64,2|2,0:3|0:3,0:0:0:0:
84,23,108578,6,0,P|58:41|45:70,1,64,4|0,3:2|0:0,0:0:0:0:
233,189,108783,2,0,P|243:159|237:128,1,64,2|2,0:1|0:3,0:0:0:0:
14,142,108989,2,0,P|23:172|47:193,1,64,8|0,0:0|0:0,0:0:0:0:
218,51,109194,2,0,P|193:32|161:29,1,64,2|2,0:1|0:3,0:0:0:0:
107,245,109400,2,0,P|139:245|166:230,1,64,4|0,3:2|0:0,0:0:0:0:
233,189,109605,6,0,P|272:193|312:200,1,80,14|0,3:0|0:0,0:0:0:0:
318,192,109811,2,0,P|278:184|238:180,1,80,14|0,3:0|0:0,0:0:0:0:
165,154,110016,1,2,0:3:0:0:
159,359,110221,6,0,B|221:328|170:308|244:270,1,128,4|2,0:1|0:3,0:0:0:0:
322,275,110530,1,2,0:3:0:0:
390,308,110632,2,0,P|376:230|336:99,1,192,8|0,0:0|0:0,0:0:0:0:
291,0,111043,2,0,P|255:50|265:112,1,128,0|2,3:0|0:3,0:0:0:0:
411,68,111352,1,2,0:3:0:0:
348,111,111454,2,0,P|357:80|363:49,1,64,8|0,0:0|0:0,0:0:0:0:
493,46,111660,2,0,P|486:77|477:108,1,64,2|2,0:3|0:3,0:0:0:0:
266,318,111865,6,0,P|240:300|227:271,1,64,4|0,3:2|0:0,0:0:0:0:
415,152,112071,2,0,P|425:182|419:213,1,64,2|0,0:3|0:0,0:0:0:0:
196,199,112276,2,0,P|205:169|229:148,1,64,8|0,0:0|0:0,0:0:0:0:
400,290,112482,2,0,P|375:309|343:312,1,64,2|0,0:1|3:0,0:0:0:0:
289,96,112687,2,0,P|321:96|348:111,1,64,0|0,3:0|0:0,0:0:0:0:
419,213,112893,6,0,P|458:217|498:224,1,80,14|0,3:0|0:0,0:0:0:0:
504,216,113098,2,0,P|464:208|424:204,1,80,14|0,3:0|0:0,0:0:0:0:
346,190,113304,1,2,0:3:0:0:
130,384,113509,6,0,L|152:254,1,128,4|2,3:1|0:3,0:0:0:0:
175,133,113817,1,2,0:3:0:0:
271,213,113920,6,0,L|147:259,1,128,8|2,0:0|0:0,0:0:0:0:
32,301,114228,1,0,0:0:0:0:
54,175,114331,6,0,L|155:261,1,128,6|2,3:2|0:3,0:0:0:0:
249,340,114639,1,2,0:3:0:0:
130,384,114742,6,0,P|122:353|109:324,1,64,8|0,0:0|0:0,0:0:0:0:
152,258,114948,2,0,P|144:227|131:197,1,64,2|0,0:0|0:0,0:0:0:0:
54,175,115153,6,0,B|121:150|72:126|150:95,1,128,4|2,3:2|0:3,0:0:0:0:
216,57,115461,1,2,0:3:0:0:
162,0,115564,2,0,P|225:10|286:28,1,128,8|2,0:0|0:3,0:0:0:0:
359,0,115872,1,2,0:3:0:0:
368,8,115975,2,0,P|385:69|396:132,1,128,0|2,3:0|0:1,0:0:0:0:
497,259,116386,6,0,P|510:230|506:198,1,64,8|0,0:0|0:0,0:0:0:0:
390,144,116591,2,0,P|359:153|328:162,1,64,2|2,0:3|0:3,0:0:0:0:
399,340,116797,6,0,P|409:277|427:216,1,128,4|2,3:2|0:3,0:0:0:0:
250,170,117105,1,2,0:3:0:0:
324,169,117208,2,0,P|292:175|261:184,1,64,8|0,0:0|0:0,0:0:0:0:
193,300,117413,2,0,P|201:269|208:238,1,64,2|0,0:1|3:0,0:0:0:0:
4,72,117619,6,0,P|23:97|54:119,1,64,0|0,3:0|0:0,0:0:0:0:
110,187,117824,2,0,P|142:183|176:167,1,64,2|0,0:1|0:0,0:0:0:0:
300,62,118030,6,0,P|271:73|242:98,1,64,8|0,0:0|0:0,0:0:0:0:
170,107,118235,2,0,P|166:138|173:175,1,64,2|0,0:1|0:0,0:0:0:0:
249,358,118441,6,0,P|259:296|190:233,1,143.999995605469,4|2,3:1|0:3,0:0:0:0:
106,315,118749,2,0,P|139:325|168:306,1,71.9999978027344,4|0,3:2|0:0,0:0:0:0:
164,96,119057,5,2,0:3:0:0:
178,42,119160,1,2,0:3:0:0:
142,7,119263,1,2,0:3:0:0:
121,13,119365,1,2,0:3:0:0:
100,19,119468,2,0,L|92:63,1,44.0000013427735,6|2,0:3|0:3,0:0:0:0:
23,5,119674,2,0,L|15:49,1,44.0000013427735,6|2,0:3|0:3,0:0:0:0:
76,138,119879,5,2,0:3:0:0:
27,151,119982,1,2,0:3:0:0:
10,125,120085,2,0,P|128:105|247:93,1,240,4|0,3:1|0:0,0:0:0:0:
327,80,120495,2,0,L|320:127,1,47.9999985351563,8|0,0:0|0:0,0:0:0:0:
322,70,120701,2,0,L|328:23,1,47.9999985351563,2|0,0:3|0:0,0:0:0:0:
239,100,120906,6,0,P|218:218|206:337,1,240,0|0,3:0|0:0,0:0:0:0:
126,326,121317,2,0,L|133:279,1,47.9999985351563,8|0,0:0|0:0,0:0:0:0:
131,336,121523,2,0,L|125:383,1,47.9999985351563,10|2,0:3|0:1,0:0:0:0:
214,346,121728,6,0,P|332:325|451:313,1,240,4|0,0:0|0:0,0:0:0:0:
465,237,122139,2,0,L|512:230,1,47.9999985351563,8|0,0:0|0:0,0:0:0:0:
455,232,122345,2,0,L|408:238,1,47.9999985351563,2|0,0:3|0:0,0:0:0:0:
331,245,122550,5,0,3:0:0:0:
459,321,122756,5,8,3:1:0:0:
223,348,122961,5,8,3:1:0:0:
233,113,123167,5,10,0:1:0:0:
331,245,123372,6,0,P|343:125|364:7,1,240,4|0,3:2|0:0,0:0:0:0:
434,47,123783,2,0,L|441:0,1,47.9999985351563,8|0,0:0|0:0,0:0:0:0:
439,57,123989,2,0,L|433:104,1,47.9999985351563,2|0,0:3|0:0,0:0:0:0:
358,15,124194,6,0,P|338:4|314:0,1,47.9999985351563,0|0,3:0|0:0,0:0:0:0:
234,7,124400,2,0,P|212:14|196:32,1,47.9999985351563,2|2,0:3|0:3,0:0:0:0:
154,97,124605,2,0,P|170:148|176:201,1,95.9999970703126,8|8,0:3|0:3,0:0:0:0:
213,258,124913,1,0,0:0:0:0:
222,272,125016,6,0,P|261:275|301:283,1,80,6|2,3:2|3:2,0:0:0:0:
179,339,125324,1,2,0:3:0:0:
188,350,125427,6,0,P|247:355|306:365,1,120.000004577637,10|2,3:2|3:2,0:0:0:0:
498,371,125735,1,0,3:0:0:0:
491,384,125838,6,0,P|415:375|376:308,1,160,6|6,3:2|3:0,0:0:0:0:
421,118,126146,1,0,0:0:0:0:
426,132,126249,6,0,P|486:206|461:299,1,200,6|2,3:0|0:0,0:0:0:0:
360,234,126557,1,2,0:1:0:0:
301,283,126660,6,0,P|200:264|99:253,1,204.000003890991,4|0,3:1|0:0,0:0:0:0:
47,314,127071,2,0,P|20:276|23:230,1,95.9999970703126,8|2,0:0|0:3,0:0:0:0:
81,46,127482,6,0,P|99:146|110:247,1,204.000003890991,4|0,3:2|0:0,0:0:0:0:
187,259,127893,2,0,P|167:301|126:321,1,95.9999970703126,8|2,0:0|0:3,0:0:0:0:
82,168,128304,6,0,P|129:173|177:181,1,95.9999970703126,4|2,3:2|0:0,0:0:0:0:
239,135,128612,1,0,0:0:0:0:
245,122,128715,2,0,P|239:74|231:26,1,95.9999970703126,8|4,0:0|3:1,0:0:0:0:
314,221,129126,5,2,0:0:0:0:
324,229,129228,1,2,0:0:0:0:
339,225,129331,1,10,0:1:0:0:
354,253,129434,1,2,0:0:0:0:
389,240,129537,1,10,3:1:0:0:
420,285,129639,1,2,0:0:0:0:
470,272,129742,1,4,3:1:0:0:
456,86,130153,6,0,P|404:83|356:103,1,103.999995239258,2|0,3:1|0:0,0:0:0:0:
153,203,130358,6,0,P|193:234|243:246,1,103.999995239258,2|0,3:1|0:0,0:0:0:0:
262,34,130564,6,0,P|244:82|248:133,1,103.999995239258,2|0,3:1|0:0,0:0:0:0:
283,343,130769,6,0,P|325:314|352:270,1,103.999995239258,6|0,3:1|0:0,0:0:0:0:
470,272,131078,6,0,P|456:222|422:182,1,103.999995239258,6|0,3:2|0:0,0:0:0:0:
484,75,131386,5,2,0:3:0:0:
502,80,131489,1,2,0:3:0:0:
462,96,131591,5,2,0:3:0:0:
467,115,131694,1,2,0:3:0:0:
433,88,131797,5,2,0:3:0:0:
419,102,131900,1,2,0:3:0:0:
426,59,132002,5,2,0:3:0:0:
407,54,132105,1,2,0:3:0:0:
448,38,132208,5,2,0:3:0:0:
443,19,132311,1,2,0:3:0:0:
477,47,132413,6,0,P|454:138|361:152,1,200,4|2,3:1|0:3,0:0:0:0:
298,195,132721,2,0,P|266:158|217:152,1,100,4|0,3:2|0:0,0:0:0:0:
32,192,133030,5,14,3:1:0:0:
256,192,133132,12,0,136523,0:0:0:0:
