osu file format v14

[General]
AudioFilename: audio.mp3
AudioLeadIn: 0
PreviewTime: 77075
Countdown: 0
SampleSet: Soft
StackLeniency: 0.7
Mode: 0
LetterboxInBreaks: 0
WidescreenStoryboard: 1

[Editor]
Bookmarks: 863,1502,11179,11824,20856,22147,32469,36985,47308,78275,88597,96339,98920,101501
DistanceSpacing: 0.8
BeatDivisor: 4
GridSize: 4
TimelineZoom: 1

[Metadata]
Title:Ivy
TitleUnicode:Ivy
Artist:Kano
ArtistUnicode:鹿乃
Creator:GoldenMine
Version:Normal
Source:ダンジョンに出会いを求めるのは間違っているだろうか~メモリア・フレーゼ~
Tags:japanese pop jpop j-pop アルストロメリア Alstroemeria カワイヒデヒロ Kawai hidehiro 2nd アルバム album hirao taeyang
BeatmapID:2121703
BeatmapSetID:1013702

[Difficulty]
HPDrainRate:4
CircleSize:3.5
OverallDifficulty:4
ApproachRate:5.5
SliderMultiplier:1.10000000596046
SliderTickRate:1

[Events]
//Background and Video events
0,0,"bg1.jpg",0,0
Video,-300,"ivy 720p_muted.mp4"
//Break Periods
//Storyboard Layer 0 (Background)
//Storyboard Layer 1 (Fail)
//Storyboard Layer 2 (Pass)
//Storyboard Layer 3 (Foreground)
//Storyboard Layer 4 (Overlay)
//Storyboard Sound Samples

[TimingPoints]
383,322.58064516129,4,2,1,25,1,0
1028,322.58064516129,4,2,1,50,1,0
10707,-100,4,2,1,30,0,0
11352,-100,4,2,1,60,0,0
21675,-100,4,2,1,50,0,0
31995,322.58064516129,3,2,1,60,1,0
33931,322.58064516129,4,2,1,60,1,0
36511,322.58064516129,4,2,1,40,1,0
46833,-100,4,2,1,50,0,0
56994,-100,4,2,2,60,0,0
62317,-100,4,2,1,60,0,0
77801,-100,4,2,1,80,0,1
87478,-100,4,2,1,70,0,0
88123,-100,4,2,1,80,0,1
98446,-100,4,2,1,70,0,0
101027,-100,4,2,1,40,0,0

[Colours]
Combo1 : 255,218,104
Combo2 : 209,132,255
Combo3 : 255,166,210
Combo4 : 245,78,103

[HitObjects]
58,126,1028,5,2,3:2:0:0:
118,62,1350,1,0,3:0:0:0:
188,105,1673,2,0,L|318:100,1,110.000000596046,0|0,3:0|3:0,0:0:0:0:
370,49,2318,2,0,P|360:13|343:-6,2,55.000000298023,0|0|0,3:0|0:0|3:0,0:0:0:0:
445,93,2963,2,0,P|457:58|453:32,2,55.000000298023,0|0|0,3:0|0:0|3:0,0:0:0:0:
400,171,3608,5,2,3:2:0:0:
461,234,3931,1,0,3:0:0:0:
407,301,4253,2,0,L|287:304,1,110.000000596046,0|0,3:0|3:0,0:0:0:0:
216,331,4898,2,0,P|214:367|226:390,2,55.000000298023,0|0|0,3:0|0:0|3:0,0:0:0:0:
143,280,5544,2,0,P|126:312|128:338,2,55.000000298023,0|0|0,3:0|0:0|3:0,0:0:0:0:
146,191,6189,5,2,3:2:0:0:
88,124,6511,1,0,3:0:0:0:
143,58,6834,2,0,L|265:68,1,110.000000596046,0|0,3:0|3:0,0:0:0:0:
317,126,7479,2,0,P|303:149|280:165,2,55.000000298023,0|0|0,3:0|0:0|3:0,0:0:0:0:
374,59,8124,2,0,P|368:32|352:10,2,55.000000298023,0|0|0,3:0|0:0|3:0,0:0:0:0:
405,141,8769,6,0,P|398:194|403:254,1,110.000000596046,2|0,3:2|3:0,0:0:0:0:
383,336,9415,2,0,P|409:337|455:361,2,55.000000298023,8|8|4,0:3|0:3|0:3,0:0:0:0:
346,312,9898,1,4,1:2:0:0:
346,312,10705,5,2,0:0:0:0:
340,224,11027,1,2,0:0:0:0:
287,153,11350,6,0,L|170:146,1,110.000000596046,6|0,3:2|0:0,0:0:0:0:
140,121,11834,2,0,P|159:64|134:7,2,110.000000596046,2|2|2,0:0|0:0|0:0,0:0:0:0:
100,140,12640,2,0,P|33:214|84:311,1,220.000001192092,6|2,3:2|0:0,0:0:0:0:
166,332,13608,1,2,0:0:0:0:
231,274,13931,6,0,P|288:264|352:285,1,110.000000596046,6|0,3:2|0:0,0:0:0:0:
381,283,14415,2,0,P|429:312|487:300,2,110.000000596046,2|2|2,0:0|0:0|0:0,0:0:0:0:
405,246,15221,2,0,P|427:183|416:125,1,110.000000596046,6|0,3:2|0:0,0:0:0:0:
385,60,15866,2,0,L|454:53,2,55.000000298023,2|2|2,0:0|3:2|3:2,0:0:0:0:
345,78,16349,1,2,3:2:0:0:
345,78,16511,6,0,P|290:91|234:55,1,110.000000596046,6|0,3:2|0:0,0:0:0:0:
202,52,16995,2,0,P|147:39|91:75,1,110.000000596046,2|8,0:0|3:0,0:0:0:0:
74,97,17479,1,2,3:2:0:0:
19,165,17802,2,0,P|68:185|131:164,1,110.000000596046,6|0,3:2|0:0,0:0:0:0:
165,168,18286,2,0,P|217:154|267:174,1,110.000000596046,2|0,0:0|0:0,0:0:0:0:
304,197,18769,1,2,0:0:0:0:
373,142,19092,6,0,P|393:191|372:254,1,110.000000596046,6|0,3:2|0:0,0:0:0:0:
358,283,19576,2,0,L|229:291,1,110.000000596046,2|0,3:2|0:0,0:0:0:0:
205,280,20060,1,4,0:3:0:0:
140,220,20382,2,0,B|59:183|58:89|58:89|131:24|211:66,1,330.000001788138,0|0,1:0|1:0,0:0:0:0:
287,22,21673,6,0,P|299:74|276:123,1,110.000000596046,6|0,0:0|3:0,0:0:0:0:
216,185,22318,2,0,P|264:207|317:196,1,110.000000596046,2|0,0:0|3:0,0:0:0:0:
350,164,22802,2,0,P|402:153|451:176,1,110.000000596046,2|0,0:0|0:0,0:0:0:0:
487,202,23285,2,0,L|498:148,2,55.000000298023,0|0|2,3:0|0:0|0:0,0:0:0:0:
447,281,23931,1,0,3:0:0:0:
366,316,24253,6,0,P|315:334|263:318,1,110.000000596046,2|0,0:0|3:0,0:0:0:0:
205,253,24898,2,0,P|227:204|216:151,1,110.000000596046,2|0,0:0|3:0,0:0:0:0:
187,117,25382,2,0,P|133:130|84:108,1,110.000000596046,2|0,0:0|0:0,0:0:0:0:
61,71,25866,2,0,L|4:82,2,55.000000298023,0|0|2,3:0|0:0|0:0,0:0:0:0:
143,46,26511,1,0,3:0:0:0:
230,39,26834,6,0,P|282:25|334:41,1,110.000000596046,2|0,0:0|3:0,0:0:0:0:
281,112,27479,2,0,P|303:161|291:214,1,110.000000596046,2|0,0:0|3:0,0:0:0:0:
251,234,27963,2,0,P|199:217|146:230,1,110.000000596046,2|0,0:0|0:0,0:0:0:0:
110,254,28447,2,0,P|101:222|77:193,2,55.000000298023,0|0|2,3:0|0:0|0:0,0:0:0:0:
71,333,29092,1,0,3:0:0:0:
159,337,29415,6,0,L|281:344,1,110.000000596046,2|0,0:0|3:0,0:0:0:0:
313,267,30060,2,0,P|361:248|429:282,1,110.000000596046,2|0,0:0|3:0,0:0:0:0:
447,295,30544,2,0,L|457:127,1,165.000000894069,2|0,0:0|3:0,0:0:0:0:
373,101,31350,1,8,0:3:0:0:
332,82,31511,2,0,P|336:48|329:7,2,55.000000298023,8|4|4,0:3|0:3|0:3,0:0:0:0:
294,105,31995,6,0,L|180:98,1,110.000000596046,8|8,0:3|0:3,0:0:0:0:
153,129,32478,1,4,0:0:0:0:
87,248,32962,2,0,P|165:261|202:243,1,110.000000596046,4|4,0:0|0:3,0:0:0:0:
233,236,33446,1,4,0:0:0:0:
323,332,33930,5,4,3:2:0:0:
397,286,34253,1,0,3:0:0:0:
436,206,34576,1,0,3:0:0:0:
432,119,34898,1,0,3:0:0:0:
373,52,35221,6,0,P|293:50|252:27,1,110.000000596046,8|4,0:3|0:3,0:0:0:0:
225,24,35705,2,0,L|216:193,1,165.000000894069,4|0,3:2|1:0,0:0:0:0:
261,264,36511,5,4,3:0:0:0:
205,331,36833,1,2,3:2:0:0:
123,297,37156,2,0,P|146:240|118:188,1,110.000000596046,2|2,3:2|3:2,0:0:0:0:
91,174,37639,2,0,P|73:123|96:74,1,110.000000596046,2|2,0:2|0:0,0:0:0:0:
174,32,38285,2,0,L|299:27,1,110.000000596046,2|0,0:0|0:0,0:0:0:0:
324,45,38769,1,2,1:2:0:0:
381,111,39091,6,0,P|363:163|379:219,1,110.000000596046,2|2,3:2|0:0,0:0:0:0:
411,241,39575,1,2,0:0:0:0:
420,283,39736,2,0,L|295:296,1,110.000000596046,2|2,3:2|0:0,0:0:0:0:
226,317,40381,1,0,3:0:0:0:
226,317,40542,2,0,L|116:305,1,110.000000596046
80,279,41026,2,0,P|65:227|82:170,1,110.000000596046,2|2,3:2|1:2,0:0:0:0:
128,99,41672,6,0,P|186:118|254:99,1,110.000000596046,2|0,3:2|3:0,0:0:0:0:
274,94,42156,2,0,P|334:84|403:104,1,110.000000596046,2|0,0:0|0:0,0:0:0:0:
416,120,42640,1,2,3:2:0:0:
383,201,42962,1,0,3:0:0:0:
383,201,43123,2,0,P|329:212|276:199,1,110.000000596046,2|0,0:0|0:0,0:0:0:0:
237,219,43607,2,0,P|179:200|111:219,1,110.000000596046,2|2,3:2|1:2,0:0:0:0:
64,151,44252,6,0,P|47:237|61:261,1,110.000000596046,2|0,3:2|3:0,0:0:0:0:
114,317,44898,2,0,L|228:329,1,110.000000596046,2|0,3:2|0:0,0:0:0:0:
310,315,45543,2,0,P|359:293|412:301,1,110.000000596046,2|2,3:2|3:2,0:0:0:0:
451,324,46027,2,0,L|442:208,1,110.000000596046,2|2,0:0|0:0,0:0:0:0:
425,175,46509,1,8,0:3:0:0:
371,104,46833,5,4,3:2:0:0:
333,81,46994,2,0,P|340:51|335:24,2,55.000000298023,2|8|2,0:0|3:2|3:2,0:0:0:0:
296,105,47478,2,0,P|274:159|294:218,1,110.000000596046,2|8,0:0|3:2,0:0:0:0:
291,251,47962,2,0,P|314:301|303:357,1,110.000000596046,2|2,0:0|0:0,0:0:0:0:
226,313,48607,2,0,L|116:322,1,110.000000596046,2|2,3:2|3:2,0:0:0:0:
72,319,49091,1,8,3:2:0:0:
83,231,49414,6,0,P|64:178|79:124,1,110.000000596046,2|8,3:2|3:2,0:0:0:0:
148,75,50059,2,0,L|140:8,2,55.000000298023,2|0|8,0:0|3:0|3:2,0:0:0:0:
235,70,50704,2,0,L|227:3,2,55.000000298023,0|0|8,3:0|0:0|3:2,0:0:0:0:
263,102,51187,1,0,3:0:0:0:
263,102,51349,2,0,P|316:115|388:98,1,110.000000596046,0|8,0:0|3:2,0:0:0:0:
450,141,51994,6,0,L|457:255,1,110.000000596046,2|8,3:2|3:2,0:0:0:0:
430,286,52478,2,0,P|381:262|326:265,1,110.000000596046,2|2,3:2|3:2,0:0:0:0:
291,238,52962,1,8,3:2:0:0:
218,287,53285,2,0,P|208:208|240:169,1,110.000000596046,2|8,3:2|3:2,0:0:0:0:
247,149,53769,2,0,L|121:140,1,110.000000596046,0|0,3:0|3:0,0:0:0:0:
101,165,54252,1,8,3:2:0:0:
38,103,54575,6,0,P|34:223|73:252,1,165.000000894069,2|2,3:2|3:2,0:0:0:0:
93,273,55220,2,0,P|152:261|212:285,1,110.000000596046,2|8,0:0|3:2,0:0:0:0:
255,342,55865,2,0,B|243:273|243:273|262:200|262:200|249:126,1,220.000001192092,4|8,0:0|3:2,0:0:0:0:
242,82,56672,1,8,3:2:0:0:
316,35,56994,6,0,P|408:57|419:75,1,110.000000596046,6|0,1:2|0:0,0:0:0:0:
433,103,57477,1,2,1:2:0:0:
452,188,57801,2,0,L|532:182,2,55.000000298023,2|0|2,1:2|0:0|1:2,0:0:0:0:
378,237,58446,1,0,1:0:0:0:
294,210,58769,1,0,1:0:0:0:
215,250,59091,2,0,L|160:255,1,55.000000298023,8|8,1:2|1:2,0:0:0:0:
78,223,59575,6,0,L|74:109,1,110.000000596046,6|0,1:2|0:0,0:0:0:0:
110,87,60059,1,2,1:2:0:0:
193,60,60381,2,0,P|187:26|187:-20,2,55.000000298023,2|0|2,1:2|0:0|1:2,0:0:0:0:
248,128,61027,1,0,1:0:0:0:
289,205,61349,1,4,1:2:0:0:
371,242,61672,1,8,0:3:0:0:
419,315,61994,1,4,0:3:0:0:
331,325,62317,6,0,P|282:309|225:329,1,110.000000596046,6|8,3:2|3:2,0:0:0:0:
185,316,62801,2,0,P|87:312|51:294,1,110.000000596046,2|2,3:2|3:2,0:0:0:0:
33,232,63446,2,0,L|25:114,1,110.000000596046,2|0,0:0|3:0,0:0:0:0:
61,97,63930,2,0,P|114:110|168:101,1,110.000000596046,8|2,3:2|0:0,0:0:0:0:
203,128,64414,1,2,3:2:0:0:
282,166,64735,1,2,0:0:0:0:
282,166,64898,6,0,P|311:229|311:284,1,110.000000596046,2|8,3:2|3:2,0:0:0:0:
242,322,65543,2,0,P|283:351|344:354,1,110.000000596046,0|8,0:0|3:2,0:0:0:0:
381,337,66027,1,2,0:0:0:0:
407,302,66188,2,0,L|417:173,1,110.000000596046,8|2,0:0|0:0,0:0:0:0:
407,104,66833,1,12,3:2:0:0:
350,36,67156,1,4,0:3:0:0:
262,24,67478,5,4,3:2:0:0:
182,61,67801,2,0,P|130:79|77:71,1,110.000000596046,8|2,3:2|3:2,0:0:0:0:
8,127,68446,1,8,3:2:0:0:
28,165,68607,2,0,L|41:308,1,110.000000596046,2|2,0:0|0:0,0:0:0:0:
23,316,69091,1,8,3:2:0:0:
106,344,69413,2,0,P|156:323|210:329,1,110.000000596046,2|8,3:2|3:2,0:0:0:0:
298,321,70059,5,6,3:2:0:0:
302,144,70704,1,6,3:2:0:0:
152,236,71349,2,0,P|99:225|63:184,1,110.000000596046,6|2,3:2|3:2,0:0:0:0:
51,98,71993,2,0,L|126:94,1,73.3333337306973,8|8,0:3|0:3,0:0:0:0:
179,44,72477,1,2,0:0:0:0:
179,44,72639,6,0,P|227:76|298:65,1,110.000000596046,6|0,3:2|1:0,0:0:0:0:
312,47,73123,2,0,P|396:22|465:80,1,165.000000894069,0|0,1:0|1:0,0:0:0:0:
379,106,73930,1,4,1:2:0:0:
304,149,74252,1,0,1:0:0:0:
335,232,74575,1,0,1:0:0:0:
254,266,74898,1,2,1:2:0:0:
177,222,75220,6,0,L|116:183,1,55.000000298023,4|8,3:2|0:3,0:0:0:0:
51,230,75704,2,0,L|47:301,1,55.000000298023,4|8,3:2|0:3,0:0:0:0:
122,331,76188,2,0,L|185:298,1,55.000000298023,4|4,3:2|3:2,0:0:0:0:
368,208,77156,5,2,3:2:0:0:
376,295,77478,1,8,0:3:0:0:
311,360,77801,6,0,P|234:356|184:320,1,110.000000596046,6|8,3:2|3:2,0:0:0:0:
190,301,78285,2,0,L|68:298,1,110.000000596046,2|2,3:2|0:0,0:0:0:0:
51,266,78769,1,8,0:0:0:0:
16,186,79091,2,0,L|11:77,1,110.000000596046,2|8,3:2|3:2,0:0:0:0:
80,22,79736,2,0,P|133:29|174:65,1,110.000000596046,2|8,0:0|3:2,0:0:0:0:
254,105,80381,6,0,P|364:82|376:71,1,110.000000596046,2|8,3:2|3:2,0:0:0:0:
401,99,80865,2,0,L|412:216,1,110.000000596046,2|2,3:2|3:2,0:0:0:0:
399,251,81349,1,8,0:0:0:0:
346,321,81672,2,0,L|233:315,1,110.000000596046,2|8,3:2|3:2,0:0:0:0:
148,321,82317,2,0,P|158:359|194:395,2,55.000000298023,2|2|8,3:2|3:2|3:2,0:0:0:0:
123,284,82800,1,4,0:3:0:0:
144,245,82962,6,0,P|158:193|154:139,1,110.000000596046,2|8,3:2|3:2,0:0:0:0:
192,116,83446,2,0,L|314:134,1,110.000000596046,2|0,3:2|3:2,0:0:0:0:
321,173,83930,1,8,3:2:0:0:
332,260,84252,2,0,P|389:277|457:258,1,110.000000596046,2|8,3:2|3:2,0:0:0:0:
463,232,84736,2,0,L|449:120,1,110.000000596046,2|0,3:2|3:0,0:0:0:0:
430,82,85219,1,8,3:2:0:0:
351,42,85543,6,0,P|297:35|215:64,1,110.000000596046,6|4,3:2|0:3,0:0:0:0:
204,67,86027,1,4,0:3:0:0:
169,94,86188,2,0,L|158:41,2,55.000000298023,6|0|8,3:2|0:0|0:3,0:0:0:0:
146,179,86833,2,0,P|146:244|124:294,1,110.000000596046,6|8,3:2|0:3,0:0:0:0:
195,345,87478,1,8,0:3:0:0:
281,367,87800,1,4,0:3:0:0:
361,330,88123,6,0,P|389:283|397:229,1,110.000000596046,6|8,3:2|3:2,0:0:0:0:
375,191,88607,2,0,P|321:191|268:175,1,110.000000596046,2|2,3:2|3:2,0:0:0:0:
238,143,89090,1,8,0:0:0:0:
151,154,89414,2,0,P|84:132|39:136,1,110.000000596046,2|8,3:2|3:2,0:0:0:0:
50,47,90059,2,0,P|104:48|155:28,1,110.000000596046,2|8,0:0|3:2,0:0:0:0:
243,43,90704,6,0,L|352:36,1,110.000000596046,8|2,1:2|3:2,0:0:0:0:
389,62,91188,2,0,P|402:116|389:169,1,110.000000596046,8|8,1:2|1:2,0:0:0:0:
308,203,91833,1,2,3:2:0:0:
308,203,91994,2,0,P|368:254|445:233,2,165.000000894069,12|2|2,3:2|0:0|3:2,0:0:0:0:
251,134,93285,5,6,3:2:0:0:
166,115,93607,1,8,3:2:0:0:
87,154,93930,1,0,0:0:0:0:
55,236,94252,1,8,3:2:0:0:
95,314,94575,2,0,P|66:324|38:324,2,55.000000298023,0|0|8,3:0|3:0|3:2,0:0:0:0:
114,274,95059,2,0,P|185:258|230:285,1,110.000000596046,0|2,3:0|3:2,0:0:0:0:
251,300,95543,1,8,3:2:0:0:
336,280,95865,6,0,P|359:229|352:163,1,110.000000596046,6|2,3:2|3:2,0:0:0:0:
337,136,96349,2,0,L|222:122,1,110.000000596046,2|0,3:2|3:0,0:0:0:0:
196,92,96833,2,0,P|144:105|86:91,1,110.000000596046,8|8,3:2|3:2,0:0:0:0:
54,119,97316,1,8,3:2:0:0:
22,200,97639,1,2,0:0:0:0:
46,236,97800,2,0,L|166:247,1,110.000000596046,2|4,3:2|0:3,0:0:0:0:
188,275,98284,1,4,0:3:0:0:
211,312,98445,1,2,3:2:0:0:
256,192,98526,12,2,101026,0:0:0:0:
