osu file format v14

[General]
AudioFilename: audio.mp3
AudioLeadIn: 0
PreviewTime: 86229
Countdown: 0
SampleSet: Normal
StackLeniency: 0.7
Mode: 0
LetterboxInBreaks: 0
WidescreenStoryboard: 1

[Editor]
Bookmarks: 1229,7629,26829,43895,52429,69495,78029,86562,110029,127095,135629,144162,167629,184695,215629
DistanceSpacing: 1.4
BeatDivisor: 4
GridSize: 16
TimelineZoom: 2

[Metadata]
Title:Houkago Stride
TitleUnicode:放課後ストライド
Artist:Kano
ArtistUnicode:鹿乃
Creator:Nevo
Version:Kowari's Hard
Source:ミカグラ学園組曲
Tags:nelliel kowari astonic lugu hikan after school stride last note cover japanese anime novelty pop rock utaite note. mikagura gakuen kumikyoku suite
BeatmapID:2446927
BeatmapSetID:1118779

[Difficulty]
HPDrainRate:4
CircleSize:3.5
OverallDifficulty:7
ApproachRate:8
SliderMultiplier:1.3
SliderTickRate:1

[Events]
//Background and Video events
0,0,"a2c1780b450ab7a74d8ce1eab8a166e67bf9663e_s2_n2.jpg",0,0
Video,0,"phosmapissupercute.mp4"
//Break Periods
//Storyboard Layer 0 (Background)
//Storyboard Layer 1 (Fail)
//Storyboard Layer 2 (Pass)
//Storyboard Layer 3 (Foreground)
//Storyboard Layer 4 (Overlay)
//Storyboard Sound Samples

[TimingPoints]
1229,266.666666666667,4,2,22,80,1,0
7629,-125,4,2,22,80,0,0
9695,-125,4,2,22,80,0,0
9762,-100,4,1,22,80,0,0
9962,-100,4,1,22,5,0,0
10029,-100,4,1,22,80,0,0
12095,-100,4,1,22,5,0,0
12162,-100,4,1,22,80,0,0
24895,-100,4,1,22,5,0,0
24962,-100,4,1,22,80,0,0
26829,-111.111111111111,4,1,22,70,0,0
35562,-111.111111111111,4,1,22,5,0,0
35629,-111.111111111111,4,1,22,70,0,0
43895,-100,4,1,22,80,0,0
44095,-100,4,1,22,5,0,0
44162,-100,4,1,22,80,0,0
46229,-100,4,1,22,5,0,0
46296,-100,4,1,22,80,0,0
52429,-111.111111111111,4,1,22,70,0,0
54229,-111.111111111111,4,1,22,70,0,0
54295,-111.111111111111,4,1,22,70,0,0
63029,-111.111111111111,4,1,22,70,0,0
63095,-111.111111111111,4,1,22,70,0,0
69495,-125,4,1,22,60,0,0
78029,-111.111111111111,4,1,22,70,0,0
82295,-105.263157894737,4,1,22,70,0,0
84429,-100,4,1,22,80,0,0
85562,-100,4,1,22,80,0,0
86495,-100,4,1,22,5,0,0
86562,-90.9090909090909,4,1,22,90,0,1
92895,-90.9090909090909,4,1,22,5,0,1
92962,-90.9090909090909,4,1,22,90,0,1
110029,-125,4,2,22,60,0,0
113962,-125,4,2,22,5,0,0
114029,-125,4,2,22,60,0,0
114295,-111.111111111111,4,1,22,70,0,0
118562,-125,4,1,22,70,0,0
120362,-125,4,1,22,70,0,0
120429,-125,4,1,22,70,0,0
122495,-125,4,1,22,5,0,0
122562,-125,4,1,22,70,0,0
122829,-111.111111111111,4,1,22,70,0,0
127095,-125,4,1,22,60,0,0
135629,-111.111111111111,4,1,22,70,0,0
142029,-100,4,1,22,80,0,0
144162,-90.9090909090909,4,1,22,90,0,1
153429,-90.9090909090909,4,1,22,90,0,1
153495,-90.9090909090909,4,1,22,90,0,1
166562,-90.9090909090909,4,1,22,70,0,1
166695,-100,4,1,22,70,0,0
167829,-100,4,1,22,5,0,0
167895,-100,4,1,22,70,0,0
169962,-100,4,1,22,5,0,0
170029,-100,4,1,22,70,0,0
172095,-100,4,1,22,5,0,0
172162,-100,4,1,22,70,0,0
174229,-100,4,1,22,5,0,0
174296,-100,4,1,22,70,0,0
178495,-100,4,1,22,5,0,0
178562,-100,4,1,22,70,0,0
180629,-100,4,1,22,5,0,0
180696,-100,4,1,22,70,0,0
182562,-100,4,1,22,80,0,0
184695,-90.9090909090909,4,1,22,80,0,1
184962,-90.9090909090909,4,1,22,90,0,1
211629,-90.9090909090909,4,1,22,90,0,1
216162,-76.9230769230769,4,1,22,80,0,0
216229,-76.9230769230769,4,1,22,60,0,0
222295,-76.9230769230769,4,1,22,30,0,0
223362,-76.9230769230769,4,1,22,30,0,0

[Colours]
Combo1 : 131,189,254
Combo2 : 255,128,128
Combo3 : 253,197,2
Combo4 : 124,80,67

[HitObjects]
256,192,1229,5,6,1:2:0:0:
286,120,3095,5,2,1:2:0:0:
222,260,3362,1,6,1:2:0:0:
222,260,5229,5,2,1:2:0:0:
158,120,5496,1,6,1:2:0:0:
151,122,7362,5,0,1:2:0:0:
87,262,7629,2,0,L|316:278,2,208,6|6|6,1:2|1:2|1:2,0:2:0:0:
14,71,9229,2,0,L|53:65,3,26,4|4|4|4,1:3|1:3|1:3|1:3,0:0:0:0:
75,61,9495,1,8,1:2:0:0:
246,0,9762,6,0,P|285:3|338:82,2,130,6|10|2,0:2|0:2|0:2,0:2:0:0:
177,60,10429,2,0,B|168:95|168:95|180:135,1,65,0|10,0:2|0:2,0:0:0:0:
283,177,10695,2,0,B|213:170|231:215|146:200,1,130,6|0,0:2|0:2,0:2:0:0:
92,138,11095,1,10,0:2:0:0:
14,305,11362,2,0,L|96:294,1,65,2|0,0:2|0:2,0:2:0:0:
136,367,11629,2,0,L|200:375,1,65,10|0,0:2|0:2,0:2:0:0:
293,304,11895,6,0,B|290:236|290:236|286:232|286:232|282:159,2,130,2|10|2,0:2|0:2|0:2,0:2:0:0:
368,252,12562,2,0,L|450:232,1,65,0|10,0:2|0:2,0:0:0:0:
512,305,12829,2,0,P|466:272|454:196,1,130,6|0,0:2|0:2,0:2:0:0:
501,125,13229,1,10,0:2:0:0:
355,16,13495,2,0,L|366:93,1,65,10|0,0:2|0:2,0:2:0:0:
288,131,13762,2,0,L|230:121,3,32.5,10|4|4|4,0:2|0:3|0:3|0:3,0:0:0:0:
225,90,14029,6,0,P|201:49|111:47,2,130,6|10|2,1:2|0:2|0:2,0:0:0:0:
160,153,14695,2,0,L|85:141,1,65,0|10,0:2|0:2,0:0:0:0:
21,53,14962,2,0,B|-13:109|-13:109|13:185,1,130,6|0,0:2|0:2,0:2:0:0:
49,251,15362,1,10,0:2:0:0:
221,192,15629,2,0,P|254:179|302:178,1,65,2|0,0:2|0:2,0:2:0:0:
284,267,15895,2,0,P|316:282|351:314,1,65,10|0,0:2|0:2,0:0:0:0:
223,363,16162,6,0,B|170:360|170:360|155:373|155:373|84:369,2,130,2|10|2,0:2|0:2|0:2,0:2:0:0:
306,326,16829,2,0,L|386:318,1,65,0|10,0:2|0:2,0:0:0:0:
471,384,17095,2,0,P|485:324|453:258,1,130,6|0,0:2|0:2,0:2:0:0:
377,221,17495,1,10,0:2:0:0:
446,52,17762,2,0,L|526:41,1,65,2|0,0:2|0:2,0:2:0:0:
367,108,18029,2,0,L|314:99,3,32.5,10|8|8|8,0:2|0:2|0:2|0:2,0:0:0:0:
296,79,18295,6,0,B|228:87|242:42|159:51,2,130,6|10|2,0:2|0:2|0:2,0:2:0:0:
297,170,18962,2,0,L|285:240,1,65,0|10,0:2|0:2,0:0:0:0:
317,344,19229,2,0,P|302:300|217:287,1,130,6|0,0:2|0:2,0:2:0:0:
156,339,19629,1,10,0:2:0:0:
15,224,19895,2,0,L|27:141,1,65,2|0,0:2|0:2,0:2:0:0:
101,83,20162,2,0,L|110:147,1,65,10|0,0:2|0:2,0:2:0:0:
189,193,20429,6,0,B|243:187|243:187|261:168|261:168|326:163,2,130,2|10|2,0:2|0:2|0:2,0:2:0:0:
188,102,21095,2,0,P|223:75|261:75,1,65,0|10,0:0|0:2,0:0:0:0:
329,17,21363,2,0,L|480:33,1,130,6|0,0:2|0:2,0:2:0:0:
495,113,21762,1,10,0:2:0:0:
377,252,22029,2,0,L|366:177,1,65,10|0,0:2|0:2,0:2:0:0:
461,318,22296,2,0,L|448:364,3,32.5,10|4|4|4,0:2|0:3|0:3|0:3,0:0:0:0:
413,374,22562,6,0,P|344:374|311:313,2,130,6|10|2,0:2|0:2|0:2,0:2:0:0:
394,284,23229,2,0,L|384:206,1,65,0|10,0:2|0:2,0:0:0:0:
267,257,23495,2,0,B|197:267|221:219|127:231,1,130,6|0,0:2|0:2,0:2:0:0:
62,272,23895,1,10,0:2:0:0:
7,98,24162,2,0,P|48:92|96:110,1,65,2|0,0:2|0:2,0:2:0:0:
113,15,24429,2,0,P|146:39|167:86,1,65,10|0,0:2|0:2,0:2:0:0:
194,142,24695,6,0,B|203:83|203:83|208:78|208:78|218:8,2,130,2|10|2,0:2|0:2|0:2,0:2:0:0:
135,212,25362,2,0,L|143:290,1,65,0|10,0:2|0:2,0:0:0:0:
71,374,25629,2,0,P|109:334|191:331,1,130,6|0,0:2|0:2,0:2:0:0:
260,371,26029,1,10,0:2:0:0:
409,267,26295,2,0,L|399:189,1,65,10|0,0:2|0:2,0:2:0:0:
463,122,26563,2,0,L|504:128,3,32.5,10|8|8|8,0:2|0:2|0:2|0:2,0:0:0:0:
422,100,26829,6,0,L|344:110,1,58.4999982147217,6|0,0:2|0:2,0:2:0:0:
296,61,27095,2,0,L|237:53,1,58.4999982147217,8|2,0:2|0:2,0:0:0:0:
163,18,27362,2,0,P|145:48|156:134,1,116.999996429443,2|8,0:2|0:2,0:2:0:0:
222,169,27762,2,0,P|233:225|210:278,1,116.999996429443,2|0,0:2|0:2,0:2:0:0:
150,334,28162,2,0,L|86:323,1,58.4999982147217,10|2,0:2|0:2,0:0:0:0:
20,363,28429,1,2,0:2:0:0:
96,218,28695,1,10,0:2:0:0:
8,79,28962,6,0,P|48:88|73:111,1,58.4999982147217,2|2,0:2|0:2,0:0:0:0:
130,52,29229,2,0,P|151:86|153:120,1,58.4999982147217,10|2,0:2|0:2,0:0:0:0:
182,180,29495,2,0,L|320:161,1,116.999996429443,2|10,0:2|0:2,0:2:0:0:
350,227,29895,1,2,0:2:0:0:
511,184,30162,1,2,0:2:0:0:
511,184,30295,2,0,L|501:114,1,58.4999982147217,10|2,0:2|0:2,0:0:0:0:
439,73,30562,2,0,L|451:6,1,58.4999982147217,2|2,0:2|0:2,0:0:0:0:
382,150,30829,1,10,0:2:0:0:
382,150,30962,1,10,0:2:0:0:
342,58,31095,6,0,P|288:19|223:44,1,116.999996429443,6|8,0:2|0:2,0:2:0:0:
159,26,31496,2,0,L|166:97,1,58.4999982147217,2|2,0:2|0:2,0:0:0:0:
90,140,31762,2,0,L|78:207,2,58.4999982147217,2|8|2,0:2|0:2|0:2,0:2:0:0:
166,169,32162,1,2,0:2:0:0:
166,169,32295,2,0,B|227:159|221:190|289:182,1,116.999996429443,2|2,0:2|0:2,0:2:0:0:
347,134,32695,1,2,0:2:0:0:
430,275,32962,1,10,0:2:0:0:
281,345,33229,6,0,P|203:350|167:324,1,116.999996429443,14|10,0:2|0:3,0:0:0:0:
89,372,33629,2,0,P|84:294|110:258,1,116.999996429443,14|6,0:2|0:3,0:0:0:0:
58,185,34029,2,0,P|136:180|172:206,1,116.999996429443,14|6,0:2|0:3,0:0:0:0:
251,157,34429,2,0,P|256:235|229:271,1,116.999996429443,14|10,0:2|0:3,0:0:0:0:
158,292,34829,2,0,L|92:276,1,58.4999982147217,14|0,0:2|0:2,0:2:0:0:
61,186,35095,2,0,L|127:170,1,58.4999982147217,14|0,0:2|0:2,0:2:0:0:
174,96,35362,6,0,P|158:58|159:30,1,58.4999982147217,6|0,0:2|0:2,0:2:0:0:
235,13,35629,2,0,P|251:51|250:79,1,58.4999982147217,8|2,0:2|0:2,0:0:0:0:
235,147,35895,2,0,L|355:157,1,116.999996429443,2|8,0:2|0:2,0:2:0:0:
425,119,36295,2,0,P|385:144|376:222,1,116.999996429443,2|0,0:2|0:2,0:2:0:0:
424,271,36695,2,0,L|490:267,1,58.4999982147217,10|2,0:2|0:2,0:0:0:0:
509,189,36962,1,2,0:2:0:0:
489,351,37229,1,10,0:2:0:0:
328,321,37495,6,0,L|242:314,1,58.4999982147217,2|2,0:2|0:2,0:0:0:0:
225,246,37762,2,0,L|166:250,1,58.4999982147217,10|2,0:2|0:2,0:0:0:0:
93,303,38029,2,0,P|71:265|85:180,1,116.999996429443,2|10,0:2|0:2,0:2:0:0:
151,159,38429,1,2,0:2:0:0:
63,21,38695,1,2,0:2:0:0:
63,21,38829,2,0,L|137:32,1,58.4999982147217,10|2,0:2|0:2,0:0:0:0:
190,71,39095,2,0,L|247:62,1,58.4999982147217,2|2,0:2|0:2,0:0:0:0:
320,24,39362,1,10,0:2:0:0:
320,24,39495,1,10,0:2:0:0:
381,107,39629,6,0,B|375:177|345:158|342:225,1,116.999996429443,6|8,0:2|0:2,0:2:0:0:
330,297,40029,2,0,L|393:291,1,58.4999982147217,2|2,0:2|0:2,0:0:0:0:
469,284,40295,2,0,L|474:225,2,58.4999982147217,2|8|2,0:2|0:2|0:2,0:2:0:0:
451,364,40695,1,2,0:2:0:0:
451,364,40829,2,0,P|399:382|325:368,1,116.999996429443,2|2,0:2|0:2,0:2:0:0:
284,312,41229,2,0,P|284:269|298:240,1,58.4999982147217,2|0,0:2|0:2,0:2:0:0:
219,211,41495,2,0,P|249:180|279:169,1,58.4999982147217,10|0,0:2|0:2,0:2:0:0:
327,103,41762,6,0,L|206:74,1,116.999996429443,14|10,0:2|0:3,0:0:0:0:
146,0,42162,2,0,L|117:121,1,116.999996429443,14|6,0:2|0:3,0:0:0:0:
43,181,42562,2,0,L|164:210,1,116.999996429443,14|6,0:2|0:3,0:0:0:0:
224,284,42962,2,0,L|253:163,1,116.999996429443,14|10,0:2|0:3,0:0:0:0:
274,91,43362,2,0,P|306:73|336:69,1,58.4999982147217,14|0,0:2|0:2,0:2:0:0:
406,7,43629,2,0,P|441:16|465:35,1,58.4999982147217,14|0,0:2|0:2,0:2:0:0:
495,111,43895,6,0,B|483:171|483:171|488:178|488:178|474:245,2,130,6|10|2,0:2|0:2|0:2,0:2:0:0:
404,124,44562,2,0,P|385:162|387:191,1,65,0|10,0:2|0:2,0:0:0:0:
347,267,44829,2,0,P|285:298|221:279,1,130,6|0,0:2|0:2,0:2:0:0:
182,205,45229,1,10,0:2:0:0:
8,150,45495,2,0,L|10:218,1,65,2|0,0:2|0:2,0:2:0:0:
97,241,45762,2,0,L|95:176,1,65,10|0,0:2|0:2,0:2:0:0:
101,62,46029,6,0,B|174:52|163:92|238:75,2,130,2|10|2,0:2|0:2|0:2,0:2:0:0:
14,35,46695,2,0,B|6:71|6:71|15:103,1,65,0|10,0:2|0:2,0:0:0:0:
105,158,46962,2,0,B|100:220|100:220|104:231|104:231|97:298,1,130,6|0,0:2|0:2,0:2:0:0:
156,357,47362,1,10,0:2:0:0:
316,271,47629,2,0,L|394:285,1,65,10|0,0:2|0:2,0:2:0:0:
492,205,47896,2,0,L|445:209,3,32.5,10|8|4|4,0:2|0:3|0:3|0:3,0:0:0:0:
413,207,48162,6,0,P|409:150|469:108,2,130,6|10|2,0:2|0:2|0:2,0:2:0:0:
326,176,48829,2,0,L|255:164,1,65,0|10,0:2|0:2,0:0:0:0:
184,117,49095,2,0,B|114:117|132:158|38:150,1,130,6|2,0:2|0:2,0:2:0:0:
10,74,49495,1,10,0:2:0:0:
178,4,49762,2,0,P|226:11|253:31,1,65,2|0,0:2|0:2,0:2:0:0:
330,6,50029,2,0,P|358:44|363:78,1,65,8|0,0:2|0:2,0:0:0:0:
430,120,50295,6,0,L|286:100,2,130,2|10|2,0:2|0:2|0:2,0:2:0:0:
482,194,50962,2,0,B|485:227|485:227|463:266,1,65,0|10,0:2|0:2,0:0:0:0:
496,342,51229,2,0,P|466:303|376:295,1,130,6|0,0:2|0:2,0:2:0:0:
320,349,51629,1,10,0:2:0:0:
210,204,51895,2,0,L|222:131,1,65,10|0,0:2|0:2,0:0:0:0:
143,26,52163,2,0,L|148:68,3,32.5,10|8|8|8,0:2|0:2|0:2|0:2,0:0:0:0:
145,99,52429,6,0,P|108:115|74:115,1,58.4999982147217,6|0,0:2|0:2,0:2:0:0:
57,192,52695,2,0,P|85:196|111:209,1,58.4999982147217,8|2,0:2|0:2,0:0:0:0:
152,281,52962,2,0,L|279:267,1,116.999996429443,2|8,0:2|0:2,0:2:0:0:
329,213,53362,2,0,L|457:229,1,116.999996429443,2|0,0:2|0:2,0:2:0:0:
505,282,53762,2,0,P|507:316|493:345,1,58.4999982147217,10|2,0:2|0:2,0:0:0:0:
422,371,54029,1,2,0:2:0:0:
336,231,54295,1,10,0:2:0:0:
436,101,54562,6,0,L|506:94,1,58.4999982147217,2|2,0:2|0:2,0:0:0:0:
377,32,54829,2,0,L|307:25,1,58.4999982147217,10|2,0:2|0:2,0:0:0:0:
239,5,55095,2,0,P|221:43|230:126,1,116.999996429443,2|10,0:2|0:2,0:2:0:0:
296,157,55495,1,2,0:2:0:0:
270,318,55762,1,2,0:2:0:0:
270,318,55895,2,0,L|193:306,1,58.4999982147217,10|2,0:2|0:2,0:0:0:0:
157,247,56162,2,0,L|99:256,1,58.4999982147217,2|2,0:2|0:2,0:0:0:0:
18,270,56429,1,10,0:2:0:0:
18,270,56562,1,10,0:2:0:0:
5,171,56695,6,0,P|39:132|111:123,1,116.999996429443,6|8,0:2|0:2,0:2:0:0:
156,59,57095,2,0,L|229:50,1,58.4999982147217,2|2,0:2|0:2,0:0:0:0:
291,22,57362,2,0,L|367:32,2,58.4999982147217,2|8|2,0:2|0:2|0:2,0:2:0:0:
282,103,57762,1,2,0:2:0:0:
282,103,57895,2,0,B|276:157|276:157|280:163|280:163|271:225,1,116.999996429443,2|2,0:2|0:2,0:2:0:0:
327,279,58295,2,0,L|391:268,1,58.4999982147217,2|0,0:2|0:2,0:2:0:0:
432,202,58562,2,0,L|489:211,1,58.4999982147217,10|0,0:2|0:2,0:2:0:0:
485,129,58829,6,0,P|444:97|367:93,1,116.999996429443,14|10,0:2|0:3,0:0:0:0:
369,7,59229,2,0,P|320:26|278:91,1,116.999996429443,14|6,0:2|0:3,0:0:0:0:
293,158,59629,2,0,P|252:190|175:194,1,116.999996429443,14|6,0:2|0:3,0:0:0:0:
177,280,60029,2,0,P|128:260|86:195,1,116.999996429443,14|10,0:2|0:3,0:0:0:0:
107,128,60429,2,0,L|123:62,1,58.4999982147217,14|0,0:2|0:0,0:2:0:0:
40,57,60695,2,0,L|26:113,1,58.4999982147217,14|0,0:2|0:0,0:2:0:0:
8,205,60962,6,0,L|22:330,1,116.999996429443,6|8,0:2|0:2,0:2:0:0:
91,363,61362,1,2,0:2:0:0:
91,363,61495,2,0,P|141:328|211:334,1,116.999996429443,2|8,0:2|0:2,0:2:0:0:
269,363,61895,2,0,B|336:363|320:335|391:339,1,116.999996429443,2|0,0:2|0:2,0:2:0:0:
457,371,62295,2,0,B|465:339|465:339|457:305,1,58.4999982147217,10|2,0:2|0:2,0:0:0:0:
414,244,62562,1,2,0:2:0:0:
512,116,62829,1,10,0:2:0:0:
382,16,63095,6,0,L|303:31,1,58.4999982147217,2|2,0:2|0:2,0:0:0:0:
242,15,63362,2,0,L|257:94,1,58.4999982147217,10|2,0:2|0:2,0:0:0:0:
309,132,63629,2,0,P|274:112|200:135,1,116.999996429443,2|10,0:2|0:2,0:2:0:0:
144,188,64029,1,2,0:2:0:0:
216,334,64295,1,2,0:2:0:0:
216,334,64429,2,0,L|145:326,1,58.4999982147217,10|2,0:2|0:2,0:0:0:0:
169,246,64695,2,0,L|227:252,1,58.4999982147217,2|2,0:2|0:2,0:0:0:0:
307,268,64962,1,10,0:2:0:0:
307,268,65095,1,10,0:2:0:0:
386,209,65229,6,0,B|380:158|380:158|386:145|386:145|378:82,1,116.999996429443,6|8,0:2|0:2,0:2:0:0:
414,16,65629,2,0,P|375:12|340:21,1,58.4999982147217,2|2,0:2|0:2,0:0:0:0:
275,30,65895,2,0,P|230:42|204:35,2,58.4999982147217,2|8|2,0:2|0:2|0:2,0:2:0:0:
300,113,66295,1,2,0:2:0:0:
300,113,66429,2,0,P|294:172|227:193,1,116.999996429443,2|2,0:2|0:2,0:2:0:0:
182,247,66829,2,0,L|109:236,1,58.4999982147217,2|0,0:2|0:2,0:2:0:0:
102,158,67096,2,0,L|29:147,1,58.4999982147217,10|0,0:2|0:2,0:2:0:0:
20,70,67362,6,0,B|71:57|71:57|90:65|90:65|149:52,1,116.999996429443,14|10,0:2|0:3,0:0:0:0:
183,120,67762,2,0,B|234:107|234:107|253:115|253:115|312:102,1,116.999996429443,14|6,0:2|0:3,0:0:0:0:
302,214,68162,2,0,B|251:201|251:201|232:209|232:209|173:196,1,116.999996429443,14|6,0:2|0:3,0:0:0:0:
139,264,68562,2,0,B|88:251|88:251|69:259|69:259|10:246,1,116.999996429443,14|10,0:2|0:3,0:0:0:0:
24,332,68963,2,0,P|51:359|81:364,1,58.4999982147217,14|0,0:2|0:2,0:2:0:0:
149,346,69229,2,0,P|188:346|211:328,1,58.4999982147217,14|0,0:2|0:2,0:2:0:0:
249,272,69495,5,6,0:2:0:0:
213,130,69762,1,0,0:0:0:0:
213,130,69895,2,0,L|324:114,1,104,8|0,0:2|0:0,0:0:0:0:
384,53,70295,2,0,P|402:92|401:154,1,104,2|0,0:2|0:2,0:2:0:0:
331,202,70695,2,0,P|328:253|348:301,1,104,10|0,0:2|0:2,0:2:0:0:
430,346,71095,1,10,0:2:0:0:
491,213,71362,1,2,0:2:0:0:
441,76,71629,6,0,L|331:66,1,104,6|0,0:2|0:0,0:2:0:0:
273,15,72029,1,8,0:2:0:0:
158,104,72295,1,0,0:0:0:0:
158,104,72429,2,0,B|140:154|140:154|159:214,1,104,2|0,0:2|0:2,0:2:0:0:
209,272,72829,2,0,P|166:249|108:265,1,104,10|0,0:2|0:2,0:2:0:0:
66,331,73229,1,10,0:2:0:0:
3,199,73495,2,0,L|15:131,1,52,2|8,0:2|0:2,0:2:0:0:
31,68,73762,5,6,0:2:0:0:
169,21,74029,1,0,0:0:0:0:
169,21,74162,2,0,L|281:43,1,104,8|0,0:2|0:0,0:0:0:0:
307,120,74563,2,0,P|260:118|210:157,1,104,2|0,0:2|0:0,0:0:0:0:
175,229,74962,2,0,L|191:343,1,104,10|0,0:2|0:2,0:2:0:0:
265,373,75362,1,10,0:2:0:0:
365,266,75629,1,2,0:2:0:0:
487,343,75895,6,0,L|497:229,1,104,6|0,0:2|0:0,0:2:0:0:
448,165,76295,2,0,L|439:49,1,104,8|0,0:2|0:0,0:0:0:0:
363,14,76695,1,2,0:2:0:0:
276,131,76962,1,0,0:0:0:0:
276,131,77095,2,0,P|236:148|166:129,1,104,8|0,0:2|0:2,0:2:0:0:
137,44,77495,2,0,L|70:37,1,52,8|2,0:2|0:2,0:0:0:0:
8,100,77762,2,0,L|15:139,3,26,8|8|6|4,0:2|0:3|0:3|0:3,0:0:0:0:
30,163,78029,6,0,B|45:219|45:219|21:283,1,116.999996429443,6|8,0:2|0:2,0:2:0:0:
73,340,78429,2,0,P|143:348|183:323,1,116.999996429443,2|0,0:2|0:2,0:0:0:0:
217,251,78829,1,10,0:2:0:0:
217,251,78962,2,0,L|206:176,1,58.4999982147217,0|0,0:0|0:2,0:0:0:0:
178,116,79229,2,0,L|186:47,2,58.4999982147217,2|8|0,0:2|0:2|0:2,0:2:0:0:
260,120,79629,2,0,B|321:125|315:92|384:96,1,116.999996429443,2|10,0:2|0:2,0:2:0:0:
442,138,80029,1,8,0:2:0:0:
485,207,80162,6,0,P|471:258|411:281,1,116.999996429443,2|8,0:2|0:2,0:2:0:0:
357,340,80562,2,0,L|228:320,1,116.999996429443,2|0,0:2|0:2,0:2:0:0:
189,258,80962,1,10,0:2:0:0:
189,258,81095,2,0,P|181:219|190:187,1,58.4999982147217,0|0,0:0|0:2,0:0:0:0:
251,154,81362,2,0,P|264:117|261:91,2,58.4999982147217,2|8|0,0:2|0:2|0:2,0:2:0:0:
178,114,81762,2,0,B|131:108|131:108|122:94|122:94|56:84,1,116.999996429443,2|10,0:2|0:2,0:2:0:0:
12,144,82162,1,8,0:2:0:0:
69,207,82295,6,0,P|90:249|56:324,1,123.499996702194,6|8,0:2|0:2,0:2:0:0:
135,367,82695,2,0,L|267:351,1,123.499996702194,2|0,0:2|0:2,0:2:0:0:
334,311,83095,1,10,0:2:0:0:
334,311,83229,2,0,L|470:331,1,123.499996702194,0|2,0:0|0:2,0:0:0:0:
494,250,83629,2,0,P|503:213|498:180,1,61.7499983510972,8|0,0:2|0:2,0:0:0:0:
454,116,83895,2,0,P|411:102|330:142,1,123.499996702194,2|10,0:2|0:2,0:2:0:0:
291,200,84295,1,8,0:2:0:0:
222,139,84429,1,6,0:2:0:0:
64,48,84695,6,0,P|87:82|95:125,1,65,8|0,0:2|0:2,0:0:0:0:
195,126,84962,2,0,P|187:166|162:202,1,65,10|0,0:2|0:2,0:0:0:0:
247,276,85229,2,0,P|213:299|170:307,1,65,8|0,0:2|0:2,0:0:0:0:
76,266,85495,1,6,0:2:0:0:
509,34,86562,6,0,L|353:17,1,143.000004364014,6|10,0:2|0:2,0:2:0:0:
283,75,86962,1,8,0:2:0:0:
365,131,87095,2,0,P|377:167|335:260,1,143.000004364014,10|10,0:3|0:2,0:2:0:0:
246,302,87495,6,0,L|173:293,1,71.5000021820069,6|0,0:3|0:2,0:2:0:0:
79,324,87762,2,0,L|88:251,1,71.5000021820069,2|8,0:2|0:2,0:2:0:0:
60,156,88029,2,0,L|133:165,1,71.5000021820069,6|0,0:3|0:2,0:2:0:0:
227,134,88296,2,0,L|218:207,1,71.5000021820069,2|8,0:2|0:2,0:2:0:0:
249,299,88562,1,2,0:2:0:0:
344,270,88695,6,0,L|431:265,2,71.5000021820069,6|0|8,0:2|0:2|0:2,0:2:0:0:
307,176,89095,1,10,0:2:0:0:
362,91,89229,2,0,B|446:79|427:129|516:110,1,143.000004364014,10|8,0:3|0:2,0:2:0:0:
463,206,89629,6,0,P|440:244|405:258,1,71.5000021820069,6|0,0:3|0:2,0:2:0:0:
386,350,89895,2,0,P|341:349|311:325,1,71.5000021820069,2|8,0:2|0:2,0:2:0:0:
231,383,90162,2,0,P|209:344|214:306,1,71.5000021820069,6|0,0:3|0:2,0:2:0:0:
116,280,90429,2,0,P|138:241|174:226,1,71.5000021820069,2|8,0:2|0:2,0:2:0:0:
261,224,90695,1,10,0:2:0:0:
266,123,90829,6,0,P|223:83|136:88,1,143.000004364014,6|10,0:2|0:2,0:2:0:0:
42,96,91229,2,0,P|28:153|76:226,1,143.000004364014,10|2,0:2|0:2,0:2:0:0:
135,299,91629,2,0,P|191:281|230:203,1,143.000004364014,10|0,0:2|0:2,0:2:0:0:
141,163,92029,1,0,0:2:0:0:
136,63,92162,6,0,P|186:40|219:38,1,71.5000021820069,10|0,0:2|0:2,0:2:0:0:
290,85,92429,2,0,P|284:139|270:169,1,71.5000021820069,2|0,0:2|0:2,0:2:0:0:
194,208,92695,2,0,P|149:176|130:148,1,71.5000021820069,8|0,0:2|0:0,0:2:0:0:
249,297,92962,6,0,L|399:275,1,143.000004364014,6|10,0:2|0:2,0:2:0:0:
487,250,93362,2,0,L|392:131,1,143.000004364014,2|2,0:2|0:2,0:2:0:0:
329,64,93762,2,0,L|273:204,1,143.000004364014,10|0,0:2|0:2,0:2:0:0:
246,293,94162,1,0,0:2:0:0:
152,328,94295,6,0,L|67:311,1,71.5000021820069,10|0,0:2|0:2,0:2:0:0:
32,226,94562,2,0,L|117:209,1,71.5000021820069,10|2,0:2|0:2,0:0:0:0:
158,128,94829,2,0,L|152:76,3,35.7500010910034,8|8|4|4,0:2|0:3|0:3|0:3,0:0:0:0:
146,43,95095,6,0,P|199:28|234:38,1,71.5000021820069,6|0,0:2|0:2,0:2:0:0:
311,5,95362,2,0,L|299:96,1,71.5000021820069,10|8,0:2|0:2,0:0:0:0:
254,164,95629,2,0,P|309:193|392:175,1,143.000004364014,10|10,0:3|0:2,0:2:0:0:
465,240,96029,6,0,P|475:285|463:333,1,71.5000021820069,6|0,0:3|0:2,0:2:0:0:
398,377,96295,2,0,P|353:387|304:375,1,71.5000021820069,2|8,0:2|0:2,0:2:0:0:
249,322,96562,2,0,P|239:277|251:229,1,71.5000021820069,6|0,0:3|0:2,0:2:0:0:
316,185,96828,2,0,P|361:175|409:187,1,71.5000021820069,2|8,0:2|0:2,0:2:0:0:
466,118,97095,1,2,0:2:0:0:
411,33,97229,6,0,L|316:23,1,71.5000021820069,6|0,0:2|0:2,0:2:0:0:
255,79,97495,2,0,L|183:86,1,71.5000021820069,8|10,0:2|0:2,0:0:0:0:
105,23,97762,2,0,P|81:64|101:155,1,143.000004364014,10|8,0:3|0:2,0:2:0:0:
74,250,98162,6,0,L|150:239,1,71.5000021820069,6|0,0:3|0:2,0:2:0:0:
198,325,98429,2,0,L|243:263,1,71.5000021820069,2|8,0:2|0:2,0:2:0:0:
337,292,98695,2,0,L|326:216,1,71.5000021820069,6|0,0:3|0:2,0:2:0:0:
416,176,98962,2,0,L|354:130,1,71.5000021820069,2|8,0:2|0:2,0:2:0:0:
318,40,99229,1,10,0:2:0:0:
410,2,99362,6,0,P|464:16|481:113,1,143.000004364014,6|10,0:2|0:2,0:2:0:0:
464,189,99762,2,0,P|424:228|332:194,1,143.000004364014,10|2,0:2|0:2,0:2:0:0:
275,142,100162,2,0,P|260:88|335:25,1,143.000004364014,10|0,0:2|0:2,0:2:0:0:
369,110,100562,1,0,0:2:0:0:
282,160,100695,6,0,P|239:147|206:150,1,71.5000021820069,10|0,0:2|0:2,0:2:0:0:
112,144,100962,2,0,P|122:187|141:214,1,71.5000021820069,2|0,0:2|0:2,0:2:0:0:
185,297,101229,2,0,P|217:266|231:236,1,71.5000021820069,8|0,0:2|0:0,0:2:0:0:
129,374,101495,6,0,L|-30:353,1,143.000004364014,6|10,0:2|0:2,0:2:0:0:
35,266,101895,2,0,L|132:138,1,143.000004364014,2|2,0:2|0:2,0:2:0:0:
171,240,102295,2,0,L|232:388,1,143.000004364014,10|0,0:2|0:2,0:2:0:0:
326,369,102695,1,0,0:2:0:0:
391,292,102829,6,0,L|473:280,1,71.5000021820069,10|0,0:2|0:2,0:2:0:0:
493,186,103095,2,0,L|411:174,1,71.5000021820069,10|8,0:2|0:3,0:0:0:0:
360,96,103362,2,0,L|370:49,3,35.7500010910034,6|0|4|0,0:3|0:0|0:3|0:0,0:0:0:0:
380,11,103629,6,0,P|312:4|245:64,1,143.000004364014,2|8,0:2|0:2,0:2:0:0:
154,35,104029,1,2,0:2:0:0:
154,35,104162,2,0,L|165:120,1,71.5000021820069,8|0,0:2|0:2,0:2:0:0:
245,163,104429,2,0,L|224:317,1,143.000004364014,10|8,0:2|0:2,0:2:0:0:
142,361,104829,1,0,0:2:0:0:
70,291,104962,6,0,P|70:246|89:211,1,71.5000021820069,10|0,0:2|0:2,0:2:0:0:
2,158,105229,2,0,P|33:126|72:114,1,71.5000021820069,10|0,0:2|0:2,0:2:0:0:
51,17,105495,2,0,P|95:17|131:36,1,71.5000021820069,10|0,0:2|0:2,0:2:0:0:
182,120,105762,6,0,B|260:126|243:83|329:92,1,143.000004364014,14|8,0:2|0:2,0:2:0:0:
347,187,106162,2,0,B|269:181|286:224|200:215,1,143.000004364014,2|0,0:2|0:2,0:0:0:0:
141,290,106562,2,0,B|130:329|130:329|140:367,1,71.5000021820069,10|0,0:2|0:2,0:2:0:0:
237,369,106829,6,0,P|261:322|361:313,1,143.000004364014,10|8,0:2|0:2,0:0:0:0:
429,358,107229,1,0,0:2:0:0:
496,284,107362,2,0,L|483:200,1,71.5000021820069,10|8,0:2|0:2,0:0:0:0:
473,113,107629,1,8,0:2:0:0:
473,113,107762,1,8,0:2:0:0:
403,40,107895,6,0,P|356:41|282:109,1,143.000004364014,14|0,0:2|0:0,0:0:0:0:
232,14,108295,2,0,P|199:47|195:148,1,143.000004364014,14|0,0:2|0:0,0:0:0:0:
92,158,108695,2,0,P|116:209|141:227,1,71.5000021820069,14|0,0:2|0:2,0:0:0:0:
223,245,108962,1,14,0:2:0:0:
495,329,110029,5,6,1:2:0:0:
495,329,110162,2,0,L|377:320,1,104,0|2,0:2|1:2,0:0:0:0:
338,264,110562,2,0,L|232:282,1,104,10|2,0:2|1:2,0:2:0:0:
185,348,110962,1,10,0:2:0:0:
76,250,111229,1,10,0:2:0:0:
76,250,111362,2,0,P|66:218|69:192,1,52,0|0,1:2|0:2,0:2:0:0:
120,138,111629,1,10,0:2:0:0:
255,191,111895,2,0,L|315:180,1,52,2|8,1:2|0:2,0:2:0:0:
397,216,112162,5,2,1:2:0:0:
397,216,112295,2,0,P|406:179|375:115,1,104,2|2,0:2|0:2,0:0:0:0:
391,37,112695,2,0,L|283:55,1,104,10|0,0:2|1:2,0:2:0:0:
230,111,113095,1,10,0:2:0:0:
95,55,113362,1,10,0:2:0:0:
95,55,113495,2,0,P|61:52|31:65,1,52,0|10,1:2|0:2,0:2:0:0:
6,134,113762,1,2,1:2:0:0:
105,240,114029,2,0,L|152:232,3,26,10|8|10|8,0:2|0:2|0:2|0:2,0:2:0:0:
163,211,114295,6,0,P|207:194|275:224,1,116.999996429443,6|8,0:2|0:2,0:2:0:0:
290,297,114695,2,0,L|356:290,1,58.4999982147217,2|2,0:2|0:2,0:0:0:0:
415,243,114962,2,0,L|484:253,2,58.4999982147217,2|8|2,0:2|0:2|0:2,0:2:0:0:
361,180,115362,1,2,0:2:0:0:
361,180,115495,2,0,B|355:124|390:127|376:62,1,116.999996429443,2|2,0:2|0:2,0:2:0:0:
314,12,115895,1,2,0:2:0:0:
198,128,116162,1,10,0:2:0:0:
58,41,116429,6,0,P|92:57|122:138,1,116.999996429443,14|10,0:2|0:3,0:0:0:0:
119,219,116829,2,0,P|135:273|184:304,1,116.999996429443,14|6,0:2|0:3,0:0:0:0:
274,310,117229,2,0,P|322:279|339:224,1,116.999996429443,14|6,0:2|0:3,0:0:0:0:
335,132,117629,2,0,P|351:77|400:46,1,116.999996429443,14|10,0:2|0:3,0:0:0:0:
478,21,118029,2,0,L|487:84,1,58.4999982147217,14|0,0:2|0:2,0:2:0:0:
453,159,118295,2,0,L|461:216,1,58.4999982147217,14|0,0:2|0:2,0:2:0:0:
480,306,118562,5,6,1:2:0:0:
480,306,118695,2,0,L|370:315,1,104,0|2,0:2|1:2,0:0:0:0:
308,253,119095,2,0,P|292:209|307:151,1,104,10|2,0:2|1:2,0:2:0:0:
374,109,119495,1,10,0:2:0:0:
256,22,119762,1,10,0:2:0:0:
256,22,119895,2,0,L|185:12,1,52,0|0,1:2|0:2,0:2:0:0:
133,54,120162,1,10,0:2:0:0:
200,183,120429,2,0,L|190:244,1,52,2|8,1:2|0:2,0:2:0:0:
129,295,120695,6,0,P|101:282|77:282,1,52,2|2,1:2|0:2,0:0:0:0:
63,357,120962,2,0,P|91:370|115:370,1,52,2|2,1:2|0:2,0:0:0:0:
197,343,121229,2,0,L|323:326,1,104,10|0,0:2|1:2,0:2:0:0:
378,370,121629,1,10,0:2:0:0:
453,246,121895,1,10,0:2:0:0:
453,246,122029,2,0,L|441:188,1,52,0|10,1:2|0:2,0:2:0:0:
420,111,122295,1,2,1:2:0:0:
306,29,122562,2,0,L|262:37,3,26,10|8|10|8,0:2|0:2|0:2|0:2,0:2:0:0:
246,56,122829,6,0,L|112:46,1,116.999996429443,6|8,0:2|0:2,0:2:0:0:
55,10,123229,2,0,P|45:47|49:75,1,58.4999982147217,2|2,0:2|0:2,0:0:0:0:
85,146,123495,2,0,L|75:204,2,58.4999982147217,2|8|2,0:2|0:2|0:2,0:2:0:0:
176,151,123895,1,2,0:2:0:0:
176,151,124029,2,0,P|219:169|238:250,1,116.999996429443,2|2,0:2|0:2,0:2:0:0:
201,302,124429,2,0,L|127:295,1,58.4999982147217,2|0,0:2|0:2,0:2:0:0:
249,369,124695,2,0,L|323:362,1,58.4999982147217,10|0,0:2|0:2,0:2:0:0:
372,313,124962,6,0,L|362:193,1,116.999996429443,14|10,0:2|0:3,0:0:0:0:
358,114,125362,2,0,L|238:124,1,116.999996429443,14|6,0:2|0:3,0:0:0:0:
197,54,125762,2,0,L|80:44,1,116.999996429443,14|6,0:2|0:3,0:0:0:0:
67,125,126162,2,0,L|57:241,1,116.999996429443,14|10,0:2|0:3,0:0:0:0:
108,306,126562,2,0,P|152:299|184:277,1,58.4999982147217,14|0,0:2|0:2,0:2:0:0:
220,353,126829,2,0,P|246:316|253:278,1,58.4999982147217,14|0,0:2|0:2,0:2:0:0:
224,217,127095,5,6,0:2:0:0:
307,97,127362,1,0,0:0:0:0:
307,97,127495,2,0,P|356:77|415:103,1,104,8|0,0:2|0:0,0:0:0:0:
492,76,127895,2,0,L|476:195,1,104,2|0,0:2|0:2,0:2:0:0:
509,262,128295,2,0,P|476:287|409:280,1,104,10|0,0:2|0:2,0:2:0:0:
365,217,128695,1,10,0:2:0:0:
282,337,128962,1,2,0:2:0:0:
179,233,129229,6,0,L|201:109,1,104,6|0,0:2|0:0,0:2:0:0:
258,69,129629,1,8,0:2:0:0:
125,9,129895,1,0,0:0:0:0:
125,9,130029,2,0,P|68:6|21:46,1,104,2|0,0:2|0:2,0:2:0:0:
6,117,130429,2,0,L|24:243,1,104,10|0,0:2|0:2,0:2:0:0:
35,308,130829,1,10,0:2:0:0:
158,231,131095,2,0,L|214:243,1,52,2|8,0:2|0:2,0:2:0:0:
289,266,131362,5,6,0:2:0:0:
407,180,131629,1,0,0:0:0:0:
407,180,131762,2,0,P|396:132|346:96,1,104,8|0,0:2|0:0,0:0:0:0:
322,15,132162,2,0,L|202:37,1,104,2|0,0:2|0:0,0:0:0:0:
166,98,132562,2,0,L|55:81,1,104,10|0,0:2|0:2,0:2:0:0:
10,16,132962,1,10,0:2:0:0:
29,160,133229,1,2,0:2:0:0:
58,302,133495,6,0,P|124:319|170:301,1,104,6|0,0:2|0:0,0:2:0:0:
201,235,133895,2,0,P|251:224|299:242,1,104,8|0,0:2|0:0,0:0:0:0:
344,327,134295,1,2,0:2:0:0:
474,262,134562,1,0,0:0:0:0:
474,262,134695,2,0,L|465:149,1,104,8|0,0:2|0:2,0:2:0:0:
410,91,135095,2,0,L|419:32,1,52,8|2,0:2|0:2,0:0:0:0:
336,7,135362,2,0,L|299:15,3,26,8|8|6|4,0:2|0:3|0:3|0:3,0:0:0:0:
282,42,135629,6,0,P|233:14|162:35,1,116.999996429443,6|8,0:2|0:2,0:2:0:0:
111,76,136029,1,2,0:2:0:0:
111,76,136162,2,0,L|125:144,1,58.4999982147217,0|0,0:2|0:2,0:2:0:0:
92,209,136429,2,0,L|86:272,2,58.4999982147217,10|0|0,0:2|0:0|0:2,0:2:0:0:
173,217,136829,2,0,P|212:225|241:304,1,116.999996429443,2|0,0:2|0:2,0:2:0:0:
191,352,137229,2,0,L|312:329,1,116.999996429443,2|10,0:2|0:2,0:2:0:0:
385,351,137629,1,8,0:2:0:0:
440,279,137762,6,0,P|439:234|374:183,1,116.999996429443,2|8,0:2|0:2,0:2:0:0:
386,103,138162,1,2,0:2:0:0:
386,103,138295,2,0,L|306:110,1,58.4999982147217,0|0,0:0|0:2,0:0:0:0:
252,74,138562,2,0,L|183:67,2,58.4999982147217,10|0|0,0:2|0:0|0:2,0:2:0:0:
256,156,138962,2,0,B|244:208|244:208|247:215|247:215|237:282,1,116.999996429443,2|0,0:2|0:2,0:2:0:0:
269,346,139362,2,0,P|235:318|151:323,1,116.999996429443,2|10,0:2|0:2,0:2:0:0:
96,361,139762,1,8,0:2:0:0:
47,268,139895,6,0,L|66:142,1,116.999996429443,6|8,0:2|0:2,0:2:0:0:
50,71,140295,2,0,P|118:52|172:78,1,116.999996429443,2|0,0:2|0:2,0:2:0:0:
205,135,140695,1,10,0:2:0:0:
205,135,140829,2,0,B|264:142|258:109|325:118,1,116.999996429443,0|2,0:0|0:2,0:0:0:0:
390,76,141229,2,0,L|463:66,1,58.4999982147217,8|0,0:2|0:2,0:0:0:0:
487,139,141495,2,0,P|507:194|461:258,1,116.999996429443,2|10,0:2|0:2,0:2:0:0:
408,278,141895,1,8,0:2:0:0:
342,214,142029,1,6,0:2:0:0:
206,334,142295,6,0,L|231:267,1,65,8|0,0:2|0:2,0:0:0:0:
310,232,142562,2,0,L|280:166,1,65,10|0,0:2|0:2,0:0:0:0:
326,92,142829,2,0,L|259:67,1,65,8|0,0:2|0:2,0:0:0:0:
191,16,143095,6,0,P|137:16|81:83,1,130,14|8,0:2|0:2,0:0:0:0:
18,129,143495,1,0,0:0:0:0:
18,129,143629,2,0,L|29:198,1,65,8|2,0:2|0:2,0:0:0:0:
106,238,143895,2,0,L|95:307,1,65,8|2,0:2|0:2,0:0:0:0:
170,369,144162,6,0,B|256:376|226:329|310:339,1,143.000004364014,6|10,0:2|0:2,0:2:0:0:
399,374,144562,1,8,0:2:0:0:
456,292,144695,2,0,B|448:223|448:223|453:213|453:213|443:141,1,143.000004364014,10|10,0:3|0:2,0:2:0:0:
444,50,145095,6,0,P|401:52|364:82,1,71.5000021820069,6|0,0:3|0:2,0:2:0:0:
290,15,145362,2,0,P|270:53|277:100,1,71.5000021820069,2|8,0:2|0:2,0:2:0:0:
289,179,145629,2,0,P|246:177|209:147,1,71.5000021820069,6|0,0:3|0:2,0:2:0:0:
135,214,145896,2,0,P|115:175|122:128,1,71.5000021820069,2|8,0:2|0:2,0:2:0:0:
165,61,146162,1,2,0:2:0:0:
78,11,146295,6,0,B|46:2|46:2|-10:10,1,71.5000021820069,6|0,0:2|0:2,0:2:0:0:
27,106,146562,2,0,L|21:180,1,71.5000021820069,8|10,0:2|0:2,0:0:0:0:
13,277,146829,2,0,P|72:297|155:254,1,143.000004364014,10|8,0:3|0:2,0:2:0:0:
194,180,147229,6,0,L|287:174,1,71.5000021820069,6|0,0:3|0:2,0:2:0:0:
312,263,147495,2,0,L|240:267,1,71.5000021820069,2|8,0:2|0:2,0:2:0:0:
358,182,147762,2,0,L|451:176,1,71.5000021820069,6|0,0:3|0:2,0:2:0:0:
476,265,148028,2,0,L|404:269,1,71.5000021820069,2|8,0:2|0:2,0:2:0:0:
350,354,148295,1,10,0:2:0:0:
255,320,148429,6,0,B|183:301|186:355|94:320,1,143.000004364014,6|10,0:2|0:2,0:2:0:0:
67,238,148829,2,0,B|119:185|71:160|147:98,1,143.000004364014,10|2,0:2|0:2,0:2:0:0:
232,116,149229,2,0,B|251:187|296:158|312:255,1,143.000004364014,10|0,0:2|0:2,0:2:0:0:
351,324,149629,1,0,0:2:0:0:
440,280,149762,6,0,B|461:250|475:259|496:229,1,71.5000021820069,10|0,0:2|0:2,0:2:0:0:
493,132,150029,2,0,B|456:128|457:112|420:109,1,71.5000021820069,2|0,0:2|0:2,0:2:0:0:
338,160,150295,2,0,B|353:193|338:200|354:233,1,71.5000021820069,8|0,0:2|0:0,0:2:0:0:
251,228,150562,6,0,B|188:215|188:215|182:207|182:207|97:192,1,143.000004364014,6|10,0:2|0:2,0:2:0:0:
15,174,150962,2,0,B|57:125|57:125|67:124|67:124|123:58,1,143.000004364014,2|2,0:2|0:2,0:2:0:0:
188,5,151363,2,0,B|208:66|208:66|204:75|204:75|233:156,1,143.000004364014,10|0,0:2|0:2,0:2:0:0:
281,224,151762,1,0,0:2:0:0:
191,267,151895,6,0,B|158:273|158:273|153:278|153:278|116:288,1,71.5000021820069,10|0,0:2|0:2,0:2:0:0:
235,350,152162,2,0,B|268:356|268:356|273:361|273:361|310:371,1,71.5000021820069,10|2,0:2|0:2,0:0:0:0:
389,317,152429,2,0,L|439:307,3,35.7500010910034,8|8|4|4,0:2|0:3|0:3|0:3,0:0:0:0:
473,301,152695,6,0,L|459:228,1,71.5000021820069,6|0,0:2|0:2,0:2:0:0:
477,131,152962,2,0,P|442:129|400:147,1,71.5000021820069,10|8,0:2|0:2,0:0:0:0:
349,223,153229,2,0,B|271:234|299:185|185:200,1,143.000004364014,10|10,0:3|0:2,0:2:0:0:
134,262,153629,6,0,P|88:268|37:246,1,71.5000021820069,6|0,0:3|0:2,0:2:0:0:
19,172,153895,2,0,L|31:83,1,71.5000021820069,2|8,0:2|0:2,0:2:0:0:
105,36,154162,2,0,P|151:30|202:52,1,71.5000021820069,6|0,0:3|0:2,0:2:0:0:
220,126,154428,2,0,L|208:215,1,71.5000021820069,2|8,0:2|0:2,0:2:0:0:
250,289,154695,1,2,0:2:0:0:
328,226,154829,6,0,P|375:200|423:202,1,71.5000021820069,6|0,0:2|0:2,0:2:0:0:
406,99,155095,2,0,P|457:113|490:149,1,71.5000021820069,8|10,0:2|0:2,0:0:0:0:
499,220,155362,2,0,L|478:363,1,143.000004364014,10|8,0:3|0:2,0:2:0:0:
377,362,155762,6,0,L|391:288,1,71.5000021820069,6|0,0:3|0:2,0:2:0:0:
383,191,156029,2,0,P|349:175|305:184,1,71.5000021820069,2|8,0:2|0:2,0:2:0:0:
217,194,156295,2,0,L|231:120,1,71.5000021820069,6|0,0:3|0:2,0:2:0:0:
223,23,156562,2,0,P|189:7|145:16,1,71.5000021820069,2|8,0:2|0:2,0:2:0:0:
69,60,156829,1,10,0:2:0:0:
80,159,156962,6,0,B|154:164|146:120|227:128,1,143.000004364014,6|10,0:2|0:2,0:2:0:0:
243,224,157362,2,0,B|169:219|177:263|96:255,1,143.000004364014,10|2,0:2|0:2,0:2:0:0:
132,351,157762,2,0,B|203:359|195:315|269:320,1,143.000004364014,10|0,0:2|0:2,0:2:0:0:
359,362,158162,1,0,0:2:0:0:
409,276,158295,6,0,B|372:270|383:255|342:251,1,71.5000021820069,10|0,0:2|0:2,0:2:0:0:
376,157,158562,2,0,B|416:160|405:175|442:181,1,71.5000021820069,2|0,0:2|0:2,0:2:0:0:
481,88,158829,2,0,B|444:82|455:67|414:63,1,71.5000021820069,8|0,0:2|0:0,0:2:0:0:
336,1,159095,6,0,B|283:10|283:10|258:32|258:32|191:45,1,143.000004364014,6|10,0:2|0:2,0:2:0:0:
246,133,159495,2,0,B|300:122|300:122|325:100|325:100|378:91,1,143.000004364014,2|2,0:2|0:2,0:2:0:0:
420,183,159895,2,0,B|367:192|367:192|342:214|342:214|287:224,1,143.000004364014,10|0,0:2|0:2,0:2:0:0:
252,319,160295,1,0,0:2:0:0:
169,261,160429,6,0,B|141:251|141:251|127:253|127:253|100:247,1,71.5000021820069,10|0,0:2|0:2,0:2:0:0:
114,148,160695,2,0,B|141:154|141:154|155:151|155:151|182:161,1,71.5000021820069,10|8,0:2|0:3,0:0:0:0:
206,63,160962,2,0,B|178:53|178:53|164:55|164:55|137:49,1,71.5000021820069,6|4,0:3|0:3,0:0:0:0:
43,10,161229,6,0,P|36:67|23:182,1,143.000004364014,2|8,0:2|0:2,0:2:0:0:
50,256,161629,1,2,0:2:0:0:
50,256,161762,2,0,L|136:247,1,71.5000021820069,8|0,0:2|0:2,0:2:0:0:
180,167,162029,2,0,P|222:140|326:180,1,143.000004364014,10|8,0:2|0:2,0:2:0:0:
349,250,162429,1,0,0:2:0:0:
310,341,162562,6,0,P|369:344|398:332,1,71.5000021820069,10|0,0:2|0:2,0:2:0:0:
453,271,162829,2,0,P|456:212|444:183,1,71.5000021820069,10|0,0:2|0:2,0:2:0:0:
389,123,163095,2,0,P|330:120|301:132,1,71.5000021820069,10|0,0:2|0:2,0:2:0:0:
239,184,163362,6,0,B|185:176|185:176|167:156|167:156|104:146,1,143.000004364014,14|8,0:2|0:2,0:2:0:0:
53,232,163762,2,0,B|113:241|113:241|131:261|131:261|185:269,1,143.000004364014,2|0,0:2|0:2,0:0:0:0:
285,278,164162,2,0,P|290:317|273:354,1,71.5000021820069,10|0,0:2|0:2,0:2:0:0:
384,370,164429,6,0,L|383:213,1,143.000004364014,10|8,0:2|0:2,0:0:0:0:
448,150,164829,1,0,0:2:0:0:
377,78,164962,2,0,L|302:92,1,71.5000021820069,10|8,0:2|0:2,0:0:0:0:
217,43,165229,1,8,0:2:0:0:
217,43,165362,1,8,0:2:0:0:
125,83,165495,6,0,B|101:132|101:132|150:218,1,143.000004364014,14|0,0:2|0:0,0:0:0:0:
44,213,165895,2,0,B|87:289|87:289|63:338,1,143.000004364014,14|0,0:2|0:0,0:0:0:0:
157,375,166295,2,0,L|191:297,1,71.5000021820069,14|0,0:2|0:2,0:0:0:0:
235,222,166562,1,14,0:2:0:0:
372,48,167629,6,0,P|416:27|506:53,2,130,6|10|2,0:2|0:2|0:2,0:2:0:0:
319,121,168295,2,0,L|337:192,1,65,0|10,0:2|0:2,0:0:0:0:
420,215,168562,2,0,L|288:257,1,130,6|0,0:2|0:2,0:2:0:0:
246,331,168962,1,10,0:2:0:0:
65,305,169229,6,0,P|93:280|134:269,1,65,2|0,0:2|0:2,0:2:0:0:
117,179,169495,2,0,P|154:181|191:202,1,65,10|0,0:2|0:2,0:2:0:0:
263,249,169762,6,0,B|275:187|275:187|271:180|271:180|285:108,2,130,6|10|2,0:2|0:2|0:2,0:2:0:0:
320,319,170429,2,0,P|371:324|393:313,1,65,0|10,0:2|0:2,0:0:0:0:
449,258,170695,2,0,P|471:198|438:137,1,130,6|0,0:2|0:2,0:2:0:0:
367,90,171095,1,10,0:2:0:0:
200,165,171362,6,0,L|125:157,1,65,10|0,0:2|0:2,0:2:0:0:
43,88,171629,2,0,L|80:80,3,32.5,10|8|4|4,0:2|0:3|0:3|0:3,0:2:0:0:
104,46,171895,6,0,B|179:41|164:78|227:80,2,130,6|10|2,0:2|0:2|0:2,0:2:0:0:
15,205,172695,1,10,0:2:0:0:
77,271,172829,2,0,B|137:289|137:289|207:247,1,130,6|0,0:2|0:2,0:2:0:0:
248,180,173229,1,10,0:2:0:0:
418,242,173495,6,0,L|410:321,1,65,2|0,0:2|0:2,0:2:0:0:
502,318,173762,2,0,L|508:253,1,65,10|0,0:2|0:2,0:2:0:0:
447,165,174029,6,0,P|456:105|525:72,2,130,2|10|2,0:2|0:2|0:2,0:2:0:0:
365,204,174695,2,0,L|288:194,1,65,0|10,0:2|0:2,0:0:0:0:
229,138,174962,2,0,B|176:141|176:141|156:154|156:154|91:157,1,130,6|0,0:2|0:2,0:2:0:0:
17,124,175362,1,10,0:2:0:0:
9,306,175629,6,0,P|54:324|90:319,1,65,10|0,0:2|0:2,0:2:0:0:
176,263,175895,2,0,L|135:267,3,32.5,10|8|8|8,0:2|0:2|0:2|0:2,0:2:0:0:
101,246,176162,6,0,L|117:104,2,130,6|10|2,0:2|0:2|0:2,0:2:0:0:
189,222,176829,2,0,P|200:180|192:146,1,65,0|10,0:2|0:2,0:0:0:0:
183,69,177095,2,0,B|260:60|240:97|328:81,1,130,6|0,0:2|0:2,0:2:0:0:
385,31,177495,1,10,0:2:0:0:
500,172,177762,2,0,L|484:252,1,65,2|0,0:2|0:2,0:2:0:0:
395,230,178029,2,0,L|379:310,1,65,10|0,0:2|0:2,0:2:0:0:
297,262,178295,6,0,P|246:244|232:160,2,130,2|10|2,0:2|0:2|0:2,0:2:0:0:
323,174,178962,2,0,B|337:146|337:146|335:98,1,65,0|10,0:2|0:2,0:0:0:0:
325,21,179229,2,0,B|256:14|276:60|183:47,1,130,6|2,0:2|0:2,0:2:0:0:
112,24,179629,2,0,L|117:109,1,65,10|0,0:2|0:2,0:2:0:0:
184,147,179895,6,0,P|182:195|168:222,1,65,10|0,0:2|0:2,0:2:0:0:
246,268,180162,2,0,P|210:300|181:309,1,65,10|4,0:2|0:3,0:2:0:0:
110,338,180428,6,0,B|171:347|171:347|178:344|178:344|242:357,2,130,6|10|2,0:2|0:2|0:2,0:2:0:0:
39,279,181095,2,0,P|35:237|47:201,1,65,0|10,0:2|0:2,0:0:0:0:
48,124,181362,2,0,P|93:132|123:216,1,130,6|2,0:2|0:2,0:2:0:0:
200,256,181762,2,0,P|238:255|280:243,1,65,10|0,0:2|0:2,0:2:0:0:
325,181,182029,6,0,L|319:102,1,65,2|0,0:2|0:2,0:2:0:0:
310,30,182295,1,10,0:2:0:0:
310,30,182429,1,0,0:2:0:0:
221,36,182562,6,0,P|177:48|136:188,1,195,8|0,0:2|0:2,0:2:0:0:
209,236,183095,1,8,0:2:0:0:
169,321,183229,2,0,L|29:307,1,130,0|0,0:2|0:2,0:0:0:0:
6,219,183629,6,0,L|16:164,3,32.5,14|0|0|0,0:2|0:0|0:2|0:0,0:2:0:0:
46,155,183895,2,0,L|36:100,3,32.5,8|0|0|0,0:2|0:0|0:2|0:0,0:2:0:0:
8,91,184162,2,0,L|18:36,3,32.5,12|8|8|8,0:2|0:2|0:2|0:2,0:0:0:0:
49,33,184429,2,0,L|39:-22,3,32.5,8|8|8|8,0:2|0:2|0:2|0:2,0:0:0:0:
87,61,184695,6,0,L|158:55,1,71.5000021820069,6|0,0:2|0:0,0:2:0:0:
234,0,184962,2,0,L|305:5,1,71.5000021820069,10|8,0:2|0:2,0:0:0:0:
398,39,185229,2,0,P|394:86|305:131,1,143.000004364014,10|10,0:3|0:2,0:2:0:0:
217,140,185629,6,0,P|222:195|243:222,1,71.5000021820069,6|0,0:3|0:2,0:2:0:0:
239,307,185895,2,0,P|289:330|323:325,1,71.5000021820069,2|8,0:2|0:2,0:2:0:0:
395,374,186163,2,0,P|440:342|453:310,1,71.5000021820069,6|0,0:3|0:2,0:2:0:0:
507,249,186429,2,0,P|498:205|475:175,1,71.5000021820069,2|8,0:2|0:2,0:2:0:0:
483,83,186695,1,2,0:2:0:0:
395,132,186829,6,0,L|313:123,1,71.5000021820069,6|0,0:2|0:2,0:2:0:0:
250,56,187095,2,0,L|178:63,1,71.5000021820069,8|10,0:2|0:2,0:0:0:0:
82,35,187362,2,0,P|67:109|106:176,1,143.000004364014,10|8,0:3|0:2,0:2:0:0:
126,262,187762,6,0,L|193:235,1,71.5000021820069,6|0,0:3|0:2,0:2:0:0:
337,268,188029,2,0,L|271:297,1,71.5000021820069,2|8,0:2|0:2,0:2:0:0:
328,169,188295,2,0,L|395:142,1,71.5000021820069,6|0,0:3|0:2,0:2:0:0:
453,14,188562,2,0,L|386:41,1,71.5000021820069,2|8,0:2|0:2,0:2:0:0:
295,83,188829,1,10,0:2:0:0:
231,6,188962,6,0,P|192:55|212:141,1,143.000004364014,6|10,0:2|0:2,0:2:0:0:
105,148,189362,2,0,P|128:205|213:231,1,143.000004364014,10|2,0:2|0:2,0:2:0:0:
153,323,189762,2,0,P|214:331|279:271,1,143.000004364014,10|0,0:2|0:2,0:2:0:0:
283,183,190162,1,0,0:2:0:0:
278,83,190295,6,0,P|325:87|367:122,1,71.5000021820069,10|0,0:2|0:2,0:2:0:0:
386,6,190562,2,0,P|416:42|421:96,1,71.5000021820069,2|0,0:2|0:2,0:2:0:0:
512,46,190829,2,0,P|508:93|473:135,1,71.5000021820069,8|0,0:2|0:0,0:2:0:0:
470,210,191095,6,0,L|311:184,1,143.000004364014,6|10,0:2|0:2,0:2:0:0:
315,87,191495,2,0,L|184:181,1,143.000004364014,2|2,0:2|0:2,0:2:0:0:
119,109,191895,2,0,L|93:268,1,143.000004364014,10|0,0:2|0:2,0:2:0:0:
72,348,192295,1,0,0:2:0:0:
170,369,192429,6,0,L|256:355,1,71.5000021820069,10|0,0:2|0:2,0:2:0:0:
203,264,192695,2,0,L|253:193,1,71.5000021820069,10|2,0:2|0:2,0:0:0:0:
301,123,192962,2,0,L|327:82,3,35.7500010910034,8|8|4|4,0:2|0:3|0:3|0:3,0:0:0:0:
354,54,193229,6,0,P|390:44|435:53,1,71.5000021820069,6|0,0:2|0:2,0:2:0:0:
482,129,193496,2,0,L|472:208,1,71.5000021820069,10|8,0:2|0:2,0:0:0:0:
509,283,193762,2,0,P|481:255|372:272,1,143.000004364014,10|10,0:3|0:2,0:2:0:0:
326,342,194162,6,0,L|241:333,1,71.5000021820069,6|0,0:3|0:2,0:2:0:0:
209,244,194429,2,0,L|280:251,1,71.5000021820069,2|8,0:2|0:2,0:2:0:0:
255,154,194695,2,0,L|170:145,1,71.5000021820069,6|0,0:3|0:2,0:2:0:0:
138,56,194962,2,0,L|209:63,1,71.5000021820069,2|8,0:2|0:2,0:2:0:0:
293,8,195229,1,2,0:2:0:0:
366,75,195362,6,0,P|377:120|370:157,1,71.5000021820069,6|0,0:2|0:2,0:2:0:0:
307,219,195629,2,0,L|225:223,1,71.5000021820069,8|10,0:2|0:2,0:0:0:0:
150,274,195895,2,0,B|121:208|121:208|146:134,1,143.000004364014,10|8,0:3|0:2,0:2:0:0:
199,57,196295,6,0,P|159:41|123:48,1,71.5000021820069,6|0,0:3|0:2,0:2:0:0:
143,140,196562,2,0,P|183:156|219:149,1,71.5000021820069,2|8,0:2|0:2,0:2:0:0:
285,85,196829,2,0,P|320:82|352:97,1,71.5000021820069,6|0,0:3|0:2,0:2:0:0:
363,193,197096,2,0,P|327:195|295:180,1,71.5000021820069,2|8,0:2|0:2,0:2:0:0:
222,247,197362,1,10,0:2:0:0:
278,341,197495,6,0,P|330:280|403:276,1,143.000004364014,6|10,0:2|0:2,0:2:0:0:
489,268,197895,2,0,P|410:253|370:192,1,143.000004364014,10|2,0:2|0:2,0:2:0:0:
320,120,198295,2,0,P|346:195|313:260,1,143.000004364014,10|0,0:2|0:2,0:2:0:0:
226,275,198695,1,0,0:2:0:0:
197,178,198829,6,0,P|162:152|124:152,1,71.5000021820069,10|0,0:2|0:2,0:2:0:0:
41,184,199095,2,0,P|81:166|100:133,1,71.5000021820069,2|0,0:2|0:2,0:2:0:0:
112,45,199362,2,0,P|106:88|125:121,1,71.5000021820069,8|0,0:2|0:0,0:2:0:0:
209,69,199629,6,0,L|362:125,1,143.000004364014,6|10,0:2|0:2,0:2:0:0:
434,76,200029,2,0,L|309:180,1,143.000004364014,2|2,0:2|0:2,0:2:0:0:
306,266,200429,2,0,L|277:105,1,143.000004364014,10|0,0:2|0:2,0:2:0:0:
184,150,200829,1,0,0:2:0:0:
93,192,200962,2,0,L|72:275,1,71.5000021820069,10|0,0:2|0:2,0:2:0:0:
33,352,201229,2,0,L|50:282,1,71.5000021820069,10|8,0:2|0:3,0:0:0:0:
157,305,201495,2,0,L|218:321,3,35.7500010910034,6|0|4|0,0:3|0:0|0:3|0:0,0:0:0:0:
235,339,201762,6,0,B|326:337|284:298|385:299,1,143.000004364014,2|8,0:2|0:2,0:2:0:0:
463,347,202162,1,2,0:2:0:0:
463,347,202295,2,0,B|478:309|478:309|468:273,1,71.5000021820069,8|0,0:2|0:2,0:2:0:0:
405,201,202562,2,0,B|414:133|414:133|411:130|411:130|423:45,1,143.000004364014,10|8,0:2|0:2,0:2:0:0:
334,8,202962,1,0,0:2:0:0:
250,61,203095,6,0,L|211:128,1,71.5000021820069,10|0,0:2|0:2,0:2:0:0:
113,114,203362,2,0,L|132:188,1,71.5000021820069,10|0,0:2|0:2,0:2:0:0:
59,253,203629,2,0,L|125:291,1,71.5000021820069,10|0,0:2|0:2,0:2:0:0:
204,343,203895,6,0,P|238:307|228:202,1,143.000004364014,14|8,0:2|0:2,0:2:0:0:
338,212,204295,2,0,P|323:164|227:120,1,143.000004364014,2|0,0:2|0:2,0:0:0:0:
156,164,204695,2,0,P|109:180|70:177,1,71.5000021820069,10|0,0:2|0:2,0:2:0:0:
43,89,204962,6,0,L|194:67,1,143.000004364014,10|8,0:2|0:2,0:2:0:0:
267,12,205362,1,0,0:2:0:0:
349,68,205495,2,0,L|333:146,1,71.5000021820069,10|8,0:2|0:3,0:2:0:0:
245,185,205762,2,0,L|261:263,1,71.5000021820069,4|4,0:3|0:3,0:0:0:0:
225,349,206029,6,0,P|257:298|346:284,1,143.000004364014,2|8,0:2|0:2,0:2:0:0:
422,328,206429,2,0,P|433:285|426:242,1,71.5000021820069,2|8,0:2|0:2,0:0:0:0:
377,174,206695,1,0,0:2:0:0:
377,174,206829,2,0,B|317:173|317:173|297:192|297:192|226:195,1,143.000004364014,10|8,0:2|0:2,0:2:0:0:
160,253,207229,2,0,B|137:185|137:185|175:108,1,143.000004364014,0|0,0:2|0:2,0:0:0:0:
168,20,207629,6,0,P|209:19|243:42,1,71.5000021820069,10|0,0:2|0:2,0:2:0:0:
330,6,207895,2,0,P|351:41|348:81,1,71.5000021820069,10|0,0:2|0:2,0:2:0:0:
437,124,208162,6,0,B|427:192|427:192|429:197|429:197|420:267,1,143.000004364014,14|8,0:2|0:2,0:2:0:0:
348,335,208562,1,2,0:2:0:0:
348,335,208695,2,0,P|304:344|275:336,1,71.5000021820069,8|0,0:2|0:2,0:2:0:0:
297,238,208962,2,0,P|259:213|244:187,1,71.5000021820069,10|0,0:2|0:2,0:2:0:0:
242,90,209229,2,0,P|201:67|108:104,1,143.000004364014,10|8,0:2|0:2,0:0:0:0:
43,166,209629,1,0,0:2:0:0:
106,243,209762,2,0,L|111:324,1,71.5000021820069,10|8,0:2|0:2,0:0:0:0:
194,369,210029,1,8,0:2:0:0:
194,369,210162,1,8,0:2:0:0:
293,363,210295,6,0,L|333:215,1,143.000004364014,14|0,0:2|0:0,0:0:0:0:
430,227,210695,2,0,L|353:94,1,143.000004364014,14|0,0:2|0:0,0:0:0:0:
385,5,211095,2,0,L|299:8,1,71.5000021820069,14|0,0:2|0:2,0:0:0:0:
213,11,211362,1,14,0:2:0:0:
75,156,211629,1,0,0:2:0:0:
153,339,211895,2,0,L|234:327,1,71.5000021820069,0|0,0:2|0:0,0:0:0:0:
309,252,212162,2,0,L|273:249,3,35.7500010910034,0|8|4|4,0:2|0:3|0:3|0:3,0:0:0:0:
232,242,212429,6,0,P|235:188|147:133,1,143.000004364014,14|0,0:2|0:0,0:0:0:0:
99,63,212829,2,0,P|42:102|39:171,1,143.000004364014,14|0,0:2|0:0,0:0:0:0:
113,239,213229,2,0,B|118:254|118:254|105:298|105:298|119:325,1,71.5000021820069,14|0,0:2|0:2,0:0:0:0:
188,368,213495,1,14,0:2:0:0:
334,230,213762,1,0,0:2:0:0:
239,53,214029,2,0,L|150:63,1,71.5000021820069,0|0,0:2|0:0,0:0:0:0:
331,14,214295,2,0,L|378:21,3,35.7500010910034,8|8|8|8,0:2|0:2|0:2|0:2,0:0:0:0:
414,32,214562,6,0,P|432:80|392:163,1,143.000004364014,14|0,0:2|0:0,0:0:0:0:
495,176,214962,2,0,P|473:222|386:253,1,143.000004364014,14|0,0:2|0:0,0:0:0:0:
391,354,215362,2,0,P|349:343|324:314,1,71.5000021820069,14|0,0:2|0:2,0:0:0:0:
299,227,215629,1,14,0:2:0:0:
122,132,215895,2,0,B|85:127|85:127|38:146,1,71.5000021820069,0|0,0:2|0:0,0:0:0:0:
4,226,216162,1,4,0:2:0:0:
256,192,216229,12,0,222295,0:0:0:0:
