osu file format v14

[General]
AudioFilename: audio.mp3
AudioLeadIn: 0
PreviewTime:86229
Countdown: 0
SampleSet: Normal
StackLeniency: 0.7
Mode: 0
LetterboxInBreaks: 0
WidescreenStoryboard: 1

[Editor]
Bookmarks: 52429,69495,74962,86295,97229,110029,127095,144162,167629,183629,201762
DistanceSpacing: 1.2
BeatDivisor: 4
GridSize: 16
TimelineZoom: 2

[Metadata]
Title:Houkago Stride
TitleUnicode:放課後ストライド
Artist:Kano
ArtistUnicode:鹿乃
Creator:Nevo
Version:Collab Insane
Source:ミカグラ学園組曲
Tags:nelliel kowari astonic lugu hikan after school stride last note cover japanese anime novelty pop rock utaite note. mikagura gakuen kumikyoku suite
BeatmapID:2414018
BeatmapSetID:1118779

[Difficulty]
HPDrainRate:5
CircleSize:3.6
OverallDifficulty:8.5
ApproachRate:9
SliderMultiplier:1.5
SliderTickRate:1

[Events]
//Background and Video events
0,0,"a2c1780b450ab7a74d8ce1eab8a166e67bf9663e_s2_n2.jpg",0,0
Video,0,"phosmapissupercute.mp4"
//Break Periods
2,110029,113429
//Storyboard Layer 0 (Background)
//Storyboard Layer 1 (Fail)
//Storyboard Layer 2 (Pass)
//Storyboard Layer 3 (Foreground)
//Storyboard Layer 4 (Overlay)
//Storyboard Sound Samples

[TimingPoints]
1229,266.666666666667,4,2,22,80,1,0
7629,-133.333333333333,4,2,22,80,0,0
7895,-133.333333333333,4,2,22,80,0,0
8162,-133.333333333333,4,2,22,80,0,0
8428,-133.333333333333,4,2,22,80,0,0
8695,-133.333333333333,4,2,22,80,0,0
8961,-133.333333333333,4,2,22,80,0,0
9229,-133.333333333333,4,2,22,80,0,0
9762,-100,4,1,22,80,0,0
9895,-100,4,1,22,80,0,0
9962,-100,4,1,22,5,0,0
10029,-100,4,1,22,80,0,0
12095,-100,4,1,22,5,0,0
12162,-100,4,1,22,80,0,0
24895,-100,4,1,22,5,0,0
24962,-100,4,1,22,80,0,0
26829,-125,4,1,22,70,0,0
35562,-125,4,1,22,5,0,0
35629,-125,4,1,22,70,0,0
36028,-125,4,1,22,70,0,0
36162,-125,4,1,22,70,0,0
43895,-100,4,1,22,80,0,0
44028,-100,4,1,22,80,0,0
44095,-100,4,1,22,5,0,0
44162,-100,4,1,22,80,0,0
46229,-100,4,1,22,5,0,0
46296,-100,4,1,22,80,0,0
50495,-100,4,1,22,80,0,0
50562,-100,4,1,22,80,0,0
52429,-125,4,1,22,70,0,0
53095,-125,4,1,22,70,0,0
53229,-125,4,1,22,70,0,0
56695,-125,4,1,22,70,0,0
56828,-125,4,1,22,70,0,0
56962,-125,4,1,22,70,0,0
58829,-100,4,1,22,70,0,0
60562,-100,4,1,22,70,0,0
60695,-100,4,1,22,70,0,0
60828,-100,4,1,22,70,0,0
60962,-100,4,1,22,70,0,0
61628,-100,4,1,22,70,0,0
61762,-100,4,1,22,70,0,0
69495,-166.666666666667,4,1,22,60,0,0
74828,-166.666666666667,4,1,22,60,0,0
74962,-166.666666666667,4,1,22,60,0,0
76961,-166.666666666667,4,1,22,60,0,0
77095,-166.666666666667,4,1,22,60,0,0
78029,-100,4,1,22,70,0,0
84429,-100,4,1,22,80,0,0
86162,-100,4,1,22,80,0,0
86295,-100,4,1,22,80,0,0
86428,-100,4,1,22,80,0,0
86495,-100,4,1,22,5,0,0
86562,-66.6666666666667,4,1,22,90,0,1
86762,-66.6666666666667,4,1,22,90,0,1
86829,-83.3333333333333,4,1,22,90,0,1
89428,-83.3333333333333,4,1,22,90,0,1
89495,-83.3333333333333,4,1,22,90,0,1
92828,-83.3333333333333,4,1,22,90,0,1
92895,-83.3333333333333,4,1,22,5,0,1
92962,-83.3333333333333,4,1,22,90,0,1
97895,-83.3333333333333,4,1,22,90,0,1
98029,-83.3333333333333,4,1,22,90,0,1
101362,-83.3333333333333,4,1,22,90,0,1
101495,-83.3333333333333,4,1,22,90,0,1
110029,-125,4,2,22,60,0,0
113962,-125,4,2,22,5,0,0
114029,-125,4,2,22,60,0,0
114295,-100,4,1,22,70,0,0
118229,-100,4,1,22,70,0,0
118295,-100,4,1,22,70,0,0
118495,-100,4,1,22,70,0,0
118562,-125,4,1,22,70,0,0
122428,-125,4,1,22,70,0,0
122495,-125,4,1,22,5,0,0
122562,-125,4,1,22,70,0,0
122829,-100,4,1,22,70,0,0
126762,-100,4,1,22,70,0,0
126829,-100,4,1,22,70,0,0
127029,-100,4,1,22,70,0,0
127095,-166.666666666667,4,1,22,60,0,0
132428,-166.666666666667,4,1,22,60,0,0
132562,-166.666666666667,4,1,22,60,0,0
134561,-166.666666666667,4,1,22,60,0,0
134695,-166.666666666667,4,1,22,60,0,0
135629,-125,4,1,22,70,0,0
142029,-83.3333333333333,4,1,22,80,0,0
143495,-83.3333333333333,4,1,22,80,0,0
143629,-83.3333333333333,4,1,22,80,0,0
144162,-66.6666666666667,4,1,22,90,0,1
144362,-66.6666666666667,4,1,22,90,0,1
144429,-83.3333333333333,4,1,22,90,0,1
146494,-83.3333333333333,4,1,22,90,0,1
146562,-83.3333333333333,4,1,22,90,0,1
146962,-83.3333333333333,4,1,22,90,0,1
147095,-83.3333333333333,4,1,22,90,0,1
150428,-83.3333333333333,4,1,22,90,0,1
150562,-83.3333333333333,4,1,22,90,0,1
155495,-83.3333333333333,4,1,22,90,0,1
155629,-83.3333333333333,4,1,22,90,0,1
158962,-83.3333333333333,4,1,22,90,0,1
159095,-83.3333333333333,4,1,22,90,0,1
166562,-83.3333333333333,4,1,22,70,0,0
167629,-100,4,1,22,70,0,0
167829,-100,4,1,22,5,0,0
167895,-100,4,1,22,70,0,0
169962,-100,4,1,22,5,0,0
170029,-100,4,1,22,70,0,0
172028,-100,4,1,22,70,0,0
172095,-100,4,1,22,5,0,0
172162,-100,4,1,22,70,0,0
174229,-100,4,1,22,5,0,0
174296,-100,4,1,22,70,0,0
178495,-100,4,1,22,5,0,0
178562,-100,4,1,22,70,0,0
180629,-100,4,1,22,5,0,0
180696,-100,4,1,22,70,0,0
182562,-100,4,1,22,80,0,0
183695,-100,4,1,22,80,0,0
183762,-100,4,1,22,80,0,0
183829,-100,4,1,22,80,0,0
183895,-100,4,1,22,80,0,0
183961,-100,4,1,22,80,0,0
184028,-100,4,1,22,80,0,0
184095,-100,4,1,22,80,0,0
184162,-100,4,1,22,80,0,0
184829,-100,4,1,22,80,0,0
184962,-76.9230769230769,4,1,22,90,0,1
187495,-76.9230769230769,4,1,22,90,0,1
187629,-76.9230769230769,4,1,22,90,0,1
190962,-76.9230769230769,4,1,22,90,0,1
191095,-76.9230769230769,4,1,22,90,0,1
196029,-76.9230769230769,4,1,22,90,0,1
196162,-76.9230769230769,4,1,22,90,0,1
199495,-76.9230769230769,4,1,22,90,0,1
199629,-76.9230769230769,4,1,22,90,0,1
205095,-76.9230769230769,4,1,22,90,0,1
205229,-76.9230769230769,4,1,22,90,0,1
211495,-76.9230769230769,4,1,22,90,0,1
211629,-76.9230769230769,4,1,22,90,0,1
211762,-76.9230769230769,4,1,22,90,0,1
211895,-76.9230769230769,4,1,22,90,0,1
212028,-76.9230769230769,4,1,22,90,0,1
212162,-76.9230769230769,4,1,22,90,0,1
213628,-76.9230769230769,4,1,22,90,0,1
213762,-76.9230769230769,4,1,22,90,0,1
213895,-76.9230769230769,4,1,22,90,0,1
214029,-76.9230769230769,4,1,22,90,0,1
214162,-76.9230769230769,4,1,22,90,0,1
214295,-76.9230769230769,4,1,22,90,0,1
215762,-76.9230769230769,4,1,22,90,0,1
215895,-76.9230769230769,4,1,22,90,0,1
216028,-76.9230769230769,4,1,22,90,0,1
216162,-76.9230769230769,4,1,22,80,0,0
216229,-76.9230769230769,4,1,22,60,0,0
222295,-76.9230769230769,4,1,22,30,0,0

[Colours]
Combo1 : 131,189,254
Combo2 : 255,128,128
Combo3 : 253,197,2
Combo4 : 124,80,67

[HitObjects]
365,324,1229,5,6,1:2:0:0:
78,208,3095,5,2,1:2:0:0:
109,307,3362,1,6,1:2:0:0:
367,74,5229,5,2,1:2:0:0:
358,189,5495,1,6,1:2:0:0:
81,48,7362,5,0,1:2:0:0:
90,171,7629,6,0,P|138:186|208:157,1,112.500004291535,6|0,1:2|0:0,0:2:0:0:
238,288,8162,2,0,P|282:264|311:194,1,112.500004291535,6|0,1:2|0:0,0:2:0:0:
425,266,8695,2,0,P|440:217|410:148,1,112.5,6|0,1:2|0:0,0:2:0:0:
243,28,9229,5,4,1:3:0:0:
237,55,9295,1,4,1:3:0:0:
232,83,9362,1,4,1:3:0:0:
226,110,9428,1,4,1:3:0:0:
220,139,9495,2,0,L|206:61,1,56.2500021457673,8|0,1:2|0:2,0:2:0:0:
60,212,9762,6,0,P|107:194|153:197,1,75,6|0,0:2|0:0,0:2:0:0:
169,346,10029,2,0,P|134:361|97:365,1,75,10|0,0:2|0:2,0:2:0:0:
205,261,10295,1,2,0:2:0:0:
258,334,10429,1,0,0:2:0:0:
110,279,10562,1,10,0:2:0:0:
290,248,10695,6,0,P|371:225|469:246,1,150,6|0,0:2|0:2,0:2:0:0:
501,334,11095,2,0,L|514:250,1,75,10|0,0:2|0:2,0:2:0:0:
423,158,11362,2,0,L|436:242,1,75,2|0,0:2|0:2,0:2:0:0:
480,86,11629,2,0,P|431:66|392:72,1,75,10|0,0:2|0:2,0:2:0:0:
273,142,11895,6,0,L|437:159,2,150,2|10|2,0:2|0:2|0:2,0:2:0:0:
195,70,12562,1,0,0:2:0:0:
150,156,12695,1,10,0:2:0:0:
70,68,12829,6,0,P|92:111|98:222,1,150,6|0,0:2|0:2,0:2:0:0:
34,318,13229,2,0,B|19:233,1,75,10|0,0:2|0:2,0:2:0:0:
162,289,13495,2,0,B|147:374,1,75,10|0,0:2|0:2,0:2:0:0:
293,263,13762,1,10,0:2:0:0:
293,263,13829,1,4,0:3:0:0:
293,263,13895,1,4,0:3:0:0:
181,179,14029,6,0,L|94:195,1,75,6|0,1:2|0:2,0:0:0:0:
256,121,14295,2,0,L|343:137,1,75,10|0,0:2|0:2,0:2:0:0:
494,173,14562,1,2,0:2:0:0:
433,74,14695,1,0,0:2:0:0:
433,74,14829,1,10,0:2:0:0:
397,206,14962,6,0,P|400:276|413:373,1,150,6|0,0:2|0:2,0:2:0:0:
317,291,15362,2,0,L|228:281,1,75,10|0,0:2|0:2,0:2:0:0:
126,366,15629,2,0,L|215:356,1,75,2|0,0:2|0:2,0:2:0:0:
94,219,15895,1,10,0:2:0:0:
68,299,16029,1,0,0:2:0:0:
178,185,16162,6,0,L|282:199,1,75,2|0,0:2|0:2,0:2:0:0:
103,120,16429,2,0,L|-1:134,1,75,10|0,0:2|0:2,0:2:0:0:
124,34,16695,1,2,0:2:0:0:
188,96,16829,1,0,0:2:0:0:
39,58,16962,1,10,0:2:0:0:
211,11,17095,6,0,P|270:57|268:134,1,150,6|0,0:2|0:2,0:2:0:0:
240,219,17495,2,0,L|345:203,1,75,10|0,0:2|0:2,0:2:0:0:
373,310,17762,2,0,L|268:294,1,75,2|0,0:2|0:2,0:2:0:0:
502,165,18029,1,8,0:2:0:0:
512,197,18095,1,8,0:2:0:0:
512,234,18162,1,8,0:2:0:0:
502,267,18229,1,8,0:2:0:0:
473,290,18295,6,0,L|457:374,1,75,6|0,0:2|0:2,0:2:0:0:
368,218,18562,2,0,L|352:134,1,75,10|0,0:2|0:2,0:2:0:0:
325,33,18829,1,2,0:2:0:0:
261,107,18962,1,0,0:2:0:0:
192,30,19095,1,10,0:2:0:0:
152,165,19229,6,0,P|129:257|121:316,1,150,6|0,0:2|0:2,0:2:0:0:
181,383,19629,2,0,L|255:372,1,75,10|0,0:2|0:2,0:2:0:0:
402,324,19895,2,0,L|327:313,1,75,2|0,0:2|0:2,0:2:0:0:
182,254,20162,2,0,L|257:243,1,75,10|0,0:2|0:2,0:2:0:0:
247,36,20429,6,0,P|207:66|212:166,1,150,2|10,0:2|0:2,0:2:0:0:
285,112,20829,1,0,0:2:0:0:
159,85,20962,2,0,B|49:96|49:96|22:151,1,150,2|10,0:2|0:2,0:2:0:0:
115,253,21362,2,0,P|120:203|109:175,1,75,6|0,0:2|0:2,0:2:0:0:
37,295,21629,1,0,0:2:0:0:
37,295,21762,2,0,L|54:371,1,75,10|0,0:2|0:2,0:2:0:0:
199,318,22029,2,0,L|210:240,1,75,10|0,0:2|0:2,0:2:0:0:
267,101,22295,1,8,0:2:0:0:
303,108,22362,1,8,0:2:0:0:
331,132,22428,1,8,0:2:0:0:
344,167,22495,1,8,0:2:0:0:
346,206,22562,6,0,L|332:312,1,75,6|0,0:2|0:2,0:2:0:0:
462,220,22829,2,0,L|452:146,1,75,10|0,0:2|0:2,0:2:0:0:
422,44,23095,1,2,0:2:0:0:
422,44,23229,1,0,0:2:0:0:
344,117,23362,1,10,0:2:0:0:
236,30,23495,6,0,B|202:16|157:42|157:42|117:65|72:48,1,150,6|0,0:2|0:2,0:2:0:0:
214,116,23895,2,0,P|201:151|177:179,1,75,10|0,0:2|0:2,0:2:0:0:
72,189,24162,2,0,P|98:221|109:262,1,75,2|0,0:2|0:2,0:2:0:0:
72,346,24429,2,0,L|175:339,1,75,10|0,0:2|0:2,0:2:0:0:
295,236,24695,6,0,L|276:399,2,150,2|10|2,0:2|0:2|0:2,0:2:0:0:
358,160,25362,1,0,0:2:0:0:
443,212,25495,1,10,0:2:0:0:
426,86,25629,6,0,B|376:61|376:61|275:79,1,150,6|0,0:2|0:2,0:2:0:0:
163,161,26029,2,0,L|237:172,1,75,10|0,0:2|0:2,0:2:0:0:
158,61,26295,2,0,L|83:72,1,75,10|0,0:2|0:2,0:2:0:0:
0,164,26562,1,8,0:2:0:0:
9,199,26628,1,8,0:2:0:0:
31,229,26695,1,8,0:2:0:0:
61,251,26762,1,8,0:2:0:0:
96,259,26829,6,0,L|85:333,1,60,6|0,0:2|0:2,0:2:0:0:
161,382,27095,2,0,L|169:322,1,60,8|2,0:2|0:2,0:0:0:0:
194,229,27362,2,0,P|268:227|306:278,1,120,2|8,0:2|0:2,0:2:0:0:
344,335,27762,6,0,P|394:345|458:291,1,120,2|0,0:2|0:2,0:2:0:0:
480,224,28162,2,0,L|487:158,1,60,10|2,0:2|0:2,0:0:0:0:
385,122,28429,2,0,L|392:188,1,60,2|0,0:2|0:2,0:2:0:0:
446,55,28695,2,0,P|423:41|384:32,1,60,10|0,0:2|0:2,0:2:0:0:
325,118,28962,6,0,L|407:123,1,60,2|2,0:2|0:2,0:0:0:0:
274,47,29229,2,0,L|214:50,1,60,10|2,0:2|0:2,0:0:0:0:
93,66,29495,2,0,P|135:106|142:164,1,120,2|10,0:2|0:2,0:2:0:0:
113,258,29895,6,0,L|197:243,1,60,2|0,0:2|0:2,0:2:0:0:
282,330,30162,1,2,0:2:0:0:
282,330,30295,2,0,L|215:319,1,60,10|2,0:2|0:2,0:0:0:0:
273,231,30562,1,2,0:2:0:0:
273,231,30695,1,2,0:2:0:0:
357,288,30829,2,0,L|419:276,1,60,10|10,0:2|0:2,0:0:0:0:
455,151,31095,6,0,P|410:180|338:161,1,120,6|8,0:2|0:2,0:2:0:0:
266,56,31495,2,0,L|272:137,1,60,2|2,0:2|0:2,0:0:0:0:
163,226,31762,2,0,L|186:99,1,120,2|2,0:2|0:2,0:2:0:0:
68,182,32162,1,2,0:2:0:0:
68,182,32295,2,0,L|80:321,1,120,2|2,0:2|0:2,0:2:0:0:
185,377,32695,2,0,L|195:309,1,60,2|0,0:2|0:2,0:2:0:0:
321,316,32962,2,0,L|311:248,1,60,10|0,0:2|0:2,0:2:0:0:
253,176,33229,6,0,P|301:207|378:197,1,120,14|10,0:2|0:3,0:0:0:0:
460,157,33629,2,0,L|441:293,1,120,14|6,0:2|0:3,0:0:0:0:
323,119,34029,2,0,L|306:-15,1,120,14|6,0:2|0:3,0:0:0:0:
227,70,34429,2,0,P|181:100|110:74,1,120,14|10,0:2|0:3,0:0:0:0:
35,54,34829,6,0,L|43:133,1,60,14|0,0:2|0:2,0:2:0:0:
98,237,35095,2,0,L|106:158,1,60,14|0,0:2|0:2,0:2:0:0:
293,200,35362,6,0,P|230:191|176:237,1,120,6|8,0:2|0:2,0:2:0:0:
246,340,35762,1,2,0:2:0:0:
246,340,35895,2,0,L|252:278,1,60,2|0,0:2|0:0,0:2:0:0:
377,180,36162,1,8,0:2:0:0:
377,180,36295,6,0,P|434:165|491:180,1,120,2|0,0:2|0:2,0:2:0:0:
441,311,36695,2,0,L|435:239,1,60,10|2,0:2|0:2,0:0:0:0:
476,140,36962,2,0,L|482:68,1,60,2|0,0:2|0:2,0:2:0:0:
415,19,37229,2,0,P|379:14|345:24,1,60,10|0,0:2|0:2,0:2:0:0:
299,83,37495,5,2,0:2:0:0:
299,83,37629,1,2,0:2:0:0:
205,64,37762,2,0,L|216:149,1,60,10|2,0:2|0:2,0:0:0:0:
291,178,38029,2,0,L|280:263,1,60,2|0,0:2|0:2,0:2:0:0:
263,325,38295,1,10,0:2:0:0:
167,266,38429,6,0,P|127:247|48:260,1,120,2|2,0:2|0:2,0:2:0:0:
44,350,38829,2,0,L|105:337,1,60,10|2,0:2|0:2,0:0:0:0:
182,384,39095,2,0,L|243:371,1,60,2|2,0:2|0:2,0:0:0:0:
294,298,39362,2,0,L|355:285,1,60,10|10,0:2|0:2,0:0:0:0:
426,221,39629,6,0,P|398:286|403:339,1,120,6|8,0:2|0:2,0:2:0:0:
497,292,40028,1,2,0:2:0:0:
512,192,40162,1,2,0:2:0:0:
512,192,40295,2,0,L|492:55,1,120,2|2,0:2|0:2,0:2:0:0:
394,10,40695,1,2,0:2:0:0:
394,10,40829,2,0,L|375:135,1,120,2|2,0:2|0:2,0:2:0:0:
306,196,41229,2,0,P|258:177|231:179,1,60,2|0,0:2|0:2,0:2:0:0:
192,243,41495,1,10,0:2:0:0:
192,243,41629,1,0,0:2:0:0:
87,149,41762,6,0,L|70:30,1,120,14|10,0:2|0:3,0:0:0:0:
172,155,42162,2,0,L|155:36,1,120,14|6,0:2|0:3,0:0:0:0:
366,101,42562,2,0,P|314:109|243:69,1,120,14|6,0:2|0:3,0:0:0:0:
425,39,42962,2,0,L|400:184,1,120,14|10,0:2|0:3,0:0:0:0:
351,231,43362,2,0,P|316:215|283:210,1,60,14|0,0:2|0:2,0:2:0:0:
197,190,43629,2,0,L|130:200,1,60,14|0,0:2|0:2,0:2:0:0:
64,297,43895,6,0,L|162:306,1,75,6|0,0:2|0:2,0:2:0:0:
256,359,44162,2,0,L|354:350,1,75,10|0,0:2|0:2,0:2:0:0:
356,222,44429,1,2,0:2:0:0:
289,272,44562,1,0,0:2:0:0:
428,307,44695,1,10,0:2:0:0:
428,307,44829,2,0,L|446:137,1,150,6|0,0:2|0:2,0:2:0:0:
343,62,45229,2,0,L|363:147,1,75,10|0,0:2|0:2,0:2:0:0:
248,73,45495,2,0,L|270:-4,1,75,2|0,0:2|0:2,0:2:0:0:
97,47,45762,2,0,P|149:37|192:60,1,75,10|0,0:2|0:2,0:2:0:0:
129,245,46029,6,0,B|107:167|107:167|130:126,1,112.5,2|0,0:2|0:2,0:2:0:0:
133,123,46295,2,0,L|151:195,1,75,10|0,0:2|0:2,0:2:0:0:
199,304,46562,1,2,0:2:0:0:
199,304,46695,1,0,0:2:0:0:
268,236,46829,1,10,0:2:0:0:
334,357,46962,6,0,P|243:327|177:336,1,150,6|0,0:2|0:2,0:2:0:0:
92,376,47362,2,0,L|104:298,1,75,10|0,0:2|0:2,0:2:0:0:
26,168,47629,2,0,L|38:246,1,75,10|0,0:2|0:2,0:2:0:0:
155,186,47895,1,8,0:2:0:0:
148,149,47961,1,8,0:2:0:0:
142,112,48028,1,8,0:2:0:0:
136,75,48094,1,8,0:2:0:0:
130,43,48162,6,0,P|173:26|234:30,1,75,6|0,0:2|0:2,0:2:0:0:
289,88,48429,2,0,P|336:94|378:79,1,75,10|0,0:2|0:2,0:2:0:0:
455,20,48695,1,2,0:2:0:0:
455,20,48829,1,0,0:2:0:0:
503,118,48962,1,10,0:2:0:0:
406,193,49095,6,0,L|312:180,1,75,6|0,0:2|0:2,0:2:0:0:
203,138,49362,1,2,0:2:0:0:
203,138,49495,2,0,L|109:151,1,75,10|0,0:2|0:2,0:2:0:0:
139,293,49762,2,0,P|165:261|172:218,1,75,2|0,0:2|0:2,0:2:0:0:
55,266,50029,2,0,L|68:355,1,75,8|0,0:2|0:2,0:0:0:0:
184,383,50295,6,0,P|234:351|297:360,1,112.5,2|0,0:2|0:2,0:2:0:0:
285,354,50562,2,0,L|295:274,1,75,10|0,0:2|0:2,0:2:0:0:
428,218,50829,2,0,L|438:298,1,75,2|0,0:2|0:2,0:2:0:0:
339,193,51095,1,10,0:2:0:0:
339,193,51229,6,0,P|276:178|177:177,1,150,6|0,0:2|0:2,0:2:0:0:
86,113,51629,2,0,P|135:108|163:101,1,75,10|0,0:2|0:2,0:2:0:0:
239,31,51895,1,10,0:2:0:0:
239,31,52029,1,0,0:2:0:0:
303,101,52162,2,0,P|323:106|342:110,1,37.5,10|8,0:2|0:2,0:0:0:0:
380,38,52295,2,0,P|400:33|419:29,1,37.5,8|8,0:2|0:2,0:0:0:0:
492,121,52429,6,0,L|497:184,1,60,6|0,0:2|0:2,0:2:0:0:
422,284,52695,2,0,L|417:221,1,60,8|2,0:2|0:2,0:0:0:0:
322,134,52962,1,2,0:2:0:0:
314,246,53095,1,0,0:0:0:0:
406,198,53229,1,8,0:2:0:0:
241,119,53362,6,0,P|203:107|105:107,1,120,2|0,0:2|0:2,0:2:0:0:
20,147,53762,2,0,L|29:216,1,60,10|2,0:2|0:2,0:0:0:0:
110,296,54029,1,2,0:2:0:0:
126,203,54162,1,0,0:2:0:0:
110,296,54295,2,0,L|116:362,1,60,10|0,0:2|0:2,0:2:0:0:
235,283,54562,6,0,P|242:247|234:211,1,60,2|2,0:2|0:2,0:0:0:0:
129,144,54829,2,0,P|122:180|130:216,1,60,10|2,0:2|0:2,0:0:0:0:
214,128,55095,1,2,0:2:0:0:
135,55,55229,1,0,0:2:0:0:
45,113,55362,1,10,0:2:0:0:
221,33,55495,6,0,P|287:21|346:49,1,120,2|2,0:2|0:2,0:2:0:0:
397,123,55895,2,0,P|426:132|469:131,1,60,10|2,0:2|0:2,0:0:0:0:
321,161,56162,2,0,P|341:183|379:203,1,60,2|2,0:2|0:2,0:0:0:0:
224,151,56429,1,10,0:2:0:0:
265,246,56562,1,10,0:2:0:0:
265,246,56629,1,0,0:0:0:0:
265,246,56695,6,0,L|259:312,1,60,6|0,0:2|0:0,0:2:0:0:
137,378,56962,2,0,L|131:312,1,60,8|2,0:2|0:2,0:0:0:0:
83,200,57229,1,2,0:2:0:0:
36,299,57362,1,2,0:2:0:0:
0,231,57495,1,8,0:2:0:0:
86,171,57629,1,2,0:2:0:0:
191,231,57762,6,0,P|228:238|267:230,1,60,2|2,0:2|0:2,0:0:0:0:
339,165,58029,1,8,0:2:0:0:
249,135,58162,1,2,0:2:0:0:
314,79,58295,5,2,0:2:0:0:
231,53,58429,1,0,0:2:0:0:
163,117,58562,2,0,L|172:179,1,60,10|0,0:2|0:2,0:2:0:0:
227,333,58829,6,0,L|237:251,1,75,14|8,0:2|0:3,0:0:0:0:
248,158,59095,1,10,0:3:0:0:
347,116,59229,6,0,L|357:198,1,75,14|4,0:2|0:3,0:0:0:0:
372,284,59495,1,6,0:3:0:0:
484,188,59629,6,0,L|494:106,1,75,14|8,0:2|0:3,0:0:0:0:
507,21,59895,1,6,0:3:0:0:
376,44,60029,5,14,0:2:0:0:
343,146,60162,1,4,0:3:0:0:
279,69,60295,1,10,0:3:0:0:
187,154,60429,2,0,P|195:194|213:226,1,75,14|0,0:2|0:0,0:2:0:0:
85,161,60695,2,0,P|93:121|111:89,1,75,14|0,0:2|0:0,0:2:0:0:
274,38,60962,6,0,P|339:22|416:49,1,150,6|8,0:2|0:2,0:2:0:0:
464,168,61362,1,2,0:2:0:0:
340,184,61495,2,0,L|337:96,1,75,2|0,0:2|0:0,0:2:0:0:
219,183,61762,1,8,0:2:0:0:
275,309,61895,6,0,P|349:334|419:288,1,150,2|0,0:2|0:2,0:2:0:0:
340,184,62295,2,0,L|344:259,1,75,10|2,0:2|0:2,0:0:0:0:
235,212,62562,1,2,0:2:0:0:
271,117,62695,1,0,0:2:0:0:
177,127,62829,1,10,0:2:0:0:
213,222,62962,1,0,0:2:0:0:
83,267,63095,6,0,P|44:267|12:250,1,75,2|2,0:2|0:2,0:0:0:0:
80,153,63362,2,0,P|113:136|150:136,1,75,10|2,0:2|0:2,0:0:0:0:
251,213,63629,1,2,0:2:0:0:
292,131,63762,1,0,0:2:0:0:
342,210,63895,1,10,0:2:0:0:
373,80,64029,6,0,P|364:151|387:225,1,150,2|2,0:2|0:2,0:2:0:0:
493,288,64429,2,0,P|506:250|506:205,1,75,10|2,0:2|0:2,0:0:0:0:
391,163,64695,2,0,P|392:200|405:235,1,75,2|2,0:2|0:2,0:0:0:0:
489,125,64962,1,10,0:2:0:0:
466,41,65095,1,10,0:2:0:0:
344,90,65229,6,0,P|306:104|194:89,1,150,6|8,0:2|0:2,0:2:0:0:
109,41,65629,1,2,0:2:0:0:
26,100,65762,2,0,P|16:138|22:173,1,75,2|2,0:2|0:2,0:0:0:0:
88,241,66029,1,8,0:2:0:0:
162,189,66162,1,2,0:2:0:0:
257,279,66295,6,0,P|297:290|332:277,1,75,2|2,0:2|0:2,0:0:0:0:
422,208,66562,1,8,0:2:0:0:
358,143,66695,1,2,0:2:0:0:
429,77,66829,2,0,L|511:81,1,75,2|0,0:2|0:2,0:2:0:0:
366,10,67095,2,0,L|284:14,1,75,10|0,0:2|0:2,0:2:0:0:
122,16,67362,6,0,P|110:55|127:101,1,75,14|8,0:2|0:3,0:0:0:0:
171,153,67629,1,10,0:3:0:0:
324,133,67762,6,0,P|336:172|319:218,1,75,14|4,0:2|0:3,0:0:0:0:
275,270,68029,1,6,0:3:0:0:
118,280,68162,6,0,L|104:206,1,75,14|8,0:2|0:3,0:0:0:0:
9,172,68429,2,0,L|23:246,1,75,6|14,0:3|0:2,0:0:0:0:
127,317,68695,1,4,0:3:0:0:
199,237,68829,1,10,0:3:0:0:
97,182,68962,2,0,L|83:108,1,75,14|0,0:2|0:2,0:2:0:0:
176,17,69229,2,0,L|190:91,1,75,14|0,0:2|0:2,0:2:0:0:
299,184,69495,6,0,P|350:150|430:168,1,134.999995880127,6|8,0:2|0:2,0:2:0:0:
419,160,70295,2,0,L|411:260,1,89.9999972534181,2|0,0:2|0:2,0:2:0:0:
498,210,70695,2,0,L|490:310,1,89.9999972534181,10|0,0:2|0:2,0:2:0:0:
408,335,71095,2,0,P|364:328|347:329,1,44.999998626709,10|0,0:2|0:2,0:2:0:0:
286,371,71362,2,0,P|242:378|225:377,1,44.999998626709,2|0,0:2|0:2,0:2:0:0:
116,303,71629,6,0,L|267:288,1,134.999995880127,6|8,0:2|0:2,0:2:0:0:
250,289,72429,2,0,P|266:242|253:196,1,89.9999972534181,2|0,0:2|0:2,0:2:0:0:
164,142,72829,2,0,P|148:94|161:48,1,89.9999972534181,10|0,0:2|0:2,0:2:0:0:
241,13,73229,2,0,L|296:22,1,44.999998626709,10|0,0:2|0:2,0:2:0:0:
342,101,73495,2,0,L|406:95,1,44.999998626709,2|8,0:2|0:2,0:2:0:0:
495,22,73762,6,0,P|476:70|495:150,1,134.999995880127,6|8,0:2|0:2,0:2:0:0:
494,148,74562,2,0,L|482:251,1,89.9999972534181,2|0,0:2|0:0,0:0:0:0:
395,177,74962,2,0,L|383:280,1,89.9999972534181,10|0,0:2|0:2,0:2:0:0:
312,324,75362,2,0,P|280:331|264:329,1,44.999998626709,10|0,0:2|0:2,0:2:0:0:
190,278,75629,2,0,P|156:276|138:281,1,44.999998626709,2|0,0:2|0:2,0:2:0:0:
50,333,75895,6,0,L|63:188,1,134.999995880127,6|8,0:2|0:2,0:2:0:0:
62,198,76695,2,0,L|43:93,1,89.9999972534181,2|0,0:2|0:0,0:0:0:0:
21,23,77095,1,8,0:2:0:0:
157,110,77362,1,0,0:2:0:0:
214,29,77495,1,8,0:2:0:0:
214,29,77629,1,2,0:2:0:0:
291,134,77762,1,8,0:2:0:0:
312,141,77828,1,8,0:3:0:0:
334,143,77895,1,6,0:3:0:0:
356,140,77962,1,4,0:3:0:0:
377,132,78029,6,0,L|360:289,1,150,6|8,0:2|0:2,0:2:0:0:
292,341,78429,2,0,P|207:320|156:358,1,150,2|0,0:2|0:2,0:0:0:0:
4,298,78829,2,0,P|92:289|139:240,1,150,10|0,0:2|0:2,0:2:0:0:
41,65,79229,2,0,P|22:141|51:224,1,150,2|0,0:2|0:2,0:2:0:0:
196,146,79629,2,0,L|119:139,1,75,2|0,0:2|0:2,0:2:0:0:
259,68,79895,2,0,L|336:61,1,75,10|8,0:2|0:2,0:2:0:0:
491,151,80162,6,0,P|424:127|336:152,1,150,2|8,0:2|0:2,0:2:0:0:
384,278,80562,2,0,P|325:237|234:238,1,150,2|0,0:2|0:2,0:2:0:0:
32,51,80962,2,0,P|99:27|187:52,1,150,10|0,0:2|0:2,0:2:0:0:
139,178,81362,2,0,P|197:137|288:138,1,150,2|0,0:2|0:2,0:2:0:0:
384,278,81762,2,0,L|379:373,1,75,2|0,0:2|0:2,0:2:0:0:
215,384,82029,2,0,L|210:289,1,75,10|8,0:2|0:2,0:2:0:0:
53,171,82295,6,0,P|73:253|95:236,1,150,6|8,0:2|0:2,0:2:0:0:
209,124,82695,2,0,P|189:42|167:59,1,150,2|0,0:2|0:2,0:2:0:0:
205,217,83095,2,0,P|264:214|333:136,1,150,10|0,0:2|0:2,0:2:0:0:
485,310,83495,2,0,P|427:322|340:264,1,150,2|0,0:2|0:2,0:2:0:0:
439,161,83895,2,0,L|425:249,1,75,2|0,0:2|0:2,0:2:0:0:
357,111,84162,2,0,L|343:199,1,75,10|8,0:2|0:2,0:2:0:0:
206,81,84429,6,0,P|255:52|287:52,1,75,6|0,0:2|0:2,0:2:0:0:
180,166,84695,1,8,0:2:0:0:
121,102,84829,1,0,0:2:0:0:
264,142,84962,1,10,0:2:0:0:
149,243,85095,1,0,0:2:0:0:
248,228,85229,2,0,L|264:315,1,75,8|0,0:2|0:2,0:0:0:0:
121,364,85495,5,6,0:2:0:0:
482,118,86162,5,0,0:0:0:0:
482,118,86228,1,0,0:0:0:0:
482,118,86295,2,0,L|407:111,1,75,14|0,0:2|2:0,0:2:0:0:
466,22,86562,6,0,P|398:22|310:66,1,168.750006437302,6|0,0:2|2:2,0:2:0:0:
309,66,86829,2,0,L|304:161,1,89.9999972534181,10|8,0:2|0:2,0:0:0:0:
190,107,87095,2,0,L|184:12,1,89.9999972534181,10|0,0:3|0:2,0:2:0:0:
85,162,87362,1,10,0:2:0:0:
177,245,87495,6,0,P|222:256|266:240,1,89.9999972534181,6|0,0:3|0:2,0:2:0:0:
85,162,87762,2,0,P|40:151|-4:167,1,89.9999972534181,2|8,0:2|0:2,0:2:0:0:
59,326,88029,2,0,L|150:334,1,89.9999972534181,6|0,0:3|0:2,0:2:0:0:
331,242,88295,2,0,L|305:144,1,89.9999972534181,2|8,0:2|0:2,0:2:0:0:
254,27,88562,1,2,0:2:0:0:
254,27,88695,5,6,0:2:0:0:
342,32,88829,1,0,0:2:0:0:
418,114,88962,2,0,P|368:115|311:134,1,89.9999972534181,8|10,0:2|0:2,0:0:0:0:
175,79,89229,2,0,P|157:131|178:242,1,134.999995880127,10|0,0:3|2:2,0:2:0:0:
163,209,89495,6,0,P|209:213|254:243,1,89.9999972534181,8|6,0:2|0:3,0:0:0:0:
314,321,89762,1,0,0:2:0:0:
426,250,89895,2,0,L|438:153,1,89.9999972534181,2|8,0:2|0:2,0:2:0:0:
360,76,90162,2,0,L|348:173,1,89.9999972534181,6|0,0:3|0:2,0:2:0:0:
245,219,90429,1,2,0:2:0:0:
105,150,90562,2,0,L|117:247,1,89.9999972534181,8|10,0:2|0:2,0:0:0:0:
29,96,90829,6,0,P|87:70|195:105,1,179.999994506836,6|10,0:2|0:2,0:2:0:0:
337,282,91229,2,0,P|301:240|301:102,1,179.999994506836,10|2,0:2|0:2,0:2:0:0:
495,243,91629,2,0,P|485:302|369:339,1,179.999994506836,10|0,0:2|0:2,0:2:0:0:
379,194,92029,1,0,0:2:0:0:
423,106,92162,2,0,L|517:115,1,89.9999972534181,10|0,0:2|0:2,0:2:0:0:
387,27,92429,2,0,L|293:36,1,89.9999972534181,2|0,0:2|0:2,0:2:0:0:
229,227,92695,2,0,P|246:180|241:128,1,89.9999972534181,8|0,0:2|0:0,0:2:0:0:
94,79,92962,6,0,P|100:156|112:263,1,179.999994506836,6|10,0:2|0:2,0:2:0:0:
306,280,93362,2,0,P|319:221|223:138,1,179.999994506836,2|2,0:2|0:2,0:2:0:0:
131,349,93762,2,0,P|172:330|314:310,1,179.999994506836,10|0,0:2|0:2,0:2:0:0:
484,332,94162,1,0,0:2:0:0:
505,259,94295,2,0,L|492:164,1,89.9999972534181,10|0,0:2|0:2,0:2:0:0:
372,64,94562,2,0,L|385:159,1,89.9999972534181,10|2,0:2|0:2,0:0:0:0:
247,262,94829,1,8,0:2:0:0:
250,244,94895,1,8,0:3:0:0:
253,226,94962,1,4,0:3:0:0:
257,208,95029,1,4,0:3:0:0:
259,190,95095,6,0,P|209:169|159:180,1,89.9999972534181,6|0,0:2|0:2,0:2:0:0:
0,312,95362,2,0,P|50:333|100:322,1,89.9999972534181,10|8,0:2|0:2,0:0:0:0:
200,265,95629,1,10,0:3:0:0:
174,173,95762,1,0,0:2:0:0:
271,100,95895,1,10,0:2:0:0:
271,100,96029,6,0,L|256:209,1,89.9999972534181,6|0,0:3|0:2,0:2:0:0:
379,314,96295,2,0,L|364:205,1,89.9999972534181,2|8,0:2|0:2,0:2:0:0:
460,104,96562,2,0,P|448:154|443:201,1,89.9999972534181,6|0,0:3|0:2,0:2:0:0:
302,59,96829,2,0,P|314:109|319:156,1,89.9999972534181,2|8,0:2|0:2,0:2:0:0:
195,233,97095,1,2,0:2:0:0:
105,158,97229,6,0,P|154:148|202:142,2,89.9999972534181,6|0|8,0:2|0:2|0:2,0:2:0:0:
106,320,97629,1,10,0:2:0:0:
143,251,97762,2,0,P|211:238|245:236,1,89.9999972534181,10|0,0:3|0:0,0:2:0:0:
318,303,98029,1,8,0:2:0:0:
385,188,98162,6,0,P|407:234|422:272,1,89.9999972534181,6|0,0:3|0:2,0:2:0:0:
461,145,98429,2,0,P|483:191|498:229,1,89.9999972534181,2|8,0:2|0:2,0:2:0:0:
293,114,98695,2,0,P|271:160|256:198,1,89.9999972534181,6|0,0:3|0:2,0:2:0:0:
217,71,98962,2,0,P|195:117|180:155,1,89.9999972534181,2|8,0:2|0:2,0:2:0:0:
138,265,99229,1,10,0:2:0:0:
240,339,99362,6,0,P|288:354|382:257,1,179.999994506836,6|10,0:2|0:2,0:2:0:0:
409,144,99762,2,0,P|407:207|454:341,1,179.999994506836,10|2,0:2|0:2,0:2:0:0:
470,82,100162,2,0,B|408:90|408:90|383:116|383:116|283:128,1,179.999994506836,10|0,0:2|0:2,0:2:0:0:
143,34,100562,1,0,0:2:0:0:
143,34,100695,2,0,P|188:77|209:112,1,89.9999972534181,10|0,0:2|0:2,0:2:0:0:
97,220,100962,2,0,P|104:175|101:130,1,89.9999972534181,2|0,0:2|0:2,0:2:0:0:
26,277,101229,2,0,L|119:261,1,89.9999972534181,8|0,0:2|0:0,0:2:0:0:
384,375,101495,6,0,P|329:346|195:345,1,179.999994506836,6|10,0:2|0:2,0:2:0:0:
288,249,101895,2,0,P|182:261|100:297,1,179.999994506836,2|2,0:2|0:2,0:2:0:0:
138,176,102295,2,0,P|46:239|-14:308,1,179.999994506836,10|0,0:2|0:2,0:2:0:0:
0,170,102695,1,0,0:2:0:0:
47,35,102829,2,0,P|69:98|78:143,1,89.9999972534181,10|0,0:2|0:2,0:2:0:0:
110,261,103095,2,0,P|132:198|141:153,1,89.9999972534181,10|8,0:2|0:3,0:0:0:0:
146,34,103362,1,6,0:3:0:0:
146,34,103495,1,4,0:3:0:0:
227,113,103629,6,0,P|290:115|335:94,1,89.9999972534181,2|0,0:2|0:2,0:2:0:0:
478,45,103895,2,0,P|415:43|370:64,1,89.9999972534181,8|2,0:2|0:2,0:2:0:0:
434,222,104162,2,0,L|443:123,1,89.9999972534181,8|0,0:2|0:2,0:2:0:0:
287,220,104429,2,0,L|296:319,1,89.9999972534181,10|0,0:2|0:2,0:2:0:0:
101,221,104695,2,0,P|151:192|198:186,1,89.9999972534181,8|0,0:2|0:2,0:2:0:0:
261,110,104962,6,0,P|222:87|179:78,1,89.9999972534181,10|0,0:2|0:2,0:2:0:0:
287,220,105229,2,0,L|409:202,1,89.9999972534181,10|0,0:2|0:2,0:2:0:0:
206,338,105495,2,0,L|84:320,1,89.9999972534181,10|0,0:2|0:2,0:2:0:0:
91,332,105695,1,0,0:2:0:0:
91,332,105762,6,0,P|65:272|66:236,1,89.9999972534181,14|0,0:2|0:2,0:2:0:0:
128,115,106029,1,8,0:2:0:0:
164,216,106162,1,2,0:2:0:0:
238,143,106295,2,0,P|252:87|247:44,1,89.9999972534181,8|0,0:2|0:2,0:2:0:0:
341,176,106562,2,0,P|390:195|448:192,1,89.9999972534181,10|0,0:2|0:2,0:2:0:0:
512,27,106829,6,0,L|491:128,1,89.9999972534181,10|0,0:2|0:2,0:0:0:0:
445,284,107095,2,0,L|424:183,1,89.9999972534181,8|0,0:2|0:2,0:0:0:0:
297,375,107362,1,10,0:2:0:0:
375,321,107495,1,8,0:2:0:0:
296,293,107629,1,8,0:2:0:0:
358,240,107762,1,8,0:2:0:0:
236,232,107895,5,14,0:2:0:0:
203,340,108029,1,0,0:2:0:0:
222,110,108295,5,14,0:2:0:0:
115,261,108429,1,0,0:2:0:0:
167,38,108695,5,14,0:2:0:0:
121,161,108829,1,0,0:2:0:0:
261,188,108962,1,14,0:2:0:0:
104,83,114029,6,0,L|100:50,3,30,10|8|10|8,0:2|0:2|0:2|0:2,0:2:0:0:
80,189,114295,2,0,P|146:163|230:177,1,150,6|8,0:2|0:2,0:2:0:0:
344,231,114695,1,2,0:2:0:0:
344,231,114829,2,0,L|348:149,1,75,2|2,0:2|0:2,0:0:0:0:
456,97,115095,1,8,0:2:0:0:
354,51,115229,1,2,0:2:0:0:
432,176,115362,6,0,P|474:176|521:159,1,75,2|2,0:2|0:2,0:0:0:0:
354,51,115629,2,0,P|317:41|280:41,1,75,8|2,0:2|0:2,0:0:0:0:
145,103,115895,2,0,P|156:146|164:192,1,75,2|0,0:2|0:2,0:2:0:0:
269,303,116162,2,0,P|280:260|288:214,1,75,10|0,0:2|0:2,0:2:0:0:
62,121,116429,6,0,L|78:205,1,75,14|8,0:2|0:3,0:0:0:0:
32,31,116695,1,10,0:3:0:0:
187,196,116829,6,0,L|171:280,1,75,14|4,0:2|0:3,0:0:0:0:
217,106,117095,1,6,0:3:0:0:
367,259,117229,6,0,L|458:245,1,75,14|8,0:2|0:3,0:0:0:0:
269,272,117495,1,6,0:3:0:0:
217,106,117629,6,0,L|126:92,1,75,14|4,0:2|0:3,0:0:0:0:
315,119,117895,1,10,0:3:0:0:
181,247,118029,2,0,P|190:287|226:352,1,112.5,14|0,0:2|2:0,0:2:0:0:
223,349,118295,2,0,P|251:300|265:246,1,112.5,14|0,0:2|0:0,0:2:0:0:
265,246,118562,6,0,L|251:176,1,60,6|0,1:2|0:2,0:2:0:0:
376,86,118829,2,0,L|361:156,1,60,0|2,0:2|1:2,0:0:0:0:
241,71,119095,2,0,P|179:58|113:83,1,120,10|2,0:2|1:2,0:2:0:0:
61,165,119495,2,0,B|95:158|95:158|111:161|111:161|190:143,1,120,10|10,0:2|0:2,0:2:0:0:
272,181,119895,2,0,P|280:219|277:251,1,60,0|0,1:2|0:2,0:2:0:0:
355,300,120162,2,0,P|363:262|360:230,1,60,10|0,0:2|0:2,0:2:0:0:
212,295,120429,1,2,1:2:0:0:
212,295,120562,1,8,0:2:0:0:
84,334,120695,6,0,L|14:329,2,60,2|2|2,1:2|0:2|1:2,0:0:0:0:
138,231,121095,1,2,0:2:0:0:
138,231,121229,2,0,L|128:101,1,120,10|0,0:2|1:2,0:2:0:0:
224,148,121629,2,0,P|259:169|341:149,2,120,10|10|10,0:2|0:2|0:2,0:2:0:0:
183,50,122295,6,0,P|191:12|207:-10,1,60,2|0,1:2|0:0,0:2:0:0:
343,37,122562,1,10,0:2:0:0:
348,47,122629,1,8,0:2:0:0:
352,58,122695,1,10,0:2:0:0:
355,69,122762,1,8,0:2:0:0:
360,79,122829,6,0,B|352:126|352:126|357:146|357:146|345:227,1,150,6|8,0:2|0:2,0:2:0:0:
216,285,123229,1,2,0:2:0:0:
136,245,123362,2,0,L|48:259,1,75,2|2,0:2|0:2,0:0:0:0:
216,321,123629,2,0,L|304:335,1,75,8|2,0:2|0:2,0:0:0:0:
464,265,123895,2,0,P|472:227|485:189,1,75,2|2,0:2|0:2,0:0:0:0:
383,128,124162,1,8,0:2:0:0:
383,128,124295,1,2,0:2:0:0:
362,264,124429,2,0,P|370:302|383:340,1,75,2|0,0:2|0:2,0:2:0:0:
251,227,124695,1,10,0:2:0:0:
251,227,124829,1,0,0:2:0:0:
383,128,124962,6,0,P|421:112|458:113,1,75,14|8,0:2|0:3,0:0:0:0:
302,71,125229,1,10,0:3:0:0:
162,201,125362,6,0,P|124:185|87:186,1,75,14|4,0:2|0:3,0:0:0:0:
243,144,125629,1,6,0:3:0:0:
331,245,125762,6,0,L|339:323,1,75,14|8,0:2|0:3,0:0:0:0:
322,150,126029,1,6,0:3:0:0:
217,264,126162,6,0,L|209:342,1,75,14|4,0:2|0:3,0:0:0:0:
226,169,126429,1,10,0:3:0:0:
79,245,126562,2,0,P|56:203|51:124,1,112.5,14|0,0:2|2:2,0:2:0:0:
48,139,126829,2,0,P|64:96|66:18,1,112.5,14|0,0:2|2:2,0:2:0:0:
21,318,127095,6,0,P|85:329|141:294,1,134.999995880127,6|8,0:2|0:2,0:2:0:0:
141,294,127895,2,0,L|149:194,1,89.9999972534181,2|0,0:2|0:2,0:2:0:0:
231,270,128295,2,0,L|239:170,1,89.9999972534181,10|0,0:2|0:2,0:2:0:0:
156,89,128695,2,0,P|200:96|217:95,1,44.999998626709,10|0,0:2|0:2,0:2:0:0:
258,21,128962,2,0,P|302:14|319:15,1,44.999998626709,2|0,0:2|0:2,0:2:0:0:
432,91,129229,6,0,L|281:106,1,134.999995880127,6|8,0:2|0:2,0:2:0:0:
297,104,130029,2,0,P|281:151|294:197,1,89.9999972534181,2|0,0:2|0:2,0:2:0:0:
372,256,130429,2,0,P|388:304|375:350,1,89.9999972534181,10|0,0:2|0:2,0:2:0:0:
292,374,130829,2,0,L|237:365,1,44.999998626709,10|0,0:2|0:2,0:2:0:0:
183,301,131095,2,0,L|119:307,1,44.999998626709,2|8,0:2|0:2,0:2:0:0:
17,362,131362,6,0,P|36:314|17:234,1,134.999995880127,6|8,0:2|0:2,0:2:0:0:
18,236,132162,2,0,L|30:133,1,89.9999972534181,2|0,0:2|0:0,0:0:0:0:
117,207,132562,2,0,L|129:104,1,89.9999972534181,10|0,0:2|0:2,0:2:0:0:
200,60,132962,2,0,P|232:53|248:55,1,44.999998626709,10|0,0:2|0:2,0:2:0:0:
322,106,133229,2,0,P|356:108|374:103,1,44.999998626709,2|0,0:2|0:2,0:2:0:0:
462,51,133495,6,0,L|449:196,1,134.999995880127,6|8,0:2|0:2,0:2:0:0:
450,186,134295,2,0,L|469:291,1,89.9999972534181,2|0,0:2|0:0,0:0:0:0:
491,361,134695,1,8,0:2:0:0:
355,274,134962,1,0,0:2:0:0:
298,355,135095,1,8,0:2:0:0:
298,355,135229,1,2,0:2:0:0:
221,250,135362,1,8,0:2:0:0:
200,243,135428,1,8,0:3:0:0:
178,241,135495,1,6,0:3:0:0:
156,244,135562,1,4,0:3:0:0:
138,252,135629,6,0,P|101:205|129:135,1,120,6|8,0:2|0:2,0:2:0:0:
206,80,136029,2,0,L|345:101,1,120,2|0,0:2|0:2,0:0:0:0:
403,158,136429,2,0,L|542:138,1,120,10|0,0:2|0:2,0:2:0:0:
324,97,136829,6,0,P|303:173|329:225,1,120,2|0,0:2|0:2,0:2:0:0:
395,260,137229,2,0,L|378:345,1,60,2|0,0:2|0:2,0:2:0:0:
503,284,137495,2,0,L|491:225,1,60,10|8,0:2|0:2,0:2:0:0:
429,120,137762,6,0,P|388:88|317:102,1,120,2|8,0:2|0:2,0:2:0:0:
248,172,138162,2,0,P|207:204|136:190,1,120,2|0,0:2|0:2,0:2:0:0:
33,138,138562,2,0,L|8:8,1,120,10|0,0:2|0:2,0:2:0:0:
126,111,138962,6,0,L|105:242,1,120,2|0,0:2|0:2,0:2:0:0:
47,328,139362,2,0,P|78:316|115:311,1,60,2|0,0:2|0:2,0:2:0:0:
183,350,139629,2,0,P|214:362|251:367,1,60,10|8,0:2|0:2,0:2:0:0:
344,328,139895,6,0,L|363:198,1,120,6|8,0:2|0:2,0:2:0:0:
451,290,140295,2,0,L|470:160,1,120,2|0,0:2|0:2,0:2:0:0:
451,56,140695,2,0,P|404:50|344:93,1,120,10|0,0:2|0:2,0:2:0:0:
289,182,141095,6,0,L|151:150,1,120,2|0,0:2|0:2,0:2:0:0:
94,205,141495,2,0,L|98:273,1,60,2|0,0:2|0:2,0:2:0:0:
10,162,141762,2,0,L|27:77,1,60,10|8,0:2|0:2,0:2:0:0:
98,42,142029,6,0,P|156:27|191:32,1,89.9999972534181,6|0,0:2|0:2,0:2:0:0:
269,80,142295,2,0,P|329:98|370:94,1,89.9999972534181,8|0,0:2|0:2,0:0:0:0:
462,53,142562,2,0,L|435:148,1,89.9999972534181,10|0,0:2|0:2,0:0:0:0:
336,168,142829,2,0,L|363:263,1,89.9999972534181,8|0,0:2|0:2,0:0:0:0:
507,341,143095,6,0,P|439:319|332:368,1,179.999994506836,14|8,0:2|0:2,0:0:0:0:
126,375,143495,1,0,0:0:0:0:
227,295,143629,1,8,0:2:0:0:
278,375,143762,1,2,0:2:0:0:
132,261,143895,2,0,L|149:170,1,89.9999972534181,8|2,0:2|0:2,0:0:0:0:
184,32,144162,6,0,B|249:41|249:41|285:69|285:69|351:78,1,168.750006437302,6|0,0:2|2:2,0:2:0:0:
341,76,144429,2,0,P|351:122|344:178,1,89.9999972534181,10|8,0:2|0:2,0:0:0:0:
212,210,144695,2,0,P|201:163|208:107,1,89.9999972534181,10|0,0:3|0:2,0:2:0:0:
291,267,144962,1,10,0:2:0:0:
198,298,145095,6,0,P|152:287|79:277,1,89.9999972534181,6|0,0:3|0:2,0:2:0:0:
273,164,145362,2,0,P|229:181|163:215,1,89.9999972534181,2|8,0:2|0:2,0:2:0:0:
361,318,145629,2,0,P|368:262|373:219,1,89.9999972534181,6|0,0:3|0:2,0:2:0:0:
461,375,145895,2,0,P|454:319|449:276,1,89.9999972534181,2|8,0:2|0:2,0:2:0:0:
448,185,146162,1,2,0:2:0:0:
273,164,146295,6,0,L|259:334,1,134.999995880127,6|0,0:2|2:2,0:2:0:0:
261,298,146562,2,0,P|217:326|166:320,1,89.9999972534181,8|10,0:2|0:2,0:0:0:0:
35,271,146829,2,0,P|79:243|130:249,1,89.9999972534181,10|0,0:3|0:0,0:2:0:0:
158,150,147095,1,8,0:2:0:0:
6,49,147229,6,0,P|23:97|33:146,1,89.9999972534181,6|0,0:3|0:2,0:2:0:0:
152,51,147495,2,0,P|142:101|126:148,1,89.9999972534181,2|8,0:2|0:2,0:2:0:0:
248,230,147762,2,0,P|265:182|275:133,1,89.9999972534181,6|0,0:3|0:2,0:2:0:0:
395,182,148028,2,0,P|385:131|369:84,1,89.9999972534181,2|8,0:2|0:2,0:2:0:0:
331,236,148295,1,10,0:2:0:0:
170,260,148429,6,0,P|216:326|310:311,1,179.999994506836,6|10,0:2|0:2,0:2:0:0:
244,151,148829,2,0,L|39:144,1,179.999994506836,10|2,0:2|0:2,0:2:0:0:
235,31,149229,2,0,L|440:38,1,179.999994506836,10|0,0:2|0:2,0:2:0:0:
391,119,149629,1,0,0:2:0:0:
496,181,149762,2,0,P|481:129|494:77,1,89.9999972534181,10|0,0:2|0:2,0:2:0:0:
391,206,150029,2,0,P|395:250|381:292,1,89.9999972534181,2|0,0:2|0:2,0:2:0:0:
249,176,150295,2,0,P|201:191|160:211,1,89.9999972534181,8|0,0:2|0:0,0:2:0:0:
341,129,150562,6,0,P|392:102|536:102,1,179.999994506836,6|10,0:2|0:2,0:2:0:0:
238,147,150962,2,0,P|271:88|367:17,1,179.999994506836,2|2,0:2|0:2,0:2:0:0:
160,187,151362,2,0,P|159:114|217:2,1,179.999994506836,10|0,0:2|0:2,0:2:0:0:
228,260,151762,1,0,0:2:0:0:
228,260,151895,2,0,P|178:268|128:257,1,89.9999972534181,10|0,0:2|0:2,0:2:0:0:
297,204,152162,1,10,0:2:0:0:
345,302,152295,1,2,0:2:0:0:
439,226,152429,1,8,0:2:0:0:
421,227,152495,1,8,0:3:0:0:
403,229,152562,1,4,0:3:0:0:
384,230,152629,1,4,0:3:0:0:
366,231,152695,5,6,0:2:0:0:
389,145,152829,1,0,0:2:0:0:
266,31,152962,2,0,L|286:140,1,89.9999972534181,10|8,0:2|0:2,0:0:0:0:
119,211,153229,2,0,L|139:102,1,89.9999972534181,10|0,0:3|0:2,0:2:0:0:
243,201,153495,1,10,0:2:0:0:
372,151,153629,6,0,P|395:102|396:56,1,89.9999972534181,6|0,0:3|0:2,0:2:0:0:
334,298,153895,2,0,P|383:275|413:240,1,89.9999972534181,2|8,0:2|0:2,0:2:0:0:
243,201,154162,2,0,P|220:152|219:106,1,89.9999972534181,6|0,0:3|0:2,0:2:0:0:
218,357,154429,2,0,P|168:334|138:299,1,89.9999972534181,2|8,0:2|0:2,0:2:0:0:
111,148,154695,1,2,0:2:0:0:
6,230,154829,6,0,L|18:341,1,89.9999972534181,6|0,0:2|0:2,0:2:0:0:
111,148,155095,2,0,L|99:37,1,89.9999972534181,8|10,0:2|0:2,0:0:0:0:
219,123,155362,1,10,0:3:0:0:
185,228,155495,1,0,0:0:0:0:
283,199,155629,1,8,0:2:0:0:
111,148,155762,6,0,L|21:137,1,89.9999972534181,6|0,0:3|0:2,0:2:0:0:
240,36,156029,2,0,L|330:25,1,89.9999972534181,2|8,0:2|0:2,0:2:0:0:
504,134,156295,2,0,P|459:151|403:138,1,89.9999972534181,6|0,0:3|0:2,0:2:0:0:
198,211,156562,2,0,P|243:194|299:207,1,89.9999972534181,2|8,0:2|0:2,0:2:0:0:
367,244,156829,1,10,0:2:0:0:
242,334,156962,6,0,P|191:326|80:248,1,179.999994506836,6|10,0:2|0:2,0:2:0:0:
28,151,157362,2,0,P|20:96|114:118,1,179.999994506836,10|2,0:2|0:2,0:2:0:0:
198,211,157762,2,0,P|288:230|383:197,1,179.999994506836,10|0,0:2|0:2,0:2:0:0:
485,97,158162,1,0,0:2:0:0:
485,97,158295,2,0,L|497:194,1,89.9999972534181,10|0,0:2|0:2,0:2:0:0:
350,40,158562,2,0,L|338:137,1,89.9999972534181,2|0,0:2|0:2,0:2:0:0:
197,238,158829,2,0,P|252:228|283:194,1,89.9999972534181,8|0,0:2|0:0,0:2:0:0:
57,101,159095,6,0,P|77:176|85:296,1,179.999994506836,6|10,0:2|0:2,0:2:0:0:
299,182,159495,2,0,P|263:134|143:148,1,179.999994506836,2|2,0:2|0:2,0:2:0:0:
406,281,159895,2,0,P|387:205|374:81,1,179.999994506836,10|0,0:2|0:2,0:2:0:0:
489,61,160295,1,0,0:2:0:0:
512,233,160429,6,0,P|505:176|494:118,1,89.9999972534181,10|0,0:2|0:2,0:2:0:0:
286,271,160695,2,0,P|293:214|304:156,1,89.9999972534181,10|8,0:2|0:3,0:0:0:0:
390,77,160962,1,6,0:3:0:0:
296,82,161095,1,4,0:3:0:0:
112,48,161229,6,0,L|13:58,1,89.9999972534181,2|0,0:2|0:2,0:2:0:0:
202,127,161495,2,0,P|193:182|171:222,1,89.9999972534181,8|2,0:2|0:2,0:2:0:0:
44,278,161762,2,0,P|53:333|75:373,1,89.9999972534181,8|0,0:2|0:2,0:2:0:0:
177,370,162029,2,0,P|168:315|146:275,1,89.9999972534181,10|0,0:2|0:2,0:2:0:0:
57,205,162296,2,0,P|66:150|88:110,1,89.9999972534181,8|0,0:2|0:2,0:2:0:0:
191,23,162562,6,0,P|260:32|300:45,1,89.9999972534181,10|0,0:2|0:2,0:2:0:0:
203,144,162829,1,10,0:2:0:0:
203,144,162962,1,0,0:2:0:0:
308,126,163095,1,10,0:2:0:0:
257,243,163229,1,0,0:2:0:0:
372,221,163362,6,0,P|416:242|448:267,1,89.9999972534181,14|0,0:2|0:2,0:2:0:0:
512,112,163629,2,0,P|468:133|436:158,1,89.9999972534181,8|2,0:2|0:2,0:2:0:0:
282,42,163895,2,0,P|332:56|373:66,1,89.9999972534181,8|0,0:2|0:2,0:2:0:0:
211,161,164162,2,0,P|167:171|124:184,1,89.9999972534181,10|0,0:2|0:2,0:2:0:0:
361,309,164429,6,0,P|363:256|376:208,1,89.9999972534181,10|0,0:2|0:2,0:0:0:0:
211,161,164695,2,0,P|220:204|221:249,1,89.9999972534181,8|0,0:2|0:2,0:0:0:0:
235,373,164962,1,10,0:2:0:0:
235,373,165095,1,8,0:2:0:0:
91,325,165229,1,8,0:2:0:0:
141,219,165362,1,8,0:2:0:0:
55,237,165495,5,14,0:2:0:0:
193,288,165629,1,0,0:2:0:0:
80,146,165895,5,14,0:2:0:0:
14,310,166029,1,0,0:2:0:0:
251,197,166295,5,14,0:2:0:0:
203,76,166429,1,0,0:2:0:0:
80,146,166562,1,14,0:2:0:0:
356,330,167629,6,0,P|438:309|440:236,2,150,6|10|2,0:2|0:2|0:2,0:2:0:0:
269,300,168295,1,0,0:2:0:0:
173,240,168429,1,10,0:2:0:0:
173,240,168563,2,0,L|24:262,1,150,6|0,0:2|0:2,0:2:0:0:
217,157,168962,2,0,P|267:194|286:230,1,75,10|0,0:2|0:2,0:2:0:0:
163,314,169229,6,0,L|174:224,1,75,2|0,0:2|0:2,0:2:0:0:
46,168,169495,2,0,L|35:78,1,75,10|0,0:2|0:2,0:2:0:0:
237,11,169762,2,0,P|214:85|220:174,2,150,6|10|2,0:2|0:2|0:2,0:2:0:0:
380,107,170429,2,0,L|278:99,1,75,0|10,0:2|0:2,0:0:0:0:
149,228,170695,6,0,P|237:190|299:198,1,150,6|0,0:2|0:2,0:2:0:0:
324,307,171095,2,0,L|228:298,1,75,10|0,0:2|0:2,0:2:0:0:
390,171,171362,6,0,P|413:217|416:252,1,75,10|0,0:2|0:2,0:2:0:0:
512,96,171629,2,0,P|493:128|485:164,1,75,10|4,0:2|0:3,0:2:0:0:
505,189,171829,1,4,0:3:0:0:
505,189,171895,2,0,L|495:288,1,75,6|0,0:2|0:0,0:2:0:0:
413,367,172162,2,0,P|352:372|318:361,1,75,10|0,0:2|0:2,0:2:0:0:
260,309,172429,2,0,P|194:300|109:333,1,150,2|10,0:2|0:2,0:2:0:0:
0,384,172829,6,0,P|20:327|2:221,1,150,6|0,0:2|0:2,0:2:0:0:
0,123,173229,2,0,P|34:122|79:136,1,75,10|0,0:2|0:2,0:2:0:0:
212,208,173495,6,0,L|124:216,1,75,2|0,0:2|0:2,0:2:0:0:
284,108,173762,2,0,L|196:100,1,75,10|0,0:2|0:2,0:2:0:0:
356,176,174029,2,0,P|389:103|346:24,2,150,2|10|2,0:2|0:2|0:2,0:2:0:0:
264,254,174695,2,0,L|177:246,1,75,0|10,0:2|0:2,0:0:0:0:
283,356,174962,6,0,L|441:332,1,150,6|0,0:2|0:2,0:2:0:0:
393,179,175362,2,0,P|369:227|367:259,1,75,10|0,0:2|0:2,0:2:0:0:
495,165,175629,6,0,L|485:75,1,75,10|0,0:2|0:2,0:2:0:0:
291,116,175895,2,0,L|301:26,1,75,10|8,0:2|0:2,0:2:0:0:
178,191,176162,2,0,P|246:160|320:162,2,150,6|10|2,0:2|0:2|0:2,0:2:0:0:
74,292,176829,2,0,L|-19:272,1,75,0|10,0:2|0:2,0:0:0:0:
26,106,177095,6,0,B|63:80|63:80|89:130|72:219,1,150,6|0,0:2|0:2,0:2:0:0:
163,264,177495,2,0,P|174:199|185:175,1,75,10|0,0:2|0:2,0:2:0:0:
392,299,177762,6,0,L|368:393,1,75,2|0,0:2|0:2,0:2:0:0:
262,248,178029,2,0,L|286:342,1,75,10|0,0:2|0:2,0:2:0:0:
490,266,178295,2,0,P|416:197|360:201,1,150,2|10,0:2|0:2,0:2:0:0:
244,138,178695,1,0,0:2:0:0:
244,138,178829,2,0,L|330:124,1,75,2|0,0:2|0:2,0:2:0:0:
389,67,179095,1,10,0:2:0:0:
209,11,179229,6,0,P|152:4|67:55,1,150,6|2,0:2|0:2,0:2:0:0:
152,173,179629,2,0,L|161:85,1,75,10|0,0:2|0:2,0:2:0:0:
48,188,179895,6,0,P|39:215|57:276,1,75,10|0,0:2|0:2,0:2:0:0:
142,347,180162,2,0,P|143:309|162:277,1,75,10|4,0:2|0:3,0:2:0:0:
319,309,180429,2,0,B|340:347|340:347|217:335,1,150,6|10,0:2|0:2,0:2:0:0:
280,225,180829,1,0,0:2:0:0:
280,225,180962,2,0,P|333:218|366:228,1,75,2|0,0:2|0:2,0:2:0:0:
430,279,181229,1,10,0:2:0:0:
472,193,181362,6,0,P|483:128|448:29,1,150,6|2,0:2|0:2,0:2:0:0:
373,87,181762,2,0,L|289:78,1,75,10|0,0:2|0:2,0:2:0:0:
106,22,182029,6,0,P|89:85|96:110,1,75,2|0,0:2|0:2,0:2:0:0:
176,207,182295,2,0,P|193:144|186:119,1,75,10|0,0:2|0:2,0:2:0:0:
60,283,182562,6,0,P|129:254|233:262,1,150,8|8,0:2|0:2,0:2:0:0:
303,292,182962,1,0,0:2:0:0:
388,268,183095,2,0,L|381:181,1,75,8|0,0:2|0:2,0:2:0:0:
277,178,183362,2,0,L|284:91,1,75,8|0,0:2|0:2,0:2:0:0:
172,40,183629,6,0,L|165:91,3,37.5,14|0|0|0,0:2|0:0|0:2|0:0,0:2:0:0:
51,75,183895,2,0,L|44:126,3,37.5,8|0|0|0,0:2|0:0|0:2|0:0,0:2:0:0:
151,163,184162,2,0,L|144:214,3,37.5,12|8|8|8,0:2|0:2|0:2|0:2,0:0:0:0:
31,211,184429,2,0,L|24:262,3,37.5,8|8|8|8,0:2|0:2|0:2|0:2,0:0:0:0:
93,322,184695,5,6,0:2:0:0:
140,236,184829,1,0,0:0:0:0:
237,326,184962,2,0,P|294:320|342:296,1,97.4999955368044,10|8,0:2|0:2,0:0:0:0:
420,186,185229,2,0,L|402:73,1,97.4999955368044,10|0,0:3|0:2,0:2:0:0:
441,0,185495,1,10,0:2:0:0:
497,132,185629,2,0,L|512:228,1,97.4999955368044,6|0,0:3|0:2,0:2:0:0:
404,282,185895,2,0,L|419:185,1,97.4999955368044,2|8,0:2|0:2,0:2:0:0:
323,85,186162,2,0,P|267:73|220:101,1,97.4999955368044,6|0,0:3|0:2,0:2:0:0:
85,185,186429,2,0,P|141:197|188:169,1,97.4999955368044,2|8,0:2|0:2,0:2:0:0:
282,146,186695,1,2,0:2:0:0:
127,108,186829,6,0,L|117:-2,2,97.4999955368044,6|0|8,0:2|0:2|0:2,0:2:0:0:
223,245,187229,1,10,0:2:0:0:
223,245,187362,2,0,P|279:228|326:237,1,97.4999955368044,10|0,0:3|0:0,0:2:0:0:
429,323,187629,1,8,0:2:0:0:
429,323,187762,6,0,L|413:211,1,97.4999955368044,6|0,0:3|0:2,0:2:0:0:
510,135,188029,2,0,L|494:247,1,97.4999955368044,2|8,0:2|0:2,0:2:0:0:
407,124,188295,2,0,P|354:139|299:121,1,97.4999955368044,6|0,0:3|0:2,0:2:0:0:
164,49,188562,2,0,P|211:39|257:54,1,97.4999955368044,2|8,0:2|0:2,0:2:0:0:
286,204,188829,1,10,0:2:0:0:
142,138,188962,6,0,P|188:183|137:298,1,194.999991073609,6|10,0:2|0:2,0:2:0:0:
49,108,189362,2,0,P|88:55|224:62,1,194.999991073609,10|2,0:2|0:2,0:2:0:0:
321,178,189762,2,0,P|360:217|499:205,1,194.999991073609,10|0,0:2|0:2,0:2:0:0:
430,61,190162,1,0,0:2:0:0:
430,61,190295,2,0,L|412:170,1,97.4999955368044,10|0,0:2|0:2,0:2:0:0:
273,20,190562,1,2,0:2:0:0:
319,92,190695,1,0,0:2:0:0:
177,144,190829,2,0,L|159:35,1,97.4999955368044,8|0,0:2|0:0,0:2:0:0:
7,234,191095,6,0,P|104:222|195:260,1,194.999991073609,6|10,0:2|0:2,0:2:0:0:
316,343,191495,2,0,P|362:360|466:269,1,194.999991073609,2|2,0:2|0:2,0:2:0:0:
389,82,191895,2,0,P|369:156|379:277,1,194.999991073609,10|0,0:2|0:2,0:2:0:0:
282,167,192295,1,0,0:2:0:0:
282,167,192429,2,0,P|234:154|169:155,1,97.4999955368044,10|0,0:2|0:2,0:2:0:0:
33,100,192695,1,10,0:2:0:0:
125,66,192829,1,2,0:2:0:0:
157,227,192962,1,8,0:2:0:0:
137,224,193029,1,8,0:3:0:0:
117,222,193095,1,4,0:3:0:0:
97,218,193162,1,4,0:3:0:0:
77,213,193229,5,6,0:2:0:0:
164,316,193362,1,0,0:2:0:0:
280,260,193495,2,0,P|292:203|272:150,1,97.4999955368044,10|8,0:2|0:2,0:0:0:0:
381,19,193762,2,0,P|370:66|382:112,1,97.4999955368044,10|0,0:3|0:2,0:2:0:0:
457,215,194029,1,10,0:2:0:0:
361,317,194162,6,0,L|248:289,1,97.4999955368044,6|0,0:3|0:2,0:2:0:0:
457,215,194429,2,0,L|344:187,1,97.4999955368044,2|8,0:2|0:2,0:2:0:0:
137,206,194695,2,0,L|250:178,1,97.4999955368044,6|0,0:3|0:2,0:2:0:0:
41,104,194962,2,0,L|154:76,1,97.4999955368044,2|8,0:2|0:2,0:2:0:0:
251,39,195229,1,2,0:2:0:0:
371,96,195362,6,0,P|359:158|372:207,1,97.4999955368044,6|0,0:2|0:2,0:2:0:0:
237,277,195629,2,0,P|225:215|238:166,1,97.4999955368044,8|10,0:2|0:2,0:0:0:0:
365,304,195895,1,10,0:3:0:0:
290,356,196029,1,0,0:0:0:0:
443,344,196162,1,8,0:2:0:0:
418,193,196295,6,0,L|407:88,1,97.4999955368044,6|0,0:3|0:2,0:2:0:0:
211,140,196562,2,0,L|222:35,1,97.4999955368044,2|8,0:2|0:2,0:2:0:0:
327,215,196829,2,0,L|316:110,1,97.4999955368044,6|0,0:3|0:2,0:2:0:0:
120,162,197096,2,0,L|131:57,1,97.4999955368044,2|8,0:2|0:2,0:2:0:0:
20,229,197362,1,10,0:2:0:0:
169,291,197495,6,0,B|220:298|220:298|247:316|247:316|371:329,1,194.999991073609,6|10,0:2|0:2,0:2:0:0:
468,158,197895,2,0,P|401:133|328:233,1,194.999991073609,10|2,0:2|0:2,0:2:0:0:
200,78,198295,2,0,P|250:44|386:61,1,194.999991073609,10|0,0:2|0:2,0:2:0:0:
237,163,198695,1,0,0:2:0:0:
237,163,198829,2,0,P|177:170|125:143,1,97.4999955368044,10|0,0:2|0:2,0:2:0:0:
251,313,199095,2,0,P|311:320|363:293,1,97.4999955368044,2|0,0:2|0:2,0:2:0:0:
102,248,199362,2,0,L|106:357,1,97.4999955368044,8|0,0:2|0:0,0:2:0:0:
25,170,199629,6,0,P|67:145|201:206,1,194.999991073609,6|10,0:2|0:2,0:2:0:0:
315,297,200029,2,0,P|284:237|291:106,1,194.999991073609,2|2,0:2|0:2,0:2:0:0:
508,164,200429,2,0,P|478:205|351:159,1,194.999991073609,10|0,0:2|0:2,0:2:0:0:
316,38,200829,1,0,0:2:0:0:
316,38,200962,2,0,P|261:21|206:26,1,97.4999955368044,10|0,0:2|0:2,0:2:0:0:
37,131,201229,2,0,P|85:131|131:115,1,97.4999955368044,10|8,0:2|0:3,0:0:0:0:
275,225,201495,1,6,0:3:0:0:
179,190,201629,1,4,0:3:0:0:
361,126,201762,6,0,P|423:120|481:138,1,97.4999955368044,2|0,0:2|0:2,0:2:0:0:
412,316,202029,2,0,L|400:207,1,97.4999955368044,8|2,0:2|0:2,0:2:0:0:
266,70,202295,2,0,L|254:179,1,97.4999955368044,8|0,0:2|0:2,0:2:0:0:
153,308,202562,2,0,P|71:313|31:293,1,97.4999955368044,10|0,0:2|0:2,0:2:0:0:
87,114,202829,6,0,L|109:238,1,97.4999955368044,8|0,0:2|0:2,0:2:0:0:
235,360,203095,1,10,0:2:0:0:
277,257,203229,1,0,0:2:0:0:
153,308,203362,1,10,0:2:0:0:
320,336,203495,1,0,0:2:0:0:
199,208,203629,2,0,P|131:202|69:231,1,97.4999955368044,10|0,0:2|0:2,0:2:0:0:
378,270,203895,6,0,B|509:244|509:244|450:220,1,194.999991073609,14|8,0:2|0:2,0:2:0:0:
420,41,204295,2,0,P|500:60|498:173,1,194.999991073609,2|0,0:2|0:2,0:0:0:0:
351,155,204695,2,0,L|250:141,1,97.4999955368044,10|0,0:2|0:2,0:2:0:0:
82,28,204962,6,0,P|42:84|35:129,1,97.4999955368044,10|0,0:2|0:0,0:2:0:0:
137,207,205229,2,0,L|124:101,1,97.4999955368044,8|0,0:2|0:2,0:0:0:0:
75,302,205495,2,0,P|127:316|181:304,1,97.4999955368044,10|8,0:2|0:3,0:2:0:0:
283,245,205762,2,0,P|338:229|402:254,1,97.4999955368044,4|4,0:3|0:3,0:0:0:0:
466,293,206029,6,0,L|454:190,1,97.4999955368044,2|0,0:2|0:2,0:2:0:0:
424,59,206295,1,8,0:2:0:0:
351,144,206429,1,2,0:2:0:0:
228,92,206562,1,8,0:2:0:0:
318,48,206695,1,0,0:2:0:0:
142,131,206829,2,0,L|26:114,1,97.4999955368044,10|0,0:2|0:2,0:2:0:0:
228,92,207095,6,0,P|254:158|236:214,1,97.4999955368044,8|0,0:2|0:2,0:2:0:0:
95,310,207362,2,0,L|78:196,1,97.4999955368044,10|0,0:2|0:2,0:2:0:0:
280,273,207629,2,0,B|208:255|208:255|174:268,1,97.4999955368044,10|0,0:2|0:2,0:2:0:0:
335,360,207895,2,0,B|407:342|407:342|441:355,1,97.4999955368044,10|0,0:2|0:2,0:2:0:0:
425,157,208162,6,0,P|361:139|410:214,1,194.999991073609,14|8,0:2|0:2,0:2:0:0:
511,154,208562,2,0,P|450:68|355:57,1,194.999991073609,2|0,0:2|0:2,0:0:0:0:
193,105,208962,2,0,L|300:114,1,97.4999955368044,10|0,0:2|0:2,0:2:0:0:
130,45,209229,6,0,P|109:111|199:207,1,194.999991073609,10|8,0:2|0:2,0:0:0:0:
321,296,209629,1,0,0:2:0:0:
321,296,209762,2,0,B|274:271|226:291|226:291|167:309|118:281,1,194.999991073609,10|8,0:2|0:2,0:0:0:0:
53,230,210162,1,8,0:2:0:0:
196,210,210295,5,14,0:2:0:0:
57,368,210429,1,0,0:2:0:0:
240,311,210695,5,14,0:2:0:0:
113,151,210829,1,0,0:2:0:0:
269,89,211095,5,14,0:2:0:0:
127,280,211229,1,0,0:2:0:0:
59,77,211362,2,0,P|130:60|171:82,1,97.4999955368044,14|0,0:2|0:0,0:0:0:0:
237,174,211629,2,0,P|310:178|343:150,1,97.4999955368044,0|0,0:2|0:0,0:0:0:0:
445,63,211895,2,0,L|433:187,1,97.4999955368044,0|0,0:2|0:0,0:0:0:0:
449,263,212162,2,0,L|504:281,3,48.7499977684022,0|8|4|4,0:2|0:3|0:3|0:3,0:0:0:0:
381,228,212429,5,14,0:2:0:0:
231,358,212562,1,0,0:2:0:0:
58,176,212829,5,14,0:2:0:0:
271,269,212962,1,0,0:2:0:0:
375,74,213229,5,14,0:2:0:0:
168,188,213362,1,0,0:2:0:0:
340,321,213495,2,0,P|357:249|334:212,1,97.4999955368044,14|0,0:2|0:0,0:0:0:0:
255,80,213762,2,0,L|265:188,1,97.4999955368044,0|0,0:2|0:0,0:0:0:0:
159,285,214029,2,0,L|169:177,1,97.4999955368044,0|0,0:2|0:0,0:0:0:0:
81,98,214295,2,0,L|67:43,3,48.7499977684022,8|8|8|8,0:2|0:2|0:2|0:2,0:0:0:0:
54,167,214562,5,14,0:2:0:0:
341,104,214695,1,0,0:2:0:0:
159,285,214962,5,14,0:2:0:0:
206,163,215095,1,0,0:2:0:0:
305,332,215362,5,14,0:2:0:0:
82,267,215496,1,0,0:2:0:0:
194,381,215629,2,0,P|245:374|285:352,1,97.4999955368044,14|0,0:2|0:0,0:0:0:0:
423,262,215895,2,0,L|402:379,1,97.4999955368044,0|0,0:2|0:0,0:0:0:0:
255,191,216162,5,4,0:2:0:0:
256,192,216229,12,0,222295,0:0:0:0:
