osu file format v14

[General]
AudioFilename: audio.mp3
AudioLeadIn: 0
PreviewTime:86229
Countdown: 0
SampleSet: Soft
StackLeniency: 0.7
Mode: 0
LetterboxInBreaks: 0
WidescreenStoryboard: 1

[Editor]
Bookmarks: 1229,7629,26829,43895,52429,69495,78029,86562,110029,127095,144162,167629,184695,215629
DistanceSpacing: 1.1
BeatDivisor: 4
GridSize: 8
TimelineZoom: 2

[Metadata]
Title:Houkago Stride
TitleUnicode:放課後ストライド
Artist:Kano
ArtistUnicode:鹿乃
Creator:Nevo
Version:Astronic's Insane
Source:ミカグラ学園組曲
Tags:nelliel kowari astonic lugu hikan after school stride last note cover japanese anime novelty pop rock utaite note. mikagura gakuen kumikyoku suite
BeatmapID:2414019
BeatmapSetID:1118779

[Difficulty]
HPDrainRate:5.2
CircleSize:3.6
OverallDifficulty:8.4
ApproachRate:9.1
SliderMultiplier:1.6
SliderTickRate:1

[Events]
//Background and Video events
0,0,"a2c1780b450ab7a74d8ce1eab8a166e67bf9663e_s2_n2.jpg",0,0
Video,0,"phosmapissupercute.mp4"
//Break Periods
//Storyboard Layer 0 (Background)
//Storyboard Layer 1 (Fail)
//Storyboard Layer 2 (Pass)
//Storyboard Layer 3 (Foreground)
//Storyboard Layer 4 (Overlay)
//Storyboard Sound Samples

[TimingPoints]
1229,266.666666666667,4,2,22,80,1,0
7629,-125,4,2,22,80,0,0
9695,-125,4,2,22,5,0,0
9762,-100,4,1,22,80,0,0
9895,-100,4,2,22,80,0,0
9962,-100,4,2,22,5,0,0
10029,-100,4,1,22,80,0,0
12028,-100,4,2,22,80,0,0
12095,-100,4,2,22,5,0,0
12162,-100,4,1,22,80,0,0
12962,-100,4,2,22,80,0,0
13095,-100,4,1,22,80,0,0
17228,-100,4,2,22,80,0,0
17362,-100,4,1,22,80,0,0
19362,-100,4,2,22,80,0,0
19495,-100,4,1,22,80,0,0
21095,-100,4,2,22,80,0,0
21229,-100,4,1,22,80,0,0
24828,-100,4,2,22,80,0,0
24895,-100,4,2,22,5,0,0
24962,-100,4,1,22,80,0,0
26829,-111.111111111111,4,1,22,70,0,0
35562,-111.111111111111,4,1,22,5,0,0
35629,-111.111111111111,4,1,22,70,0,0
43895,-100,4,1,22,80,0,0
44095,-100,4,1,22,5,0,0
44162,-100,4,1,22,80,0,0
46229,-100,4,1,22,5,0,0
46296,-100,4,1,22,80,0,0
51362,-100,4,2,22,80,0,0
51495,-100,4,1,22,80,0,0
52429,-111.111111111111,4,1,22,70,0,0
54229,-111.111111111111,4,2,22,5,0,0
54295,-111.111111111111,4,1,22,70,0,0
60562,-111.111111111111,4,2,22,70,0,0
60695,-111.111111111111,4,1,22,70,0,0
60828,-111.111111111111,4,2,22,70,0,0
60962,-111.111111111111,4,1,22,70,0,0
63029,-111.111111111111,4,2,22,5,0,0
63095,-111.111111111111,4,1,22,70,0,0
69495,-125,4,1,22,60,0,0
69761,-125,4,2,22,60,0,0
69895,-125,4,1,22,60,0,0
70161,-125,4,2,22,60,0,0
70295,-125,4,1,22,60,0,0
71895,-125,4,2,22,60,0,0
72029,-125,4,1,22,60,0,0
72295,-125,4,2,22,60,0,0
72429,-125,4,1,22,60,0,0
74028,-125,4,2,22,60,0,0
74162,-125,4,1,22,60,0,0
74428,-125,4,2,22,60,0,0
74562,-125,4,1,22,60,0,0
74828,-125,4,2,22,60,0,0
74962,-125,4,1,22,60,0,0
76161,-125,4,2,22,60,0,0
76295,-125,4,1,22,60,0,0
76561,-125,4,2,22,60,0,0
76695,-125,4,1,22,60,0,0
76961,-125,4,2,22,60,0,0
77095,-125,4,1,22,60,0,0
78029,-111.111111111111,4,1,22,70,0,0
82295,-105.263157894737,4,1,22,70,0,0
82828,-105.263157894737,4,2,22,70,0,0
82961,-105.263157894737,4,1,22,70,0,0
84429,-100,4,1,22,80,0,0
85562,-100,4,2,22,5,0,0
86295,-100,4,2,22,70,0,0
86495,-100,4,2,22,5,0,0
86562,-90.9090909090909,4,1,22,90,0,1
90962,-90.9090909090909,4,1,22,90,0,1
91095,-90.9090909090909,4,1,22,90,0,1
91362,-90.9090909090909,4,1,22,90,0,1
91495,-90.9090909090909,4,1,22,90,0,1
92895,-90.9090909090909,4,1,22,5,0,1
92962,-90.9090909090909,4,1,22,90,0,1
99495,-90.9090909090909,4,1,22,90,0,1
99629,-90.9090909090909,4,1,22,90,0,1
99895,-90.9090909090909,4,1,22,90,0,1
100029,-90.9090909090909,4,1,22,90,0,1
101362,-90.9090909090909,4,1,22,90,0,1
101495,-90.9090909090909,4,1,22,90,0,1
107895,-66.6666666666667,4,1,22,90,0,1
108161,-66.6666666666667,4,1,22,90,0,1
108295,-66.6666666666667,4,1,22,90,0,1
108561,-66.6666666666667,4,1,22,90,0,1
108695,-66.6666666666667,4,1,22,90,0,1
109095,-66.6666666666667,4,1,22,90,0,1
110029,-125,4,2,22,60,0,0
113895,-125,4,2,22,60,0,0
113962,-125,4,2,22,5,0,0
114029,-125,4,2,22,60,0,0
114295,-111.111111111111,4,1,22,70,0,0
118562,-125,4,1,22,70,0,0
120362,-125,4,2,22,5,0,0
120429,-125,4,1,22,70,0,0
122428,-125,4,2,22,70,0,0
122495,-125,4,2,22,5,0,0
122562,-125,4,1,22,70,0,0
122829,-111.111111111111,4,1,22,70,0,0
127095,-125,4,1,22,60,0,0
127361,-125,4,2,22,60,0,0
127495,-125,4,1,22,60,0,0
127761,-125,4,2,22,60,0,0
127895,-125,4,1,22,60,0,0
129495,-125,4,2,22,60,0,0
129629,-125,4,1,22,60,0,0
129895,-125,4,2,22,60,0,0
130029,-125,4,1,22,60,0,0
131628,-125,4,2,22,60,0,0
131762,-125,4,1,22,60,0,0
132028,-125,4,2,22,60,0,0
132162,-125,4,1,22,60,0,0
132428,-125,4,2,22,60,0,0
132562,-125,4,1,22,60,0,0
133761,-125,4,2,22,60,0,0
133895,-125,4,1,22,60,0,0
134161,-125,4,2,22,60,0,0
134295,-125,4,1,22,60,0,0
134561,-125,4,2,22,60,0,0
134695,-125,4,1,22,60,0,0
134828,-125,4,2,22,60,0,0
134962,-125,4,1,22,60,0,0
135629,-111.111111111111,4,1,22,70,0,0
138295,-111.111111111111,4,2,22,70,0,0
138428,-111.111111111111,4,1,22,70,0,0
140428,-111.111111111111,4,2,22,70,0,0
140561,-111.111111111111,4,1,22,70,0,0
142029,-100,4,1,22,80,0,0
143229,-100,4,2,22,80,0,0
143362,-100,4,1,22,80,0,0
143495,-100,4,2,22,80,0,0
143629,-100,4,1,22,80,0,0
144162,-90.9090909090909,4,1,22,90,0,1
148562,-90.9090909090909,4,1,22,90,0,1
148695,-90.9090909090909,4,1,22,90,0,1
148962,-90.9090909090909,4,1,22,90,0,1
149095,-90.9090909090909,4,1,22,90,0,1
150428,-90.9090909090909,4,1,22,90,0,1
150562,-90.9090909090909,4,1,22,90,0,1
153429,-90.9090909090909,4,1,22,5,0,1
153495,-90.9090909090909,4,1,22,90,0,1
157095,-90.9090909090909,4,1,22,90,0,1
157229,-90.9090909090909,4,1,22,90,0,1
157495,-90.9090909090909,4,1,22,90,0,1
157629,-90.9090909090909,4,1,22,90,0,1
157895,-90.9090909090909,4,1,22,90,0,1
158029,-90.9090909090909,4,1,22,90,0,1
158962,-90.9090909090909,4,1,22,90,0,1
159095,-90.9090909090909,4,1,22,90,0,1
163429,-90.9090909090909,4,1,22,90,0,1
163495,-90.9090909090909,4,1,22,90,0,1
165495,-66.6666666666667,4,1,22,90,0,1
165761,-66.6666666666667,4,1,22,90,0,1
165895,-66.6666666666667,4,1,22,90,0,1
166161,-66.6666666666667,4,1,22,90,0,1
166295,-66.6666666666667,4,1,22,90,0,1
166562,-66.6666666666667,4,1,22,70,0,1
166695,-100,4,1,22,70,0,0
167629,-100,4,1,22,70,0,0
167762,-100,4,1,22,70,0,0
167829,-100,4,1,22,5,0,0
167895,-100,4,1,22,70,0,0
169962,-100,4,1,22,5,0,0
170029,-100,4,1,22,70,0,0
172028,-100,4,1,22,70,0,0
172095,-100,4,1,22,5,0,0
172162,-100,4,1,22,70,0,0
174229,-100,4,1,22,5,0,0
174296,-100,4,1,22,70,0,0
176295,-100,4,1,22,70,0,0
176429,-100,4,1,22,70,0,0
178495,-100,4,1,22,5,0,0
178562,-100,4,1,22,70,0,0
180562,-100,4,1,22,70,0,0
180629,-100,4,1,22,5,0,0
180695,-100,4,1,22,70,0,0
182562,-100,4,1,22,80,0,0
183695,-100,4,1,22,80,0,0
183762,-100,4,1,22,80,0,0
183829,-100,4,1,22,80,0,0
183895,-100,4,1,22,80,0,0
183961,-100,4,1,22,80,0,0
184028,-100,4,1,22,80,0,0
184095,-100,4,1,22,80,0,0
184162,-100,4,1,22,80,0,0
184695,-90.9090909090909,4,1,22,80,0,1
184828,-90.9090909090909,4,1,22,80,0,1
184962,-90.9090909090909,4,1,22,90,0,1
189095,-90.9090909090909,4,1,22,90,0,1
189229,-90.9090909090909,4,1,22,90,0,1
190962,-90.9090909090909,4,1,22,90,0,1
191095,-90.9090909090909,4,1,22,90,0,1
199495,-90.9090909090909,4,1,22,90,0,1
199629,-90.9090909090909,4,1,22,90,0,1
205095,-90.9090909090909,4,1,22,90,0,1
205229,-90.9090909090909,4,1,22,90,0,1
206762,-90.9090909090909,4,1,22,90,0,1
206829,-90.9090909090909,4,1,22,90,0,1
210295,-66.6666666666667,4,1,22,90,0,1
210561,-66.6666666666667,4,1,22,90,0,1
210695,-66.6666666666667,4,1,22,90,0,1
210961,-66.6666666666667,4,1,22,90,0,1
211095,-66.6666666666667,4,1,22,90,0,1
211495,-66.6666666666667,4,1,22,90,0,1
211629,-90.9090909090909,4,1,22,90,0,1
211762,-90.9090909090909,4,1,22,90,0,1
211895,-90.9090909090909,4,1,22,90,0,1
212028,-90.9090909090909,4,1,22,90,0,1
212162,-90.9090909090909,4,1,22,90,0,1
212429,-66.6666666666667,4,1,22,90,0,1
212695,-66.6666666666667,4,1,22,90,0,1
212829,-66.6666666666667,4,1,22,90,0,1
213095,-66.6666666666667,4,1,22,90,0,1
213229,-66.6666666666667,4,1,22,90,0,1
213628,-66.6666666666667,4,1,22,90,0,1
213762,-90.9090909090909,4,1,22,90,0,1
213895,-90.9090909090909,4,1,22,90,0,1
214029,-90.9090909090909,4,1,22,90,0,1
214162,-90.9090909090909,4,1,22,90,0,1
214295,-90.9090909090909,4,1,22,90,0,1
214562,-66.6666666666667,4,1,22,90,0,1
214828,-66.6666666666667,4,1,22,90,0,1
214962,-66.6666666666667,4,1,22,90,0,1
215228,-66.6666666666667,4,1,22,90,0,1
215362,-66.6666666666667,4,1,22,90,0,1
215762,-66.6666666666667,4,1,22,90,0,1
215895,-66.6666666666667,4,1,22,90,0,1
216029,-66.6666666666667,4,1,22,90,0,1
216162,-76.9230769230769,4,1,22,80,0,0
216229,-76.9230769230769,4,1,22,60,0,0
216295,-76.9230769230769,4,1,22,60,0,0
222295,-76.9230769230769,4,1,22,30,0,0
223362,-76.9230769230769,4,1,22,30,0,0

[Colours]
Combo1 : 131,189,254
Combo2 : 255,128,128
Combo3 : 253,197,2
Combo4 : 124,80,67

[HitObjects]
256,192,1229,5,6,1:2:0:0:
256,192,3095,5,2,1:2:0:0:
256,192,3362,1,6,1:2:0:0:
256,192,5229,5,2,1:2:0:0:
256,192,5495,1,6,1:2:0:0:
256,192,7362,5,0,1:2:0:0:
256,192,7629,1,6,1:2:0:0:
256,192,8162,1,6,1:2:0:0:
256,192,8695,1,6,1:2:0:0:
256,192,9229,2,0,L|264:160,2,32,4|4|4,1:3|1:3|1:3,0:0:0:0:
232,272,9495,2,0,B|208:288|208:288|136:280,1,96,8|0,1:2|0:0,0:2:0:0:
96,272,9762,6,0,L|88:192,1,80,6|0,0:2|0:0,0:2:0:0:
183,104,10029,2,0,L|175:184,1,80,10|0,0:2|0:2,0:2:0:0:
107,75,10295,2,0,P|139:35|251:59,1,160,2|10,0:2|0:2,0:0:0:0:
312,152,10695,2,0,B|432:160|432:160|464:120,1,160,6|0,0:2|0:2,0:2:0:0:
512,288,11095,2,0,L|504:200,1,80,10|0,0:2|0:2,0:2:0:0:
464,49,11362,2,0,L|456:129,1,80,2|0,0:2|0:2,0:2:0:0:
424,280,11629,2,0,L|416:200,1,80,10|0,0:2|0:2,0:2:0:0:
384,352,11895,6,0,P|344:368|296:360,1,80,2|0,0:2|0:0,0:2:0:0:
256,208,12162,2,0,P|292:192|332:195,1,80,10|0,0:2|0:2,0:2:0:0:
232,336,12429,2,0,L|248:176,1,160,2|10,0:2|0:2,0:0:0:0:
256,32,12829,2,0,L|176:40,1,80,6|0,0:2|0:0,0:2:0:0:
160,202,13095,1,0,0:2:0:0:
160,202,13229,2,0,L|172:113,1,80,10|0,0:2|0:2,0:2:0:0:
73,184,13495,1,10,0:2:0:0:
246,174,13629,1,0,0:2:0:0:
91,102,13762,1,10,0:2:0:0:
91,102,13895,1,4,0:3:0:0:
255,92,14029,6,0,L|351:100,1,80,6|0,1:2|0:2,0:0:0:0:
464,160,14295,2,0,L|384:166,1,80,10|0,0:2|0:2,0:2:0:0:
232,256,14562,2,0,P|296:232|384:280,1,160,2|10,0:2|0:2,0:0:0:0:
224,384,14962,2,0,L|216:224,1,160,6|0,0:2|0:2,0:2:0:0:
280,72,15362,2,0,L|272:160,1,80,10|0,0:2|0:2,0:2:0:0:
112,16,15629,2,0,L|120:96,1,80,2|0,0:2|0:2,0:2:0:0:
136,224,15895,1,10,0:2:0:0:
200,24,16029,6,0,B|240:40|288:24|288:24|328:8|376:24,1,160,4|0,0:2|0:2,0:0:0:0:
456,176,16429,2,0,L|448:96,1,80,10|0,0:2|0:2,0:2:0:0:
356,18,16695,2,0,L|364:98,1,80,2|0,0:2|0:2,0:0:0:0:
384,249,16962,1,10,0:2:0:0:
216,144,17095,2,0,P|264:152|304:136,1,80,6|0,0:2|0:0,0:2:0:0:
152,8,17362,1,0,0:2:0:0:
152,8,17495,2,0,L|160:88,1,80,10|0,0:2|0:2,0:2:0:0:
285,222,17762,2,0,L|293:142,1,80,2|0,0:2|0:2,0:2:0:0:
136,176,18029,1,10,0:2:0:0:
136,176,18095,1,8,0:2:0:0:
136,176,18162,2,0,L|144:216,1,40,8|8,0:2|0:2,0:0:0:0:
176,352,18295,6,0,B|240:360|240:360|288:344|288:344|352:352,2,160,6|10|2,0:2|0:2|0:2,0:2:0:0:
95,342,18962,1,0,0:2:0:0:
219,274,19095,1,10,0:2:0:0:
48,272,19229,2,0,L|56:192,1,80,6|0,0:2|0:0,0:2:0:0:
72,32,19495,1,0,0:2:0:0:
208,144,19629,2,0,P|248:152|288:136,1,80,10|0,0:2|0:2,0:2:0:0:
296,8,19895,2,0,P|257:0|220:12,1,80,2|0,0:2|0:2,0:2:0:0:
312,168,20162,2,0,L|320:80,1,80,10|0,0:2|0:2,0:2:0:0:
168,80,20429,6,0,L|184:240,2,160,2|10|2,0:2|0:2|0:2,0:2:0:0:
220,12,21095,1,0,1:0:0:0:
312,168,21229,1,10,0:2:0:0:
400,40,21362,1,6,0:2:0:0:
424,56,21629,1,0,0:2:0:0:
336,192,21762,2,0,L|344:272,1,80,10|0,0:2|0:2,0:2:0:0:
440,368,22029,1,10,0:2:0:0:
267,286,22162,1,0,0:2:0:0:
267,286,22295,2,0,P|307:270|363:278,1,80,10|4,0:2|0:3,0:0:0:0:
248,366,22562,6,0,P|192:318|216:222,2,160,6|10|2,0:2|0:2|0:2,0:2:0:0:
267,286,23229,1,0,0:2:0:0:
104,305,23362,1,10,0:2:0:0:
267,195,23495,1,6,0:2:0:0:
272,168,23762,1,0,3:2:0:0:
80,144,23895,2,0,L|88:224,1,80,10|0,0:2|0:2,0:2:0:0:
276,146,24162,2,0,L|284:66,1,80,2|0,0:2|0:2,0:2:0:0:
184,160,24429,1,10,0:2:0:0:
368,80,24562,6,0,B|408:64|448:72|464:80|448:88|496:96|528:80,1,160,4|0,0:2|0:0,0:0:0:0:
495,191,24962,2,0,L|488:104,1,80,10|0,0:2|0:2,0:2:0:0:
355,165,25229,2,0,L|348:244,1,80,2|0,0:2|0:2,0:0:0:0:
504,273,25495,1,10,0:2:0:0:
266,228,25629,2,0,P|281:297|365:328,1,160,6|0,0:2|0:2,0:2:0:0:
276,146,26029,2,0,L|188:154,1,80,10|0,0:2|0:2,0:2:0:0:
440,40,26295,2,0,L|352:32,1,80,10|0,0:2|0:2,0:2:0:0:
216,24,26562,1,10,0:2:0:0:
216,24,26629,1,8,0:2:0:0:
216,24,26695,2,0,L|208:72,1,40,8|8,0:2|0:2,0:0:0:0:
112,160,26829,6,0,L|120:232,1,71.9999978027344,6|0,0:2|0:2,0:2:0:0:
258,299,27095,2,0,L|266:227,1,71.9999978027344,8|2,0:2|0:2,0:0:0:0:
104,312,27362,2,0,L|85:158,1,143.999995605469,2|8,0:2|0:2,0:2:0:0:
80,32,27762,2,0,B|128:16|160:24|176:32|160:40|208:48|248:32,1,143.999995605469,2|0,0:2|0:2,0:2:0:0:
408,112,28162,2,0,L|400:32,1,71.9999978027344,10|2,0:2|0:2,0:0:0:0:
424,195,28429,2,0,B|456:155|456:155|446:47,1,143.999995605469,2|10,0:2|0:2,0:2:0:0:
445,37,28962,5,2,0:2:0:0:
424,195,29095,1,2,0:2:0:0:
424,195,29229,2,0,L|496:187,1,71.9999978027344,10|2,0:2|0:2,0:0:0:0:
336,152,29495,2,0,L|192:144,1,143.999995605469,2|10,0:2|0:2,0:2:0:0:
368,280,29895,2,0,L|512:272,1,143.999995605469,2|2,0:2|0:2,0:2:0:0:
409,112,30295,1,10,0:2:0:0:
303,229,30429,1,2,0:2:0:0:
192,144,30562,1,2,0:2:0:0:
192,144,30695,1,2,0:2:0:0:
136,280,30829,2,0,P|176:264|224:272,1,71.9999978027344,10|10,0:2|0:2,0:0:0:0:
88,352,31095,6,0,L|96:200,1,143.999995605469,6|8,0:2|0:2,0:2:0:0:
184,72,31495,2,0,L|192:144,1,71.9999978027344,2|2,0:2|0:2,0:0:0:0:
290,245,31762,2,0,L|284:322,2,71.9999978027344,2|8|2,0:2|0:2|0:2,0:2:0:0:
336,88,32162,2,0,P|376:72|416:80,1,71.9999978027344,2|2,0:2|0:2,0:0:0:0:
496,216,32429,1,8,0:2:0:0:
400,296,32562,1,2,0:2:0:0:
400,296,32695,2,0,B|376:256|376:256|384:152,1,143.999995605469,2|10,0:2|0:2,0:2:0:0:
384,128,33229,6,0,L|313:138,1,71.9999978027344,14|8,0:2|0:3,0:0:0:0:
144,160,33495,1,10,0:3:0:0:
240,8,33629,2,0,L|248:80,1,71.9999978027344,14|4,0:2|0:3,0:0:0:0:
264,208,33895,1,6,0:3:0:0:
96,56,34029,2,0,L|168:64,1,71.9999978027344,14|8,0:2|0:3,0:0:0:0:
79,207,34295,1,6,0:3:0:0:
79,207,34429,2,0,L|71:135,1,71.9999978027344,14|4,0:2|0:3,0:0:0:0:
240,112,34695,1,10,0:3:0:0:
240,112,34829,2,0,L|232:192,1,71.9999978027344,14|0,0:2|0:2,0:2:0:0:
64,64,35095,2,0,L|71:135,1,71.9999978027344,14|0,0:2|0:2,0:2:0:0:
248,32,35362,6,0,B|288:40|288:40|352:32|352:32|400:40,1,143.999995605469,6|8,0:2|0:2,0:2:0:0:
432,192,35762,1,2,0:2:0:0:
432,192,35895,2,0,B|400:168|400:168|392:64,1,143.999995605469,2|8,0:2|0:2,0:2:0:0:
496,240,36295,2,0,P|424:215|368:249,1,143.999995605469,2|0,0:2|0:2,0:2:0:0:
304,360,36695,1,10,0:2:0:0:
225,272,36829,1,2,0:2:0:0:
225,272,36962,2,0,L|297:280,1,71.9999978027344,2|0,0:2|0:2,0:2:0:0:
432,192,37229,2,0,L|352:184,1,71.9999978027344,10|0,0:2|0:2,0:2:0:0:
192,176,37495,5,2,0:2:0:0:
264,48,37629,1,2,0:2:0:0:
264,48,37762,2,0,L|272:120,1,71.9999978027344,10|2,0:2|0:2,0:0:0:0:
120,88,38029,2,0,L|104:232,1,143.999995605469,2|10,0:2|0:2,0:2:0:0:
248,280,38429,2,0,B|304:288|304:288|344:264|344:264|400:272,1,143.999995605469,2|2,0:2|0:2,0:2:0:0:
505,284,38829,1,10,0:2:0:0:
384,184,38962,1,2,0:2:0:0:
432,320,39095,2,0,P|424:272|432:248,1,71.9999978027344,2|2,0:2|0:2,0:0:0:0:
456,104,39362,2,0,L|464:176,1,71.9999978027344,10|10,0:2|0:2,0:0:0:0:
312,48,39629,6,0,B|272:32|272:32|160:40,1,143.999995605469,6|8,0:2|0:2,0:2:0:0:
40,88,40029,2,0,L|120:96,1,71.9999978027344,2|2,0:2|0:2,0:0:0:0:
200,192,40295,2,0,L|192:120,1,71.9999978027344,2|8,0:2|0:2,0:2:0:0:
288,200,40562,1,2,0:2:0:0:
288,200,40695,2,0,L|280:272,2,71.9999978027344,2|2|8,0:2|0:2|0:2,0:0:0:0:
304,56,41095,1,2,0:2:0:0:
440,208,41229,2,0,P|400:216|360:200,1,71.9999978027344,2|0,0:2|0:2,0:2:0:0:
328,56,41495,2,0,P|362:47|397:56,1,71.9999978027344,10|0,0:2|0:2,0:2:0:0:
370,207,41762,6,0,L|362:127,1,71.9999978027344,14|8,0:2|0:3,0:0:0:0:
280,271,42029,1,10,0:3:0:0:
280,271,42162,2,0,L|352:279,1,71.9999978027344,14|4,0:2|0:3,0:0:0:0:
192,264,42429,1,6,0:3:0:0:
192,264,42562,2,0,L|200:336,1,71.9999978027344,14|8,0:2|0:3,0:0:0:0:
264,184,42829,1,6,0:3:0:0:
96,192,42962,2,0,L|104:264,1,71.9999978027344,14|4,0:2|0:3,0:0:0:0:
248,96,43229,1,10,0:3:0:0:
248,96,43362,2,0,L|176:88,1,71.9999978027344,14|0,0:2|0:2,0:2:0:0:
345,212,43629,2,0,L|424:200,1,71.9999978027344,14|0,0:2|0:2,0:2:0:0:
288,72,43895,6,0,L|120:56,2,160,6|10|2,0:2|0:2|0:2,0:2:0:0:
360,128,44562,1,0,0:2:0:0:
360,128,44695,1,10,0:2:0:0:
424,304,44829,2,0,B|384:320|344:304|344:304|304:288|256:312,1,160,6|0,0:2|0:2,0:2:0:0:
151,248,45229,2,0,P|191:256|239:232,1,80,10|0,0:2|0:2,0:2:0:0:
76,277,45495,2,0,P|97:313|152:328,1,80,2|0,0:2|0:2,0:2:0:0:
185,174,45762,2,0,L|176:93,1,80,10|0,0:2|0:2,0:2:0:0:
320,154,46029,6,0,L|303:315,2,160,6|10|2,0:2|0:2|0:2,0:2:0:0:
330,73,46695,1,0,0:2:0:0:
330,73,46829,1,10,0:2:0:0:
280,240,46962,2,0,B|240:224|208:240|208:240|168:256|121:239,1,160,6|0,0:2|0:2,0:2:0:0:
216,360,47362,2,0,L|208:280,1,80,10|0,0:2|0:2,0:2:0:0:
192,120,47629,1,10,0:2:0:0:
124,240,47762,1,0,0:2:0:0:
104,48,47895,1,10,0:2:0:0:
104,48,47962,1,8,0:3:0:0:
104,48,48029,2,0,L|160:40,1,40,4|4,0:3|0:3,0:0:0:0:
232,32,48162,6,0,B|264:56|264:56|392:48,2,160,6|10|2,0:2|0:2|0:2,0:2:0:0:
208,16,48962,1,10,0:2:0:0:
264,216,49095,2,0,L|272:136,1,80,6|0,0:2|0:2,0:2:0:0:
400,48,49362,1,2,0:2:0:0:
400,48,49495,2,0,B|432:72|432:72|448:192,2,160,10|2|8,0:2|0:2|0:2,0:2:0:0:
326,12,50162,1,0,0:2:0:0:
176,104,50295,6,0,L|360:96,2,160,6|10|2,0:2|0:2|0:2,0:2:0:0:
96,112,50962,1,0,0:2:0:0:
104,272,51095,1,10,0:2:0:0:
104,272,51229,2,0,P|112:216|104:184,1,80,6|0,0:2|0:0,0:2:0:0:
256,336,51495,1,0,0:2:0:0:
256,336,51629,2,0,P|251:284|264:248,1,80,10|0,0:2|0:2,0:2:0:0:
360,104,51895,2,0,L|352:184,1,80,10|0,0:2|0:2,0:0:0:0:
353,312,52162,1,10,0:2:0:0:
353,312,52229,1,8,0:2:0:0:
353,312,52295,2,0,L|408:304,1,40,8|8,0:2|0:2,0:0:0:0:
504,232,52429,6,0,L|432:224,1,71.9999978027344,6|0,0:2|0:2,0:2:0:0:
360,104,52695,2,0,L|280:96,1,71.9999978027344,8|2,0:2|0:2,0:0:0:0:
114,148,52962,2,0,P|187:133|246:199,1,143.999995605469,2|8,0:2|0:2,0:2:0:0:
181,349,53362,2,0,B|157:317|157:317|165:213,1,143.999995605469,2|0,0:2|0:2,0:2:0:0:
184,48,53762,1,10,0:2:0:0:
237,173,53895,1,2,0:2:0:0:
320,32,54029,2,0,P|368:24|432:64,1,107.999996704102,2|0,0:2|0:0,0:2:0:0:
440,72,54295,2,0,L|448:144,1,71.9999978027344,10|0,0:2|0:2,0:2:0:0:
400,296,54562,6,0,L|408:224,1,71.9999978027344,2|2,0:2|0:2,0:0:0:0:
480,320,54829,1,10,0:2:0:0:
324,233,54962,1,2,0:2:0:0:
192,344,55095,2,0,P|240:312|328:328,1,143.999995605469,2|10,0:2|0:2,0:2:0:0:
168,256,55495,2,0,B|152:216|168:184|168:184|184:152|168:112,1,143.999995605469,2|2,0:2|0:2,0:2:0:0:
139,0,55895,1,10,0:2:0:0:
232,72,56029,1,2,0:2:0:0:
232,72,56162,2,0,L|160:80,1,71.9999978027344,2|2,0:2|0:2,0:0:0:0:
33,90,56429,1,10,0:2:0:0:
175,166,56562,1,10,0:2:0:0:
84,293,56695,6,0,L|93:147,1,143.999995605469,6|8,0:2|0:2,0:2:0:0:
172,252,57095,1,2,0:2:0:0:
172,252,57229,2,0,P|215:243|255:256,1,71.9999978027344,2|2,0:2|0:2,0:0:0:0:
384,312,57495,1,8,0:2:0:0:
326,177,57629,1,2,0:2:0:0:
326,177,57762,2,0,L|334:265,1,71.9999978027344,2|2,0:2|0:2,0:0:0:0:
259,123,58029,1,8,0:2:0:0:
411,57,58162,1,2,0:2:0:0:
411,57,58295,2,0,P|453:73|474:101,1,71.9999978027344,2|0,0:2|0:2,0:2:0:0:
417,225,58562,1,10,0:2:0:0:
334,86,58695,1,0,0:2:0:0:
260,255,58829,6,0,L|348:247,1,71.9999978027344,14|8,0:2|0:3,0:0:0:0:
192,208,59095,1,10,0:3:0:0:
192,208,59229,2,0,L|112:200,1,71.9999978027344,14|4,0:2|0:3,0:0:0:0:
40,195,59495,1,6,0:3:0:0:
136,352,59629,2,0,L|128:272,1,71.9999978027344,14|8,0:2|0:3,0:0:0:0:
112,120,59895,1,6,0:3:0:0:
112,120,60029,2,0,L|192:128,1,71.9999978027344,14|4,0:2|0:3,0:0:0:0:
264,140,60295,1,10,0:3:0:0:
344,48,60429,2,0,L|272:56,1,71.9999978027344,14|0,0:2|0:0,0:2:0:0:
184,216,60695,2,0,L|256:224,1,71.9999978027344,14|0,0:2|0:0,0:2:0:0:
424,240,60962,6,0,B|464:224|464:224|472:120,1,143.999995605469,6|8,0:2|0:2,0:2:0:0:
475,42,61362,1,2,0:2:0:0:
392,120,61495,2,0,P|336:136|264:88,1,143.999995605469,2|8,0:2|0:2,0:2:0:0:
120,80,61895,2,0,P|188:65|245:106,1,143.999995605469,2|0,0:2|0:2,0:2:0:0:
179,217,62295,2,0,L|172:146,1,71.9999978027344,10|2,0:2|0:2,0:0:0:0:
336,288,62562,2,0,L|344:216,1,71.9999978027344,2|0,0:2|0:2,0:2:0:0:
192,344,62829,2,0,B|160:328|160:328|152:248,1,107.999996704102,10|0,0:2|0:0,0:2:0:0:
152,216,63095,6,0,L|144:144,1,71.9999978027344,2|2,0:2|0:2,0:0:0:0:
136,16,63362,1,10,0:2:0:0:
64,168,63495,1,2,0:2:0:0:
195,73,63629,2,0,P|264:64|320:120,1,143.999995605469,2|10,0:2|0:2,0:2:0:0:
360,232,64029,2,0,B|368:184|368:184|400:152|400:152|408:88,1,143.999995605469,2|2,0:2|0:2,0:2:0:0:
240,144,64429,2,0,L|248:216,1,71.9999978027344,10|2,0:2|0:2,0:0:0:0:
288,360,64695,2,0,L|296:288,1,71.9999978027344,2|2,0:2|0:2,0:0:0:0:
316,110,64962,1,10,0:2:0:0:
360,232,65095,1,10,0:2:0:0:
376,48,65229,6,0,P|448:40|504:112,1,143.999995605469,6|8,0:2|0:2,0:2:0:0:
456,240,65629,1,2,0:2:0:0:
456,240,65762,2,0,L|448:168,1,71.9999978027344,2|2,0:2|0:2,0:0:0:0:
316,110,66029,1,8,0:2:0:0:
224,296,66162,1,2,0:2:0:0:
224,296,66295,2,0,L|296:288,1,71.9999978027344,2|2,0:2|0:2,0:0:0:0:
240,144,66562,1,8,0:2:0:0:
120,208,66695,1,2,0:2:0:0:
120,208,66829,2,0,L|192:216,1,71.9999978027344,2|0,0:2|0:2,0:2:0:0:
240,64,67095,2,0,L|168:71,1,71.9999978027344,10|0,0:2|0:2,0:2:0:0:
312,184,67362,6,0,L|320:112,1,71.9999978027344,14|8,0:2|0:3,0:0:0:0:
448,16,67629,1,10,0:3:0:0:
448,16,67762,2,0,L|456:88,1,71.9999978027344,14|4,0:2|0:3,0:0:0:0:
472,240,68029,1,6,0:3:0:0:
472,240,68162,2,0,P|432:240|392:256,1,71.9999978027344,14|8,0:2|0:3,0:0:0:0:
248,336,68429,1,6,0:3:0:0:
248,336,68562,2,0,L|240:264,1,71.9999978027344,14|4,0:2|0:3,0:0:0:0:
224,160,68829,1,10,0:3:0:0:
88,240,68962,2,0,L|160:232,1,71.9999978027344,14|0,0:2|0:2,0:2:0:0:
252,80,69229,2,0,L|180:72,1,71.9999978027344,14|0,0:2|0:2,0:2:0:0:
311,135,69495,6,0,P|367:135|415:71,1,128,6|0,0:2|0:0,0:2:0:0:
424,240,69895,2,0,L|416:112,1,128,8|0,0:2|0:0,0:0:0:0:
512,184,70295,2,0,L|504:320,1,128,2|0,0:2|0:2,0:2:0:0:
384,352,70695,2,0,B|352:368|312:352|312:352|280:336|240:352,1,128,10|0,0:2|0:2,0:2:0:0:
136,352,71095,2,0,L|128:288,1,64,10|0,0:2|0:2,0:2:0:0:
48,264,71362,2,0,L|56:200,1,64,2|0,0:2|0:2,0:2:0:0:
72,64,71629,6,0,B|96:40|96:40|192:48,1,128,6|0,0:2|0:0,0:2:0:0:
256,136,72029,2,0,P|304:160|384:128,1,128,8|0,0:2|0:0,0:0:0:0:
464,56,72429,2,0,L|472:192,1,128,2|0,0:2|0:2,0:2:0:0:
379,267,72829,2,0,L|371:139,1,128,10|0,0:2|0:2,0:2:0:0:
360,32,73229,2,0,L|296:40,1,64,10|0,0:2|0:2,0:2:0:0:
208,64,73495,2,0,L|144:56,1,64,2|8,0:2|0:2,0:2:0:0:
48,168,73762,6,0,P|104:160|168:200,1,128,6|0,0:2|0:0,0:2:0:0:
184,320,74162,2,0,P|240:344|312:312,1,128,8|0,0:2|0:0,0:0:0:0:
392,256,74562,2,0,B|424:224|424:224|432:128,1,128,2|0,0:2|0:0,0:0:0:0:
352,48,74962,2,0,L|344:184,1,128,10|0,0:2|0:2,0:2:0:0:
248,256,75362,2,0,L|240:192,1,64,10|0,0:2|0:2,0:2:0:0:
152,312,75629,2,0,L|160:248,1,64,2|0,0:2|0:2,0:2:0:0:
168,80,75895,6,0,P|216:48|296:80,1,128,6|0,0:2|0:0,0:2:0:0:
396,171,76295,2,0,P|400:229|332:282,1,128,8|0,0:2|0:0,0:0:0:0:
203,324,76695,2,0,P|151:298|139:213,1,128,2|0,0:2|0:0,0:0:0:0:
40,120,77095,2,0,L|48:248,1,128,8|0,0:2|0:2,0:2:0:0:
218,243,77495,2,0,L|226:179,1,64,8|2,0:2|0:2,0:0:0:0:
248,48,77762,2,0,L|208:56,3,32,8|8|6|4,0:2|0:3|0:3|0:3,0:0:0:0:
288,40,78029,6,0,B|400:48|400:48|424:80,1,143.999995605469,6|8,0:2|0:2,0:2:0:0:
403,216,78429,2,0,L|419:64,1,143.999995605469,2|0,0:2|0:2,0:0:0:0:
482,241,78829,2,0,P|450:289|353:292,1,143.999995605469,10|0,0:2|0:2,0:2:0:0:
224,272,79229,2,0,L|232:344,2,71.9999978027344,2|8|0,0:2|0:2|0:2,0:2:0:0:
208,120,79629,2,0,L|288:128,1,71.9999978027344,2|0,0:2|0:2,0:2:0:0:
173,201,79895,1,10,0:2:0:0:
165,34,80029,1,8,0:2:0:0:
165,34,80162,6,0,L|327:51,1,143.999995605469,2|8,0:2|0:2,0:2:0:0:
454,81,80562,2,0,P|400:40|320:64,1,143.999995605469,2|0,0:2|0:2,0:2:0:0:
392,216,80962,2,0,L|384:72,1,143.999995605469,10|0,0:2|0:2,0:2:0:0:
232,144,81362,2,0,L|320:136,2,71.9999978027344,2|8|0,0:2|0:2|0:2,0:2:0:0:
104,160,81762,2,0,L|96:232,1,71.9999978027344,2|0,0:2|0:2,0:2:0:0:
200,296,82029,2,0,L|192:224,1,71.9999978027344,10|8,0:2|0:2,0:2:0:0:
376,367,82295,6,0,L|392:215,1,151.999995941162,6|8,0:2|0:2,0:2:0:0:
408,64,82695,2,0,L|488:56,2,75.9999979705811,2|0|0,0:2|1:0|0:2,0:2:0:0:
320,168,83095,2,0,P|256:184|174:125,1,151.999995941162,10|0,0:2|0:2,0:2:0:0:
104,40,83495,2,0,L|24:48,2,75.9999979705811,2|8|0,0:2|0:2|0:2,0:2:0:0:
272,24,83895,2,0,L|264:112,1,75.9999979705811,2|0,0:2|0:2,0:2:0:0:
247,263,84162,1,10,0:2:0:0:
104,128,84295,1,8,0:2:0:0:
104,128,84429,6,0,B|72:168|72:168|80:288,1,160,6|8,0:2|0:2,0:2:0:0:
128,344,84829,1,0,0:2:0:0:
256,185,84962,2,0,L|176:177,1,80,10|0,0:2|0:2,0:0:0:0:
337,192,85229,1,8,0:2:0:0:
269,61,85362,1,0,0:2:0:0:
350,215,85495,6,0,L|342:255,1,40,6|0,0:2|0:0,0:0:0:0:
144,64,86295,1,12,0:0:0:0:
144,64,86562,6,0,L|328:80,1,176.000005371094,6|10,0:2|0:2,0:2:0:0:
408,240,86962,1,8,0:2:0:0:
408,240,87095,2,0,L|320:248,1,88.000002685547,10|0,0:3|0:2,0:2:0:0:
144,264,87362,1,10,0:2:0:0:
224,152,87495,2,0,P|224:200|232:240,1,88.000002685547,6|0,0:3|0:2,0:2:0:0:
80,120,87762,2,0,P|80:168|72:208,1,88.000002685547,2|8,0:2|0:2,0:2:0:0:
256,128,88029,2,0,P|256:176|264:216,1,88.000002685547,6|0,0:3|0:2,0:2:0:0:
56,96,88296,2,0,P|56:144|48:184,1,88.000002685547,2|8,0:2|0:2,0:2:0:0:
32,264,88562,1,2,0:2:0:0:
232,312,88695,5,6,0:2:0:0:
232,312,88829,2,0,P|280:304|328:312,1,88.000002685547,0|8,0:2|0:2,0:0:0:0:
464,336,89095,1,10,0:2:0:0:
344,120,89229,2,0,B|312:160|312:160|320:288,1,176.000005371094,10|8,0:3|0:2,0:2:0:0:
224,136,89629,2,0,P|176:128|128:144,1,88.000002685547,6|0,0:3|0:2,0:2:0:0:
146,314,89895,2,0,P|188:322|231:311,1,88.000002685547,2|8,0:2|0:2,0:2:0:0:
160,88,90162,2,0,P|120:116|97:161,1,88.000002685547,6|0,0:3|0:2,0:2:0:0:
224,360,90429,2,0,P|260:335|282:298,1,88.000002685547,2|8,0:2|0:2,0:2:0:0:
328,184,90695,1,10,0:2:0:0:
376,344,90829,6,0,P|368:296|384:240,1,88.000002685547,6|0,0:2|0:0,0:2:0:0:
408,96,91095,1,10,0:2:0:0:
408,96,91229,2,0,L|416:192,1,88.000002685547,10|0,0:2|0:0,0:2:0:0:
224,48,91495,1,2,0:2:0:0:
224,48,91629,2,0,L|208:224,1,176.000005371094,10|0,0:2|0:2,0:2:0:0:
201,305,92029,1,0,0:2:0:0:
104,144,92162,2,0,L|200:136,1,88.000002685547,10|0,0:2|0:2,0:2:0:0:
295,215,92429,2,0,L|207:222,1,88.000002685547,2|0,0:2|0:2,0:2:0:0:
32,192,92695,2,0,P|16:152|56:72,1,132.00000402832,8|0,0:2|0:2,0:2:0:0:
88,56,92962,6,0,L|184:48,1,88.000002685547,6|0,0:2|0:2,0:2:0:0:
376,40,93229,1,10,0:2:0:0:
376,40,93362,2,0,L|368:128,1,88.000002685547,2|0,0:2|0:2,0:2:0:0:
191,224,93629,1,2,0:2:0:0:
191,224,93762,2,0,L|175:41,1,176.000005371094,10|0,0:2|0:2,0:2:0:0:
259,64,94162,1,0,0:2:0:0:
276,238,94295,2,0,L|268:326,1,88.000002685547,10|0,0:2|0:2,0:2:0:0:
110,253,94562,1,10,0:2:0:0:
272,152,94695,1,2,0:2:0:0:
184,336,94829,1,8,0:2:0:0:
184,336,94895,1,8,0:3:0:0:
184,336,94962,2,0,L|128:328,1,44.0000013427735,4|4,0:3|0:3,0:0:0:0:
22,312,95095,6,0,P|30:264|22:224,1,88.000002685547,6|0,0:2|0:2,0:2:0:0:
8,72,95362,2,0,L|96:64,1,88.000002685547,10|8,0:2|0:2,0:0:0:0:
276,83,95629,2,0,P|211:42|120:104,1,176.000005371094,10|10,0:3|0:2,0:2:0:0:
198,209,96029,2,0,P|206:166|201:123,1,88.000002685547,6|0,0:3|0:2,0:2:0:0:
321,279,96295,2,0,P|312:235|318:192,1,88.000002685547,2|8,0:2|0:2,0:2:0:0:
170,243,96562,2,0,P|178:199|172:156,1,88.000002685547,6|0,0:3|0:2,0:2:0:0:
347,301,96829,2,0,P|338:257|344:214,1,88.000002685547,2|8,0:2|0:2,0:2:0:0:
384,88,97095,1,2,0:2:0:0:
512,264,97229,6,0,P|464:248|416:264,1,88.000002685547,6|0,0:2|0:2,0:2:0:0:
273,351,97495,1,8,0:2:0:0:
420,338,97629,1,10,0:2:0:0:
264,320,97762,2,0,B|224:296|224:296|216:160,1,176.000005371094,10|8,0:3|0:2,0:2:0:0:
200,48,98162,2,0,L|296:56,1,88.000002685547,6|0,0:3|0:2,0:2:0:0:
136,176,98429,2,0,L|48:184,1,88.000002685547,2|8,0:2|0:2,0:2:0:0:
207,33,98695,2,0,L|325:43,1,88.000002685547,6|0,0:3|0:2,0:2:0:0:
128,190,98962,2,0,L|20:200,1,88.000002685547,2|8,0:2|0:2,0:2:0:0:
248,247,99229,1,10,0:2:0:0:
144,352,99362,6,0,L|240:344,1,88.000002685547,6|0,0:2|0:0,0:2:0:0:
336,240,99629,1,10,0:2:0:0:
336,240,99762,2,0,L|248:248,1,88.000002685547,10|0,0:2|0:0,0:2:0:0:
136,264,100029,1,2,0:2:0:0:
329,158,100162,2,0,P|383:173|409:279,1,176.000005371094,10|0,0:2|0:2,0:2:0:0:
215,215,100562,1,0,0:2:0:0:
215,215,100695,2,0,L|207:127,1,88.000002685547,10|0,0:2|0:2,0:2:0:0:
336,70,100962,2,0,L|328:166,1,88.000002685547,2|0,0:2|0:2,0:2:0:0:
168,40,101229,2,0,L|176:136,1,88.000002685547,8|0,0:2|0:0,0:2:0:0:
421,30,101495,6,0,L|413:127,1,88.000002685547,6|0,0:2|0:2,0:2:0:0:
408,248,101762,1,10,0:2:0:0:
408,248,101895,2,0,L|320:240,1,88.000002685547,2|0,0:2|0:2,0:2:0:0:
168,344,102162,1,2,0:2:0:0:
168,344,102295,2,0,L|344:328,1,176.000005371094,10|0,0:2|0:2,0:2:0:0:
424,328,102695,1,0,0:2:0:0:
280,160,102829,2,0,L|288:248,1,88.000002685547,10|0,0:2|0:2,0:2:0:0:
120,200,103095,2,0,L|128:112,1,88.000002685547,10|8,0:2|0:3,0:0:0:0:
272,80,103362,1,6,0:3:0:0:
112,32,103495,1,4,0:3:0:0:
112,32,103629,6,0,L|96:216,1,176.000005371094,6|8,0:2|0:2,0:2:0:0:
216,288,104029,1,2,0:2:0:0:
216,288,104162,2,0,L|208:200,1,88.000002685547,8|0,0:2|0:2,0:2:0:0:
48,304,104429,2,0,P|96:288|152:304,1,88.000002685547,10|0,0:2|0:2,0:2:0:0:
288,336,104695,2,0,P|336:344|384:320,1,88.000002685547,8|0,0:2|0:2,0:2:0:0:
457,189,104962,2,0,L|369:181,1,88.000002685547,10|0,0:2|0:2,0:2:0:0:
205,174,105229,1,10,0:2:0:0:
329,258,105362,1,0,0:2:0:0:
280,88,105495,2,0,L|288:176,1,88.000002685547,10|0,0:2|0:2,0:2:0:0:
448,104,105762,6,0,L|440:16,1,88.000002685547,14|0,0:2|0:2,0:2:0:0:
369,181,106029,1,8,0:2:0:0:
280,48,106162,1,2,0:2:0:0:
280,48,106295,2,0,P|232:64|176:48,1,88.000002685547,8|0,0:2|0:2,0:2:0:0:
48,112,106562,2,0,P|92:102|144:122,1,88.000002685547,10|0,0:2|0:2,0:2:0:0:
97,273,106829,6,0,L|89:185,1,88.000002685547,10|0,0:2|0:2,0:0:0:0:
208,344,107095,2,0,L|216:256,1,88.000002685547,8|0,0:2|0:2,0:0:0:0:
224,120,107362,1,10,0:2:0:0:
312,248,107495,1,8,0:2:0:0:
240,112,107629,1,8,0:2:0:0:
296,256,107762,1,8,0:2:0:0:
312,64,107895,6,0,P|432:80|432:200,1,240.000009155274,14|0,0:2|0:0,0:0:0:0:
376,304,108295,2,0,B|352:344|352:344|152:360,1,240.000009155274,14|0,0:2|0:0,0:0:0:0:
24,280,108695,2,0,P|88:288|152:272,1,120.000004577637,14|0,0:2|0:2,0:0:0:0:
152,112,108962,2,0,P|93:100|34:108,1,120.000004577637,14|0,0:2|0:0,0:0:0:0:
136,96,110029,6,0,L|72:104,2,64,6|0|0,1:2|0:2|0:2,0:2:0:0:
217,86,110429,1,2,1:2:0:0:
128,223,110562,2,0,L|136:95,1,128,10|2,0:2|1:2,0:2:0:0:
288,16,110962,2,0,L|296:88,2,64,10|0|10,0:2|1:0|0:2,0:2:0:0:
216,176,111362,2,0,P|256:160|296:168,1,64,0|0,1:2|0:2,0:2:0:0:
391,249,111629,2,0,L|263:241,1,128,10|2,0:2|1:2,0:2:0:0:
149,233,112029,1,8,0:2:0:0:
149,233,112162,6,0,L|152:304,1,64,2|2,1:2|0:2,0:0:0:0:
232,384,112429,2,0,L|234:320,1,64,2|2,1:2|0:2,0:0:0:0:
240,168,112695,2,0,B|256:136|256:136|360:128,1,128,10|0,0:2|1:2,0:2:0:0:
488,120,113095,2,0,L|496:192,2,64,10|0|10,0:2|1:2|0:2,0:2:0:0:
480,32,113495,2,0,L|416:40,1,64,0|10,1:2|0:2,0:2:0:0:
352,96,113762,2,0,L|289:100,1,64,2|0,1:2|0:0,0:2:0:0:
200,112,114029,1,10,0:2:0:0:
200,112,114095,1,8,0:2:0:0:
200,112,114162,2,0,L|192:64,1,32,10|8,0:2|0:2,0:0:0:0:
112,184,114295,6,0,L|104:328,1,143.999995605469,6|8,0:2|0:2,0:2:0:0:
256,248,114695,1,2,0:2:0:0:
256,248,114829,2,0,L|248:165,2,71.9999978027344,2|2|8,0:2|0:2|0:2,0:0:0:0:
392,288,115229,1,2,0:2:0:0:
392,288,115362,2,0,L|384:360,2,71.9999978027344,2|2|8,0:2|0:2|0:2,0:0:0:0:
432,152,115762,1,2,0:2:0:0:
432,152,115895,2,0,L|360:160,1,71.9999978027344,2|0,0:2|0:2,0:2:0:0:
232,48,116162,2,0,L|312:40,1,71.9999978027344,10|0,0:2|0:2,0:2:0:0:
288,200,116429,6,0,P|280:160|288:120,1,71.9999978027344,14|8,0:2|0:3,0:0:0:0:
128,256,116695,1,10,0:3:0:0:
128,256,116829,2,0,P|136:216|128:176,1,71.9999978027344,14|4,0:2|0:3,0:0:0:0:
256,288,117095,1,6,0:3:0:0:
256,288,117229,2,0,L|328:280,1,71.9999978027344,14|8,0:2|0:3,0:0:0:0:
120,336,117495,1,6,0:3:0:0:
120,336,117629,2,0,L|40:328,1,71.9999978027344,14|4,0:2|0:3,0:0:0:0:
16,224,117895,1,10,0:3:0:0:
208,152,118029,2,0,L|216:224,1,71.9999978027344,14|0,0:2|0:2,0:2:0:0:
32,72,118295,2,0,L|24:144,1,71.9999978027344,14|0,0:2|0:2,0:2:0:0:
192,64,118562,6,0,L|256:72,1,64,6|0,1:2|0:2,0:2:0:0:
304,144,118829,2,0,L|376:136,1,64,0|2,0:2|1:2,0:0:0:0:
507,147,119095,2,0,P|440:128|384:168,1,128,10|2,0:2|1:2,0:2:0:0:
462,273,119495,2,0,L|454:209,1,64,10|0,0:2|1:0,0:2:0:0:
384,304,119762,1,10,0:2:0:0:
384,304,119895,2,0,L|376:232,1,64,0|0,1:2|0:2,0:2:0:0:
304,336,120162,2,0,P|264:320|200:336,1,96,10|0,0:2|0:0,0:2:0:0:
184,344,120429,2,0,L|176:280,1,64,2|8,1:2|0:2,0:2:0:0:
112,168,120695,6,0,L|104:232,1,64,2|2,1:2|0:2,0:0:0:0:
192,144,120962,2,0,L|184:80,1,64,2|2,1:2|0:2,0:0:0:0:
255,200,121229,2,0,B|279:168|279:168|268:70,1,128,10|0,0:2|1:2,0:2:0:0:
176,0,121629,2,0,L|112:8,2,64,10|0|10,0:2|1:2|0:2,0:2:0:0:
338,12,122029,2,0,L|348:83,1,64,0|10,1:2|0:2,0:2:0:0:
418,159,122295,2,0,L|426:95,1,64,2|0,1:2|0:0,0:2:0:0:
352,216,122562,1,10,0:2:0:0:
352,216,122629,1,8,0:2:0:0:
352,216,122695,2,0,L|360:264,1,32,10|8,0:2|0:2,0:0:0:0:
368,336,122829,6,0,L|216:328,1,143.999995605469,6|8,0:2|0:2,0:2:0:0:
80,280,123229,2,0,L|0:288,2,71.9999978027344,2|2|2,0:2|0:2|0:2,0:0:0:0:
208,264,123629,1,8,0:2:0:0:
56,200,123762,1,2,0:2:0:0:
56,200,123895,2,0,P|80:128|32:48,1,143.999995605469,2|8,0:2|0:2,0:0:0:0:
168,16,124295,1,2,0:2:0:0:
168,16,124429,2,0,L|160:88,1,71.9999978027344,2|0,0:2|0:2,0:2:0:0:
248,184,124695,2,0,L|240:112,1,71.9999978027344,10|0,0:2|0:2,0:2:0:0:
139,278,124962,6,0,P|179:262|227:270,1,71.9999978027344,14|8,0:2|0:3,0:0:0:0:
408,296,125229,1,10,0:3:0:0:
408,296,125362,2,0,L|400:224,1,71.9999978027344,14|4,0:2|0:3,0:0:0:0:
384,64,125629,1,6,0:3:0:0:
384,64,125762,2,0,L|312:56,1,71.9999978027344,14|8,0:2|0:3,0:0:0:0:
248,184,126029,1,6,0:3:0:0:
248,184,126162,2,0,L|240:112,1,71.9999978027344,14|4,0:2|0:3,0:0:0:0:
432,200,126429,1,10,0:3:0:0:
432,200,126562,2,0,L|440:128,1,71.9999978027344,14|0,0:2|0:2,0:2:0:0:
453,13,126829,1,14,0:2:0:0:
344,144,126962,1,0,0:2:0:0:
232,32,127095,6,0,P|168:8|104:32,1,128,6|0,0:2|0:0,0:2:0:0:
32,112,127495,2,0,B|24:208|24:208|48:248,1,128,8|0,0:2|0:0,0:0:0:0:
128,320,127895,2,0,L|120:184,1,128,2|0,0:2|0:2,0:2:0:0:
216,344,128295,2,0,L|208:208,1,128,10|0,0:2|0:2,0:2:0:0:
280,96,128695,2,0,L|272:160,1,64,10|0,0:2|0:2,0:2:0:0:
368,80,128962,2,0,L|360:144,1,64,2|0,0:2|0:2,0:2:0:0:
344,296,129229,6,0,P|392:264|475:297,1,128,6|0,0:2|0:0,0:2:0:0:
287,359,129629,2,0,L|157:350,1,128,8|0,0:2|0:0,0:0:0:0:
72,344,130029,2,0,B|48:312|48:312|56:224,1,128,2|0,0:2|0:2,0:2:0:0:
40,112,130429,2,0,P|40:176|97:219,1,128,10|0,0:2|0:2,0:2:0:0:
179,132,130829,2,0,L|115:140,1,64,10|0,0:2|0:2,0:2:0:0:
224,248,131095,2,0,L|160:240,1,64,2|8,0:2|0:2,0:2:0:0:
240,64,131362,6,0,L|368:80,1,128,6|0,0:2|0:0,0:2:0:0:
492,140,131762,2,0,P|448:104|368:120,1,128,8|0,0:2|0:0,0:0:0:0:
336,176,132162,2,0,L|349:303,1,128,2|0,0:2|0:0,0:0:0:0:
496,352,132562,2,0,L|509:224,1,128,10|0,0:2|0:2,0:2:0:0:
484,76,132962,2,0,L|492:140,1,64,10|0,0:2|0:2,0:2:0:0:
422,208,133229,2,0,L|414:144,1,64,2|0,0:2|0:2,0:2:0:0:
328,32,133495,6,0,B|280:24|280:24|240:40|240:40|200:32,1,128,6|0,0:2|0:0,0:2:0:0:
64,64,133895,2,0,L|200:56,1,128,8|0,0:2|0:0,0:0:0:0:
328,128,134295,2,0,L|200:135,1,128,2|0,0:2|0:0,0:0:0:0:
32,144,134695,2,0,P|40:184|32:224,1,64,8|0,0:2|0:0,0:2:0:0:
16,336,134962,1,0,0:2:0:0:
16,336,135095,2,0,L|88:328,1,64,8|2,0:2|0:2,0:0:0:0:
176,256,135362,1,8,0:2:0:0:
176,256,135429,1,8,0:3:0:0:
176,256,135495,2,0,L|216:264,1,32,6|4,0:3|0:3,0:0:0:0:
296,320,135629,6,0,B|408:312|408:312|424:280,1,143.999995605469,6|8,0:2|0:2,0:2:0:0:
448,208,136029,2,0,L|440:136,2,71.9999978027344,2|0|0,0:2|0:2|0:2,0:0:0:0:
360,128,136429,2,0,P|320:96|224:120,1,143.999995605469,10|0,0:2|0:2,0:2:0:0:
152,232,136829,2,0,L|80:224,2,71.9999978027344,2|8|0,0:2|0:2|0:2,0:2:0:0:
300,248,137229,2,0,L|292:176,1,71.9999978027344,2|0,0:2|0:2,0:2:0:0:
222,275,137495,2,0,L|214:347,1,71.9999978027344,10|8,0:2|0:2,0:2:0:0:
347,261,137762,6,0,L|330:109,1,143.999995605469,6|8,0:2|0:2,0:2:0:0:
216,56,138162,2,0,L|208:128,2,71.9999978027344,2|0|0,0:2|0:0|0:2,0:2:0:0:
408,24,138562,2,0,L|424:167,1,143.999995605469,10|0,0:2|0:2,0:2:0:0:
440,296,138962,2,0,P|480:288|512:304,2,71.9999978027344,2|8|0,0:2|0:2|0:2,0:2:0:0:
328,360,139362,2,0,L|256:352,1,71.9999978027344,2|0,0:2|0:2,0:2:0:0:
104,336,139629,1,10,0:2:0:0:
256,272,139762,1,8,0:2:0:0:
48,192,139895,6,0,B|16:224|16:224|24:328,1,143.999995605469,6|8,0:2|0:2,0:2:0:0:
200,208,140295,2,0,L|208:136,2,71.9999978027344,2|0|0,0:2|0:0|0:2,0:2:0:0:
144,80,140695,2,0,P|197:49|280:88,1,143.999995605469,10|0,0:2|0:2,0:2:0:0:
368,168,141095,2,0,L|360:240,2,71.9999978027344,2|8|0,0:2|0:2|0:2,0:2:0:0:
432,56,141495,2,0,L|440:128,1,71.9999978027344,2|0,0:2|0:2,0:2:0:0:
280,232,141762,1,10,0:2:0:0:
352,88,141895,1,8,0:2:0:0:
445,262,142029,6,0,P|408:312|304:304,1,160,6|8,0:2|0:2,0:2:0:0:
207,136,142429,1,0,0:2:0:0:
152,304,142562,2,0,P|192:296|240:304,1,80,10|0,0:2|0:2,0:0:0:0:
134,175,142829,2,0,P|120:213|90:251,1,80,8|0,0:2|0:2,0:0:0:0:
285,129,143095,1,14,0:2:0:0:
138,93,143229,1,0,0:0:0:0:
138,93,143362,2,0,L|58:101,1,80,8|0,0:2|0:0,0:0:0:0:
200,218,143629,2,0,L|280:210,1,80,8|2,0:2|0:2,0:0:0:0:
292,47,143895,2,0,L|212:55,1,80,8|2,0:2|0:2,0:0:0:0:
360,200,144162,6,0,B|400:168|400:168|408:32,1,176.000005371094,6|10,0:2|0:2,0:2:0:0:
488,144,144562,1,8,0:2:0:0:
488,144,144695,2,0,L|496:232,1,88.000002685547,10|0,0:3|0:2,0:2:0:0:
360,368,144962,1,10,0:2:0:0:
360,368,145095,2,0,P|352:320|360:272,1,88.000002685547,6|0,0:3|0:2,0:2:0:0:
288,136,145362,2,0,P|293:179|285:222,1,88.000002685547,2|8,0:2|0:2,0:2:0:0:
232,376,145629,2,0,P|224:328|232:280,1,88.000002685547,6|0,0:3|0:2,0:2:0:0:
160,144,145896,2,0,P|165:187|157:230,1,88.000002685547,2|8,0:2|0:2,0:2:0:0:
112,64,146162,1,2,0:2:0:0:
112,64,146295,6,0,L|200:56,1,88.000002685547,6|0,0:2|0:2,0:2:0:0:
375,143,146562,2,0,L|279:135,1,88.000002685547,8|10,0:2|0:2,0:0:0:0:
384,56,146829,2,0,P|448:96|432:208,1,176.000005371094,10|8,0:3|0:2,0:2:0:0:
229,289,147229,2,0,P|205:249|213:201,1,88.000002685547,6|0,0:3|0:2,0:2:0:0:
432,216,147495,2,0,P|456:256|448:304,1,88.000002685547,2|8,0:2|0:2,0:2:0:0:
160,240,147762,2,0,P|171:194|210:166,1,88.000002685547,6|0,0:3|0:2,0:2:0:0:
496,264,148029,2,0,P|484:309|445:337,1,88.000002685547,2|8,0:2|0:2,0:2:0:0:
296,168,148295,1,10,0:2:0:0:
296,168,148429,6,0,L|304:80,1,88.000002685547,6|0,0:2|0:0,0:2:0:0:
80,200,148695,1,10,0:2:0:0:
80,200,148829,2,0,L|72:112,1,88.000002685547,10|0,0:2|0:0,0:2:0:0:
16,328,149095,1,2,0:2:0:0:
16,328,149229,2,0,P|80:280|168:304,1,176.000005371094,10|0,0:2|0:2,0:2:0:0:
192,192,149629,1,0,0:2:0:0:
192,192,149762,2,0,L|184:280,1,88.000002685547,10|0,0:2|0:2,0:2:0:0:
288,144,150029,2,0,L|280:56,1,88.000002685547,2|0,0:2|0:2,0:2:0:0:
384,176,150295,2,0,L|376:264,1,88.000002685547,8|0,0:2|0:0,0:2:0:0:
480,128,150562,6,0,L|472:40,1,88.000002685547,6|0,0:2|0:2,0:2:0:0:
480,272,150829,1,10,0:2:0:0:
480,272,150962,2,0,P|440:264|392:280,1,88.000002685547,2|0,0:2|0:2,0:2:0:0:
240,352,151229,1,2,0:2:0:0:
240,352,151362,2,0,B|266:321|266:321|280:184,1,176.000005371094,10|0,0:2|0:2,0:2:0:0:
286,104,151762,1,0,0:2:0:0:
136,48,151895,2,0,L|144:136,1,88.000002685547,10|0,0:2|0:2,0:2:0:0:
248,224,152162,1,10,0:2:0:0:
248,224,152295,1,2,0:2:0:0:
72,200,152429,1,8,0:2:0:0:
72,200,152495,1,8,0:3:0:0:
72,200,152562,2,0,L|64:248,1,44.0000013427735,4|4,0:3|0:3,0:0:0:0:
48,336,152695,6,0,P|96:328|152:344,1,88.000002685547,6|0,0:2|0:2,0:2:0:0:
264,368,152962,2,0,P|306:376|348:362,1,88.000002685547,10|8,0:2|0:2,0:0:0:0:
512,288,153229,2,0,B|504:192|504:192|472:168,1,132.00000402832,10|0,0:3|0:0,0:2:0:0:
440,152,153495,1,10,0:2:0:0:
272,184,153629,2,0,L|368:192,1,88.000002685547,6|0,0:3|0:2,0:2:0:0:
216,64,153895,2,0,L|128:71,1,88.000002685547,2|8,0:2|0:2,0:2:0:0:
286,214,154162,2,0,L|392:224,1,88.000002685547,6|0,0:3|0:2,0:2:0:0:
200,32,154428,2,0,L|88:40,1,88.000002685547,2|8,0:2|0:2,0:2:0:0:
120,158,154695,1,2,0:2:0:0:
120,158,154829,6,0,L|128:70,1,88.000002685547,6|0,0:2|0:2,0:2:0:0:
200,192,155095,2,0,L|208:280,1,88.000002685547,8|10,0:2|0:2,0:0:0:0:
92,213,155362,2,0,L|112:37,1,176.000005371094,10|8,0:3|0:2,0:2:0:0:
286,214,155762,2,0,L|278:126,1,88.000002685547,6|0,0:3|0:2,0:2:0:0:
440,272,156029,2,0,L|448:184,1,88.000002685547,2|8,0:2|0:2,0:2:0:0:
264,256,156295,2,0,L|256:168,1,88.000002685547,6|0,0:3|0:2,0:2:0:0:
472,312,156562,2,0,L|480:224,1,88.000002685547,2|8,0:2|0:2,0:2:0:0:
344,72,156829,1,10,0:2:0:0:
344,72,156962,6,0,P|304:48|248:56,1,88.000002685547,6|0,0:2|0:0,0:2:0:0:
224,200,157229,1,10,0:2:0:0:
224,200,157362,2,0,P|264:177|285:124,1,88.000002685547,10|0,0:2|0:0,0:2:0:0:
176,32,157629,1,2,0:2:0:0:
176,32,157762,2,0,P|175:78|210:123,1,88.000002685547,10|0,0:2|0:0,0:2:0:0:
128,248,158029,2,0,P|136:200|120:152,1,88.000002685547,0|0,0:2|0:2,0:0:0:0:
72,336,158295,2,0,L|168:328,1,88.000002685547,10|0,0:2|0:2,0:2:0:0:
224,200,158562,2,0,L|312:208,1,88.000002685547,2|0,0:2|0:2,0:2:0:0:
471,224,158829,2,0,L|463:136,1,88.000002685547,8|0,0:2|0:0,0:2:0:0:
303,295,159095,6,0,L|311:207,1,88.000002685547,6|0,0:2|0:2,0:2:0:0:
328,56,159362,1,10,0:2:0:0:
328,56,159495,2,0,P|280:40|240:48,1,88.000002685547,2|0,0:2|0:2,0:2:0:0:
64,120,159762,1,2,0:2:0:0:
64,120,159895,2,0,P|128:96|232:136,1,176.000005371094,10|0,0:2|0:2,0:2:0:0:
280,192,160295,1,0,0:2:0:0:
168,280,160429,1,10,0:2:0:0:
144,136,160562,1,0,0:2:0:0:
176,313,160695,2,0,L|272:320,1,88.000002685547,10|8,0:2|0:3,0:0:0:0:
368,208,160962,2,0,L|280:216,1,88.000002685547,6|4,0:3|0:3,0:0:0:0:
176,344,161229,6,0,L|352:360,1,176.000005371094,6|8,0:2|0:2,0:2:0:0:
464,248,161629,1,2,0:2:0:0:
464,248,161762,2,0,P|448:208|456:160,1,88.000002685547,8|0,0:2|0:2,0:2:0:0:
416,16,162029,2,0,P|416:64|384:112,1,88.000002685547,10|0,0:2|0:2,0:2:0:0:
248,48,162295,2,0,L|336:40,1,88.000002685547,8|0,0:2|0:2,0:2:0:0:
280,215,162562,2,0,L|192:223,1,88.000002685547,10|0,0:2|0:2,0:2:0:0:
96,104,162829,2,0,L|184:96,1,88.000002685547,10|0,0:2|0:2,0:2:0:0:
120,184,163096,2,0,L|32:192,1,88.000002685547,10|0,0:2|0:2,0:2:0:0:
208,312,163362,5,14,0:2:0:0:
208,312,163429,1,0,0:0:0:0:
208,312,163495,2,0,L|312:304,1,88.000002685547,0|8,0:2|0:2,0:0:0:0:
360,128,163762,1,2,0:2:0:0:
360,128,163895,2,0,L|266:133,1,88.000002685547,8|0,0:2|0:2,0:2:0:0:
464,312,164162,2,0,L|368:304,1,88.000002685547,10|0,0:2|0:2,0:2:0:0:
160,224,164429,6,0,L|256:216,1,88.000002685547,10|0,0:2|0:2,0:0:0:0:
360,88,164695,2,0,L|264:96,1,88.000002685547,8|0,0:2|0:2,0:0:0:0:
328,216,164962,1,10,0:2:0:0:
259,66,165095,1,8,0:2:0:0:
247,216,165229,1,8,0:2:0:0:
397,172,165362,1,8,0:2:0:0:
176,152,165495,6,0,B|-1:134|-1:134|56:104,1,240.000009155274,14|0,0:2|0:0,0:0:0:0:
168,32,165895,2,0,B|360:48|360:48|384:96,1,240.000009155274,14|0,0:2|0:0,0:0:0:0:
488,200,166295,2,0,L|480:80,1,120.000004577637,14|0,0:2|0:2,0:0:0:0:
320,160,166562,2,0,L|312:280,1,120.000004577637,14|0,0:2|0:0,0:0:0:0:
128,320,167629,6,0,L|120:240,1,80,6|0,0:2|0:0,0:2:0:0:
216,152,167895,2,0,L|208:232,1,80,10|0,0:2|0:2,0:2:0:0:
110,158,168162,2,0,L|102:78,1,80,2|0,0:2|0:2,0:2:0:0:
128,0,168429,1,10,0:2:0:0:
227,119,168562,2,0,P|306:139|392:96,1,160,6|0,0:2|0:2,0:2:0:0:
464,8,168962,2,0,L|456:96,1,80,10|0,0:2|0:2,0:2:0:0:
384,190,169229,6,0,L|376:110,1,80,2|0,0:2|0:2,0:2:0:0:
464,248,169495,2,0,L|472:168,1,80,10|0,0:2|0:2,0:2:0:0:
328,320,169762,6,0,P|272:360|176:336,2,160,6|10|2,0:2|0:2|0:2,0:2:0:0:
318,238,170429,1,0,0:2:0:0:
176,136,170562,1,10,0:2:0:0:
88,304,170695,2,0,L|248:288,1,160,6|0,0:2|0:2,0:2:0:0:
336,152,171095,2,0,L|256:160,1,80,10|0,0:2|0:2,0:2:0:0:
96,144,171362,6,0,L|104:224,1,80,10|0,0:2|0:2,0:2:0:0:
16,86,171628,2,0,L|8:166,1,80,10|4,0:2|0:3,0:2:0:0:
176,32,171895,6,0,L|272:40,1,80,6|0,0:2|0:0,0:2:0:0:
415,145,172162,2,0,L|335:151,1,80,10|0,0:2|0:2,0:2:0:0:
422,62,172429,2,0,P|478:94|486:190,1,160,2|10,0:2|0:2,0:2:0:0:
360,300,172829,2,0,B|328:260|328:260|336:140,1,160,6|0,0:2|0:2,0:2:0:0:
440,336,173229,2,0,L|448:256,1,80,10|0,0:2|0:2,0:2:0:0:
240,232,173495,6,0,L|248:312,1,80,2|0,0:2|0:2,0:2:0:0:
160,174,173761,2,0,L|152:254,1,80,10|0,0:2|0:2,0:2:0:0:
72,368,174029,6,0,L|56:200,2,160,2|10|2,0:2|0:2|0:2,0:2:0:0:
156,338,174695,1,0,0:2:0:0:
240,232,174829,1,10,0:2:0:0:
56,208,174962,2,0,P|141:203|204:133,1,160,6|0,0:2|0:2,0:2:0:0:
256,80,175362,2,0,L|176:72,1,80,10|0,0:2|0:2,0:2:0:0:
344,64,175629,6,0,L|336:144,1,80,10|0,0:2|0:2,0:2:0:0:
328,256,175895,1,10,0:2:0:0:
328,256,175962,1,8,0:2:0:0:
328,256,176029,2,0,L|368:248,1,40,8|8,0:2|0:2,0:0:0:0:
472,232,176162,6,0,L|464:152,1,80,6|0,0:2|0:0,0:2:0:0:
384,64,176429,2,0,L|376:144,1,80,10|0,0:2|0:2,0:2:0:0:
224,208,176695,2,0,P|280:168|272:72,1,160,2|10,0:2|0:2,0:2:0:0:
88,136,177095,2,0,B|136:104|208:128|208:128|168:144,1,160,6|0,0:2|0:2,0:2:0:0:
8,200,177495,2,0,L|0:120,1,80,10|0,0:2|0:2,0:2:0:0:
40,280,177762,6,0,L|32:360,1,80,2|0,0:2|0:2,0:2:0:0:
120,222,178028,2,0,L|128:302,1,80,10|0,0:2|0:2,0:2:0:0:
208,128,178295,6,0,P|264:104|345:158,2,160,2|10|2,0:2|0:2|0:2,0:2:0:0:
267,187,178962,1,0,0:2:0:0:
344,40,179095,1,10,0:2:0:0:
384,232,179229,2,0,P|368:168|424:88,1,160,6|2,0:2|0:2,0:2:0:0:
472,256,179629,2,0,L|464:176,1,80,10|0,0:2|0:2,0:2:0:0:
391,266,179895,6,0,L|399:346,1,80,10|0,0:2|0:2,0:2:0:0:
292,220,180161,2,0,L|284:300,1,80,10|4,0:2|0:3,0:2:0:0:
144,360,180429,6,0,L|136:280,1,80,6|0,0:2|0:0,0:2:0:0:
32,216,180695,2,0,L|40:136,1,80,10|0,0:2|0:2,0:2:0:0:
152,40,180962,2,0,L|168:200,1,160,2|10,0:2|0:2,0:2:0:0:
331,105,181362,2,0,P|264:72|184:136,1,160,6|2,0:2|0:2,0:2:0:0:
257,236,181762,2,0,L|265:156,1,80,10|0,0:2|0:2,0:2:0:0:
360,32,182029,6,0,L|352:112,1,80,2|0,0:2|0:2,0:2:0:0:
448,0,182295,2,0,L|456:80,1,80,10|0,0:2|0:2,0:2:0:0:
472,216,182562,6,0,L|480:256,3,40,8|0|0|0,0:2|0:2|0:2|0:2,0:2:0:0:
400,264,182829,2,0,L|400:304,3,40,8|0|0|0,0:2|0:2|0:2|0:2,0:2:0:0:
320,296,183095,2,0,L|312:336,3,40,8|0|0|0,0:2|0:2|0:2|0:2,0:2:0:0:
232,304,183362,2,0,L|216:344,3,40,8|0|0|0,0:2|0:2|0:2|0:2,0:2:0:0:
152,280,183629,2,0,L|128:320,3,40,14|0|0|0,0:2|0:0|0:2|0:0,0:2:0:0:
88,224,183895,2,0,L|56:256,3,40,8|0|0|0,0:2|0:0|0:2|0:0,0:2:0:0:
64,144,184162,5,12,0:2:0:0:
103,140,184228,1,8,0:2:0:0:
143,136,184295,1,8,0:2:0:0:
183,132,184361,1,8,0:2:0:0:
224,128,184429,2,0,L|232:176,3,40,8|8|8|8,0:2|0:2|0:2|0:2,0:0:0:0:
200,48,184695,6,0,L|304:56,1,88.000002685547,6|0,0:2|0:0,0:2:0:0:
400,128,184962,1,10,0:2:0:0:
320,224,185095,1,8,0:2:0:0:
320,224,185229,2,0,L|312:136,1,88.000002685547,10|0,0:3|0:2,0:2:0:0:
431,49,185495,1,10,0:2:0:0:
431,49,185629,2,0,P|468:72|484:128,1,88.000002685547,6|0,0:3|0:2,0:2:0:0:
496,280,185895,2,0,L|488:192,1,88.000002685547,2|8,0:2|0:2,0:2:0:0:
414,295,186162,2,0,L|406:207,1,88.000002685547,6|0,0:3|0:2,0:2:0:0:
352,352,186429,2,0,P|312:368|256:352,1,88.000002685547,2|8,0:2|0:2,0:2:0:0:
152,312,186695,1,2,0:2:0:0:
320,224,186829,5,6,0:2:0:0:
320,224,186962,2,0,L|312:136,1,88.000002685547,0|8,0:2|0:2,0:0:0:0:
304,55,187229,1,10,0:2:0:0:
171,153,187362,2,0,P|243:121|322:193,1,176.000005371094,10|8,0:3|0:2,0:2:0:0:
247,291,187762,2,0,L|239:203,1,88.000002685547,6|0,0:3|0:2,0:2:0:0:
88,328,188029,2,0,L|96:240,1,88.000002685547,2|8,0:2|0:2,0:2:0:0:
288,336,188295,2,0,L|280:248,1,88.000002685547,6|0,0:3|0:2,0:2:0:0:
56,360,188562,2,0,L|64:272,1,88.000002685547,2|8,0:2|0:2,0:2:0:0:
80,80,188829,5,10,0:2:0:0:
80,80,188962,2,0,L|168:72,1,88.000002685547,6|0,0:2|0:0,0:2:0:0:
352,64,189229,1,10,0:2:0:0:
352,64,189362,2,0,B|384:96|384:96|376:232,1,176.000005371094,10|2,0:2|0:2,0:2:0:0:
186,328,189762,2,0,L|170:152,1,176.000005371094,10|0,0:2|0:2,0:2:0:0:
167,72,190162,1,0,0:2:0:0:
352,152,190295,2,0,P|320:168|248:160,1,88.000002685547,10|0,0:2|0:2,0:2:0:0:
94,240,190562,2,0,P|137:241|177:223,1,88.000002685547,2|0,0:2|0:2,0:2:0:0:
368,240,190829,2,0,P|336:256|264:248,1,88.000002685547,8|0,0:2|0:0,0:2:0:0:
128,160,191095,6,0,B|144:32|144:32|200:0,1,176.000005371094,6|10,0:2|0:2,0:2:0:0:
384,48,191495,2,0,L|400:224,1,176.000005371094,2|2,0:2|0:2,0:2:0:0:
200,328,191895,2,0,L|216:152,1,176.000005371094,10|0,0:2|0:2,0:2:0:0:
227,75,192295,1,0,0:2:0:0:
304,184,192429,2,0,L|296:272,1,88.000002685547,10|0,0:2|0:2,0:2:0:0:
120,272,192695,1,10,0:2:0:0:
215,152,192829,1,2,0:2:0:0:
48,232,192962,1,8,0:2:0:0:
48,232,193029,1,8,0:3:0:0:
48,232,193095,2,0,L|40:184,1,44.0000013427735,4|4,0:3|0:3,0:0:0:0:
56,104,193229,6,0,P|104:112|160:96,1,88.000002685547,6|0,0:2|0:2,0:2:0:0:
232,16,193495,1,10,0:2:0:0:
360,96,193629,1,8,0:2:0:0:
360,96,193762,2,0,L|272:88,1,88.000002685547,10|0,0:3|0:2,0:2:0:0:
416,32,194029,1,10,0:2:0:0:
448,200,194162,2,0,P|440:152|448:112,1,88.000002685547,6|0,0:3|0:2,0:2:0:0:
296,256,194429,2,0,P|304:208|296:168,1,88.000002685547,2|8,0:2|0:2,0:2:0:0:
480,216,194695,2,0,P|472:168|480:128,1,88.000002685547,6|0,0:3|0:2,0:2:0:0:
264,264,194962,2,0,P|272:216|264:176,1,88.000002685547,2|8,0:2|0:2,0:2:0:0:
240,96,195229,1,2,0:2:0:0:
104,224,195362,5,6,0:2:0:0:
104,224,195495,2,0,P|152:216|208:232,1,88.000002685547,0|8,0:2|0:2,0:0:0:0:
264,352,195762,1,10,0:2:0:0:
390,193,195895,2,0,P|354:261|259:261,1,176.000005371094,10|8,0:3|0:2,0:2:0:0:
314,105,196295,2,0,L|307:193,1,88.000002685547,6|0,0:3|0:2,0:2:0:0:
142,104,196562,2,0,L|134:16,1,88.000002685547,2|8,0:2|0:2,0:2:0:0:
360,88,196829,2,0,L|352:175,1,88.000002685547,6|0,0:3|0:2,0:2:0:0:
104,128,197095,2,0,L|96:40,1,88.000002685547,2|8,0:2|0:2,0:2:0:0:
112,210,197362,1,10,0:2:0:0:
112,210,197495,6,0,B|80:240|80:240|88:376,1,176.000005371094,6|10,0:2|0:2,0:2:0:0:
272,304,197895,2,0,P|192:272|112:312,1,176.000005371094,10|2,0:2|0:2,0:2:0:0:
343,354,198295,2,0,B|367:306|343:258|343:258|319:218|343:170,1,176.000005371094,10|0,0:2|0:2,0:2:0:0:
360,104,198695,1,0,0:2:0:0:
496,224,198829,2,0,P|448:208|400:224,1,88.000002685547,10|0,0:2|0:2,0:2:0:0:
253,192,199095,2,0,P|301:176|349:192,1,88.000002685547,2|0,0:2|0:2,0:2:0:0:
448,96,199362,2,0,L|360:104,1,88.000002685547,8|0,0:2|0:0,0:2:0:0:
192,128,199629,6,0,P|136:144|56:72,1,176.000005371094,6|10,0:2|0:2,0:2:0:0:
125,229,200029,2,0,B|149:181|149:181|141:45,1,176.000005371094,2|2,0:2|0:2,0:2:0:0:
45,205,200429,2,0,P|62:281|158:306,2,176.000005371094,10|0|10,0:2|0:2|0:2,0:2:0:0:
55,71,201095,1,0,0:2:0:0:
55,71,201229,2,0,P|96:56|144:64,1,88.000002685547,10|8,0:2|0:3,0:0:0:0:
192,128,201495,2,0,P|248:136|288:120,1,88.000002685547,6|4,0:3|0:3,0:0:0:0:
464,32,201762,6,0,L|448:208,1,176.000005371094,6|8,0:2|0:2,0:2:0:0:
312,296,202162,1,2,0:2:0:0:
312,296,202295,2,0,L|304:208,1,88.000002685547,8|0,0:2|0:2,0:2:0:0:
376,64,202562,2,0,L|368:152,1,88.000002685547,10|0,0:2|0:2,0:2:0:0:
184,40,202829,2,0,L|192:128,1,88.000002685547,8|0,0:2|0:2,0:2:0:0:
352,40,203095,2,0,L|344:128,1,88.000002685547,10|0,0:2|0:2,0:2:0:0:
152,16,203362,2,0,L|160:104,1,88.000002685547,10|0,0:2|0:2,0:2:0:0:
176,240,203629,1,10,0:2:0:0:
376,160,203762,1,0,0:2:0:0:
376,160,203829,1,0,0:2:0:0:
376,160,203895,6,0,B|392:224|392:224|384:272|384:272|400:344,1,176.000005371094,14|8,0:2|0:2,0:2:0:0:
215,169,204295,1,2,0:2:0:0:
215,169,204429,2,0,P|263:185|311:177,1,88.000002685547,8|0,0:2|0:2,0:2:0:0:
512,104,204695,2,0,P|464:88|416:96,1,88.000002685547,10|0,0:2|0:2,0:2:0:0:
480,256,204962,2,0,L|464:168,1,88.000002685547,10|0,0:2|0:0,0:2:0:0:
352,336,205229,2,0,L|360:248,1,88.000002685547,8|0,0:2|0:2,0:0:0:0:
272,96,205495,1,10,0:2:0:0:
222,256,205629,1,8,0:3:0:0:
222,256,205762,2,0,L|214:168,1,88.000002685547,4|4,0:3|0:3,0:0:0:0:
72,24,206029,6,0,L|56:200,1,176.000005371094,6|8,0:2|0:2,0:2:0:0:
40,344,206429,1,2,0:2:0:0:
138,215,206562,1,8,0:2:0:0:
224,344,206695,1,0,0:2:0:0:
224,344,206762,1,0,0:0:0:0:
224,344,206829,2,0,P|264:328|312:336,1,88.000002685547,10|0,0:2|0:2,0:2:0:0:
488,368,207095,2,0,L|480:280,1,88.000002685547,8|0,0:2|0:2,0:2:0:0:
336,168,207362,2,0,L|328:256,1,88.000002685547,10|0,0:2|0:2,0:2:0:0:
504,192,207629,2,0,L|496:104,1,88.000002685547,10|0,0:2|0:2,0:2:0:0:
328,0,207895,2,0,L|320:88,1,88.000002685547,10|0,0:2|0:2,0:2:0:0:
184,232,208162,6,0,P|224:200|224:72,1,176.000005371094,14|8,0:2|0:2,0:2:0:0:
67,139,208562,1,2,0:2:0:0:
66,138,208695,2,0,P|108:127|151:139,1,88.000002685547,8|0,0:2|0:2,0:2:0:0:
224,305,208962,2,0,P|182:316|140:305,1,88.000002685547,10|0,0:2|0:2,0:2:0:0:
243,164,209229,2,0,L|331:172,1,88.000002685547,10|0,0:2|0:2,0:0:0:0:
312,336,209495,2,0,L|304:248,1,88.000002685547,8|0,0:2|0:2,0:0:0:0:
293,82,209762,1,10,0:2:0:0:
387,241,209895,1,8,0:2:0:0:
209,160,210029,1,8,0:2:0:0:
395,118,210162,1,8,0:2:0:0:
304,248,210295,6,0,L|48:232,1,240.000009155274,14|0,0:2|0:0,0:0:0:0:
53,67,210695,2,0,L|292:81,1,240.000009155274,14|0,0:2|0:0,0:0:0:0:
505,125,211095,2,0,P|449:101|385:125,1,120.000004577637,14|0,0:2|0:2,0:0:0:0:
453,302,211362,2,0,L|445:182,1,120.000004577637,14|0,0:2|0:0,0:0:0:0:
376,336,211629,6,0,P|336:320|280:336,1,88.000002685547,0|0,0:2|0:0,0:0:0:0:
160,328,211895,2,0,P|193:301|208:244,1,88.000002685547,0|0,0:2|0:0,0:0:0:0:
280,160,212162,2,0,P|286:202|328:243,1,88.000002685547,0|4,0:2|0:3,0:0:0:0:
328,24,212429,6,0,B|240:32|240:32|192:80|192:80|104:88,1,240.000009155274,14|0,0:2|0:0,0:0:0:0:
0,232,212829,2,0,P|80:176|208:232,1,240.000009155274,14|0,0:2|0:0,0:0:0:0:
306,355,213229,2,0,L|314:235,1,120.000004577637,14|0,0:2|0:2,0:0:0:0:
108,384,213495,2,0,L|100:264,1,120.000004577637,14|0,0:2|0:0,0:0:0:0:
108,87,213762,6,0,L|196:95,1,88.000002685547,0|0,0:2|0:0,0:0:0:0:
408,144,214029,2,0,L|320:152,1,88.000002685547,0|0,0:2|0:0,0:0:0:0:
136,168,214295,1,8,0:2:0:0:
132,211,214361,1,8,0:2:0:0:
128,256,214429,2,0,L|176:264,1,44.0000013427735,8|8,0:2|0:2,0:0:0:0:
319,287,214562,6,0,P|399:279|407:143,1,240.000009155274,14|0,0:2|0:0,0:0:0:0:
352,208,214962,2,0,P|402:145|312:43,1,240.000009155274,14|0,0:2|0:0,0:0:0:0:
203,135,215362,2,0,L|323:128,1,120.000004577637,14|0,0:2|0:2,0:0:0:0:
471,215,215629,2,0,L|343:207,1,120.000004577637,14|0,0:2|0:0,0:0:0:0:
248,279,215895,1,0,0:2:0:0:
248,279,216029,1,0,0:0:0:0:
322,128,216162,1,4,0:2:0:0:
256,192,216295,12,0,223362,0:0:0:0:
