osu file format v14

[General]
AudioFilename: audio.mp3
AudioLeadIn: 0
PreviewTime: 58929
Countdown: 0
SampleSet: Soft
StackLeniency: 0.7
Mode: 0
LetterboxInBreaks: 0
WidescreenStoryboard: 1

[Editor]
DistanceSpacing: 0.9
BeatDivisor: 4
GridSize: 4
TimelineZoom: 2.799999

[Metadata]
Title:Himekoi
TitleUnicode:ヒメコイ
Artist:Kano
ArtistUnicode:鹿乃
Creator:Fycho
Version:Insane
Source:
Tags:secret love Hime Koi 田代智一 やしきん nowhere Zero__wind Momochikun
BeatmapID:974684
BeatmapSetID:454637

[Difficulty]
HPDrainRate:6
CircleSize:4
OverallDifficulty:7
ApproachRate:8.5
SliderMultiplier:1.6
SliderTickRate:1

[Events]
//Background and Video events
0,0,"evb04_03b.jpg",0,0
//Break Periods
2,90968,99383
2,193161,197899
//Storyboard Layer 0 (Background)
//Storyboard Layer 1 (Fail)
//Storyboard Layer 2 (Pass)
//Storyboard Layer 3 (Foreground)
//Storyboard Sound Samples

[TimingPoints]
962,387.096774193548,4,2,1,40,1,0
2510,-200,4,2,1,40,0,0
9865,-100,4,2,1,50,0,0
10252,-100,4,2,1,70,0,0
18961,-100,4,2,1,50,0,0
19542,-100,4,2,1,60,0,0
59800,-90.9090909090909,4,2,1,80,0,1
76445,-90.9090909090909,4,2,1,60,0,1
76542,-90.9090909090909,4,2,1,80,0,1
87671,-90.9090909090909,4,2,1,50,0,0
90768,-100,4,2,1,60,0,0
124832,-125,4,2,1,60,0,0
130252,-100,4,2,1,60,0,0
140316,-90.9090909090909,4,2,1,80,0,1
156961,-90.9090909090909,4,2,1,60,0,1
157058,-90.9090909090909,4,2,1,80,0,1
168187,-100,4,2,1,60,0,0
198574,-100,4,2,1,40,0,0
203026,-100,4,2,1,50,0,0
203413,-100,4,2,1,60,0,0
205155,-100,4,2,1,70,0,0
219478,-100,4,2,1,50,0,0
223929,-100,4,2,1,60,0,0
228768,-90.9090909090909,4,2,1,60,0,0
230123,-90.9090909090909,4,2,1,80,0,1
245607,-90.9090909090909,4,2,1,50,0,0
247155,-100,4,2,1,40,0,0
248123,-100,4,2,1,60,0,0
249671,-100,4,2,1,50,0,0
250252,-100,4,2,1,60,0,0

[Colours]
Combo1 : 214,251,0
Combo2 : 0,176,0
Combo3 : 61,121,182
Combo4 : 0,255,128

[HitObjects]
45,67,961,5,4,0:1:0:0:
124,53,1155,1,0,0:0:0:0:
193,93,1349,1,0,0:0:0:0:
203,172,1542,1,0,0:0:0:0:
170,245,1736,5,2,0:0:0:0:
197,320,1929,1,0,0:0:0:0:
271,350,2123,1,0,0:0:0:0:
346,325,2316,1,0,0:0:0:0:
385,254,2510,6,0,L|399:127,2,120,2|2|0,0:0|0:0|0:0,0:0:0:0:
299,83,4058,5,4,0:1:0:0:
221,61,4252,1,0,0:0:0:0:
153,102,4445,1,0,0:0:0:0:
134,180,4639,1,0,0:0:0:0:
189,237,4832,5,2,0:0:0:0:
208,314,5026,1,0,0:0:0:0:
148,367,5220,1,0,0:0:0:0:
68,357,5413,1,0,0:0:0:0:
36,283,5607,6,0,L|62:119,1,160,2|0,0:0|0:0,0:0:0:0:
209,178,6768,1,2,0:0:0:0:
361,60,7155,5,2,0:0:0:0:
256,192,7252,12,8,9478,0:0:0:0:
193,255,9671,5,8,0:0:0:0:
193,255,9768,1,8,0:0:0:0:
193,255,9865,2,0,L|164:308,1,40,8|8,0:0|0:0,0:0:0:0:
197,153,10058,2,0,L|172:123,1,40,8|8,0:0|0:0,0:0:0:0:
279,206,10252,6,0,L|372:193,1,80,4|0,0:1|0:0,0:0:0:0:
484,115,10639,2,0,P|486:59|476:18,1,80,8|0,0:0|0:0,0:0:0:0:
464,205,11026,1,0,0:0:0:0:
378,111,11220,1,2,0:0:0:0:
279,205,11413,2,0,P|273:267|279:289,1,80,8|2,0:0|0:0,0:0:0:0:
166,137,11800,6,0,P|88:123|19:161,1,160,2|8,0:0|0:0,0:0:0:0:
85,337,12381,2,0,P|111:282|105:246,1,80,2|0,0:0|0:0,0:0:0:0:
110,264,12671,1,8,0:0:0:0:
110,264,12768,1,2,0:0:0:0:
224,310,12961,2,0,L|305:295,1,80,8|2,0:0|0:0,0:0:0:0:
456,204,13349,6,0,P|410:258|410:347,1,160,2|8,0:0|0:0,0:0:0:0:
465,210,13929,1,2,0:0:0:0:
465,210,14026,1,2,0:0:0:0:
465,210,14123,2,0,L|348:197,1,80,0|2,0:0|0:0,0:0:0:0:
236,172,14510,2,0,P|260:123|247:71,1,80,8|0,0:0|0:0,0:0:0:0:
2,129,14897,5,2,0:0:0:0:
184,59,15091,1,0,0:0:0:0:
51,20,15284,1,8,0:0:0:0:
113,129,15478,5,2,0:0:0:0:
125,156,15574,1,2,0:0:0:0:
119,187,15671,1,2,0:0:0:0:
72,320,15865,1,8,0:0:0:0:
101,331,15961,1,8,0:0:0:0:
132,336,16058,1,8,0:0:0:0:
163,329,16155,1,8,0:0:0:0:
192,316,16252,1,8,0:0:0:0:
223,319,16349,1,8,0:0:0:0:
251,333,16445,6,0,L|293:240,1,80,4|2,0:0|0:0,0:0:0:0:
232,117,16832,2,0,P|167:129|133:151,1,80,8|2,0:0|0:0,0:0:0:0:
427,84,17220,1,8,0:0:0:0:
330,151,17413,1,8,0:0:0:0:
323,174,17510,1,8,0:0:0:0:
322,198,17607,1,8,0:0:0:0:
326,221,17703,1,8,0:0:0:0:
329,244,17800,1,8,0:0:0:0:
330,268,17897,1,8,0:0:0:0:
323,291,17994,6,0,L|218:293,1,80,12|0,0:0|0:0,0:0:0:0:
89,138,18381,2,0,B|107:181|107:181|166:195|235:156|235:156|235:182|247:217,1,240,8|8,0:0|0:0,0:0:0:0:
251,253,19058,1,8,0:0:0:0:
251,253,19155,2,0,L|235:323,1,40,8|8,0:0|0:0,0:0:0:0:
182,379,19349,2,0,L|174:339,1,40,8|8,0:0|0:0,0:0:0:0:
118,269,19542,6,0,P|47:280|-2:357,1,160,4|8,0:0|0:0,0:0:0:0:
249,334,20123,1,2,0:0:0:0:
249,334,20220,1,8,0:0:0:0:
249,334,20316,2,0,P|270:279|266:234,1,80,0|2,0:0|0:0,0:0:0:0:
164,172,20703,1,8,0:0:0:0:
250,75,20897,6,0,L|427:66,1,160,2|2,0:0|0:0,0:0:0:0:
359,256,21478,2,0,P|350:209|363:163,1,80,8|2,0:0|0:0,0:0:0:0:
469,152,21865,1,8,0:0:0:0:
469,152,21961,1,8,0:0:0:0:
469,152,22058,1,0,0:0:0:0:
265,227,22252,2,0,L|249:308,1,80,8|2,0:0|0:0,0:0:0:0:
108,364,22639,6,0,P|128:268|92:193,1,160,2|8,0:0|0:0,0:0:0:0:
17,117,23220,1,2,0:0:0:0:
17,117,23316,1,8,0:0:0:0:
17,117,23413,2,0,L|-1:203,1,80,0|2,0:0|0:0,0:0:0:0:
103,55,23800,1,8,0:0:0:0:
183,139,23994,6,0,P|225:150|331:88,1,160,2|2,0:0|0:0,0:0:0:0:
183,139,24574,2,0,L|166:233,1,80,8|2,0:0|0:0,0:0:0:0:
322,318,24961,1,8,0:0:0:0:
322,318,25058,2,0,L|332:257,1,40,8|0,0:0|0:0,0:0:0:0:
402,106,25349,1,8,0:0:0:0:
430,301,25542,1,2,0:0:0:0:
305,169,25736,6,0,P|247:161|158:246,1,160,4|8,0:0|0:0,0:0:0:0:
135,353,26316,1,2,0:0:0:0:
135,353,26413,1,8,0:0:0:0:
135,353,26510,1,0,0:0:0:0:
300,284,26703,1,2,0:0:0:0:
168,217,26897,1,8,0:0:0:0:
364,140,27091,6,0,L|427:311,1,160,4|0,0:0|0:0,0:0:0:0:
239,160,27671,2,0,P|235:119|257:68,1,80,8|2,0:0|0:0,0:0:0:0:
259,46,27961,1,8,0:0:0:0:
259,46,28058,2,0,L|187:33,1,40
135,27,28252,1,0,0:0:0:0:
23,173,28445,1,8,0:0:0:0:
123,125,28639,1,0,0:0:0:0:
214,248,28832,6,0,P|222:326|141:385,1,160,4|8,0:0|0:0,0:0:0:0:
36,303,29413,1,2,0:0:0:0:
36,303,29510,1,8,0:0:0:0:
36,303,29607,2,0,L|124:289,1,80,0|2,0:0|0:0,0:0:0:0:
248,348,29994,1,8,0:0:0:0:
444,161,30187,6,0,P|347:180|306:231,1,160,4|2,0:0|0:0,0:0:0:0:
191,177,30768,1,8,0:0:0:0:
269,91,30961,1,2,0:0:0:0:
269,91,31058,1,8,0:0:0:0:
269,91,31155,1,0,0:0:0:0:
415,258,31349,1,2,0:0:0:0:
308,225,31542,1,8,0:0:0:0:
308,225,31639,2,0,L|295:288,1,40,8|0,0:0|0:0,0:0:0:0:
475,336,31929,6,0,P|499:282|466:174,1,160,4|8,0:0|0:0,0:0:0:0:
290,148,32510,1,2,0:0:0:0:
290,148,32607,1,8,0:0:0:0:
290,148,32703,2,0,P|307:224|314:235,1,80,0|2,0:0|0:0,0:0:0:0:
394,110,33091,1,8,0:0:0:0:
302,42,33284,6,0,P|213:11|150:20,1,160,2|2,0:0|0:0,0:0:0:0:
64,184,33865,1,8,0:0:0:0:
210,113,34058,1,2,0:0:0:0:
210,113,34155,1,8,0:0:0:0:
210,113,34252,1,0,0:0:0:0:
54,81,34445,1,2,0:0:0:0:
170,212,34639,2,0,P|159:250|156:290,1,80,8|0,0:0|0:0,0:0:0:0:
299,357,35026,6,0,P|358:304|466:315,1,160,2|8,0:0|0:0,0:0:0:0:
229,266,35607,1,2,0:0:0:0:
360,169,35800,1,0,0:0:0:0:
360,169,35897,2,0,L|355:229,1,40,8|2,0:0|0:0,0:0:0:0:
270,110,36187,1,8,0:0:0:0:
303,304,36381,6,0,B|351:333|406:305|406:305|422:325|429:351,1,160,2|0,0:0|0:0,0:0:0:0:
483,230,36961,2,0,P|482:159|466:128,1,80,8|2,0:0|0:0,0:0:0:0:
479,151,37252,1,8,0:0:0:0:
479,151,37349,1,0,0:0:0:0:
266,148,37542,1,2,0:0:0:0:
383,76,37736,1,8,0:0:0:0:
371,207,37929,1,8,0:0:0:0:
371,207,38026,1,8,0:0:0:0:
371,207,38123,6,0,L|360:292,1,80,4|2,0:0|0:0,0:0:0:0:
191,351,38510,2,0,L|185:246,1,80,8|2,0:0|0:0,0:0:0:0:
186,271,38800,1,8,0:0:0:0:
186,271,38897,1,0,0:0:0:0:
75,293,39091,1,2,0:0:0:0:
286,249,39284,1,8,0:0:0:0:
93,134,39478,6,0,L|74:292,1,160,4|0,0:0|0:0,0:0:0:0:
210,183,40058,1,8,0:0:0:0:
331,111,40252,2,0,L|350:269,1,160,4|2,0:0|0:0,0:0:0:0:
224,81,40832,1,8,0:0:0:0:
224,81,40929,1,8,0:0:0:0:
224,81,41026,1,8,0:0:0:0:
415,163,41220,6,0,P|430:109|421:65,1,80,4|2,0:0|0:0,0:0:0:0:
294,217,41607,2,0,L|278:319,1,80,8|2,0:0|0:0,0:0:0:0:
281,296,41897,1,8,0:0:0:0:
281,296,41994,1,0,0:0:0:0:
155,150,42187,1,0,0:0:0:0:
60,177,42381,1,8,0:0:0:0:
85,318,42574,6,0,P|130:364|235:357,1,160,4|0,0:0|0:0,0:0:0:0:
354,286,43155,2,0,L|365:376,1,80,8|2,0:0|0:0,0:0:0:0:
422,169,43542,1,10,0:0:0:0:
395,165,43639,1,0,0:0:0:0:
366,166,43736,1,2,0:0:0:0:
340,176,43832,1,0,0:0:0:0:
313,185,43929,1,10,0:0:0:0:
285,192,44026,1,0,0:0:0:0:
256,192,44123,1,2,0:0:0:0:
228,189,44220,1,0,0:0:0:0:
204,174,44316,6,0,L|176:88,1,80,4|0,0:0|0:0,0:0:0:0:
102,210,44703,1,0,0:0:0:0:
102,210,44897,1,0,0:0:0:0:
203,330,45091,2,0,P|247:333|291:308,1,80,2|0,0:0|0:0,0:0:0:0:
57,339,45478,1,8,0:0:0:0:
174,249,45671,1,0,0:0:0:0:
23,176,45865,6,0,P|17:213|26:254,1,80,2|0,0:0|0:0,0:0:0:0:
242,298,46252,2,0,P|251:259|246:220,1,80,0|2,0:0|0:0,0:0:0:0:
132,120,46639,1,0,0:0:0:0:
132,120,46736,1,8,0:0:0:0:
132,120,46832,1,0,0:0:0:0:
239,53,47026,2,0,L|346:59,1,80,8|0,0:0|0:0,0:0:0:0:
445,187,47413,6,0,L|272:173,1,160,2|0,0:0|0:0,0:0:0:0:
160,235,47994,1,0,0:0:0:0:
248,342,48187,2,0,P|269:291|269:258,1,80,2|0,0:0|0:0,0:0:0:0:
217,106,48574,1,8,0:0:0:0:
285,174,48768,1,0,0:0:0:0:
409,134,48961,6,0,P|434:183|424:228,1,80,2|0,0:0|0:0,0:0:0:0:
287,311,49349,2,0,P|241:279|229:235,1,80,0|2,0:0|0:0,0:0:0:0:
295,74,49736,5,0,0:0:0:0:
317,222,49929,1,8,0:0:0:0:
409,134,50123,1,8,0:0:0:0:
212,165,50316,6,0,B|152:178|115:134|115:134|88:144|48:135,1,160,4|0,0:0|0:0,0:0:0:0:
49,253,50897,2,0,P|54:311|41:351,1,80,8|0,0:0|0:0,0:0:0:0:
170,343,51284,5,0,0:0:0:0:
278,193,51478,1,8,0:0:0:0:
374,340,51671,1,8,0:0:0:0:
192,248,51865,6,0,B|199:186|176:140|176:140|185:100|201:79,1,160,4|0,0:0|0:0,0:0:0:0:
373,160,52445,2,0,P|371:206|361:246,1,80,8|0,0:0|0:0,0:0:0:0:
355,48,52832,5,0,0:0:0:0:
456,101,53026,1,8,0:0:0:0:
260,189,53220,1,8,0:0:0:0:
363,238,53413,1,0,0:0:0:0:
173,337,53607,6,0,L|73:347,1,80,12|0,0:0|0:0,0:0:0:0:
339,337,53994,2,0,L|439:347,1,80,8|0,0:0|0:0,0:0:0:0:
149,247,54381,2,0,L|50:237,1,80,8|0,0:0|0:0,0:0:0:0:
363,247,54768,2,0,L|462:237,1,80,8|0,0:0|0:0,0:0:0:0:
167,54,55155,5,8,0:0:0:0:
154,156,55349,1,0,0:0:0:0:
344,45,55542,1,8,0:0:0:0:
357,142,55736,1,0,0:0:0:0:
243,268,55929,6,0,L|254:154,1,80,8|0,0:0|0:0,0:0:0:0:
186,353,56316,1,8,0:0:0:0:
343,266,56510,6,0,P|418:262|501:344,1,160,4|2,0:0|0:0,0:0:0:0:
484,309,56994,1,2,0:0:0:0:
484,309,57091,1,8,0:0:0:0:
343,266,57284,1,2,0:0:0:0:
462,151,57478,5,8,0:0:0:0:
389,356,57671,1,2,0:0:0:0:
190,261,57865,1,8,0:0:0:0:
190,261,57961,1,8,0:0:0:0:
190,261,58058,1,0,0:0:0:0:
462,151,58252,5,8,0:0:0:0:
221,35,58639,1,8,0:0:0:0:
221,35,59026,5,2,0:0:0:0:
136,45,59220,1,0,0:0:0:0:
3,199,59413,1,8,1:0:0:0:
17,111,59607,1,0,0:0:0:0:
56,312,59800,6,0,B|87:235|87:235|135:249|190:226,1,176.000005371094,4|8,0:1|0:0,0:0:0:0:
351,182,60381,1,2,0:0:0:0:
214,340,60574,1,0,0:0:0:0:
259,231,60768,1,2,0:0:0:0:
390,322,60961,1,8,0:0:0:0:
341,175,61155,1,2,0:0:0:0:
497,254,61349,6,0,B|512:126|512:126|488:122|453:104,1,176.000005371094,2|8,0:0|0:0,0:0:0:0:
210,137,61929,1,2,0:0:0:0:
374,44,62123,1,0,0:0:0:0:
374,44,62220,1,8,0:0:0:0:
374,44,62316,1,2,0:0:0:0:
253,48,62510,1,8,0:0:0:0:
325,137,62703,1,2,0:0:0:0:
321,268,62897,6,0,P|288:313|154:319,1,176.000005371094,2|8,0:0|0:0,0:0:0:0:
45,260,63478,1,0,0:0:0:0:
133,154,63671,2,0,L|151:63,1,88.000002685547,2|0,0:0|0:0,0:0:0:0:
45,260,64058,2,0,L|26:360,1,88.000002685547,8|0,0:0|0:0,0:0:0:0:
152,322,64445,5,2,0:0:0:0:
271,220,64639,1,0,0:0:0:0:
271,220,64736,1,2,0:0:0:0:
271,220,64832,1,8,0:0:0:0:
133,154,65026,1,2,0:0:0:0:
151,321,65220,5,2,0:0:0:0:
174,340,65316,1,0,0:0:0:0:
204,341,65413,1,2,0:0:0:0:
234,336,65510,1,0,0:0:0:0:
263,325,65607,1,8,0:0:0:0:
293,319,65703,1,0,0:0:0:0:
323,323,65800,1,2,0:0:0:0:
351,335,65897,1,0,0:0:0:0:
371,358,65994,6,0,L|395:253,1,88.000002685547,2|12,0:0|0:0,0:0:0:0:
306,80,66381,2,0,P|275:128|297:219,1,132.00000402832,4|0,0:0|0:0,0:0:0:0:
292,212,66768,6,0,L|394:197,1,88.000002685547,2|12,0:0|0:0,0:0:0:0:
266,344,67155,2,0,P|206:354|145:294,1,132.00000402832,4|0,0:0|0:0,0:0:0:0:
141,302,67542,6,0,L|148:200,1,88.000002685547,2|12,0:0|0:0,0:0:0:0:
0,98,67929,2,0,P|53:127|126:94,1,132.00000402832,4|0,0:0|0:0,0:0:0:0:
128,96,68316,6,0,L|236:73,1,88.000002685547,2|12,0:0|0:0,0:0:0:0:
379,219,68703,2,0,P|322:180|319:115,1,132.00000402832,4|0,0:0|0:0,0:0:0:0:
324,99,69091,6,0,L|422:78,1,88.000002685547,12|0,0:0|0:0,0:0:0:0:
167,209,69478,2,0,L|59:230,1,88.000002685547,8|0,0:0|0:0,0:0:0:0:
381,283,69865,5,8,0:0:0:0:
167,209,70058,1,0,0:0:0:0:
138,316,70252,1,8,0:0:0:0:
356,384,70445,6,0,P|438:362|478:286,1,176.000005371094,4|0,0:0|0:0,0:0:0:0:
394,158,71026,1,8,0:0:0:0:
394,158,71123,1,8,0:0:0:0:
394,158,71220,2,0,L|398:115,2,44.0000013427735,8|8|8,0:0|0:0|0:0,0:0:0:0:
299,18,71607,5,8,0:0:0:0:
259,14,71703,1,8,0:0:0:0:
220,22,71800,1,8,0:0:0:0:
186,43,71897,1,8,0:0:0:0:
152,64,71994,1,8,0:0:0:0:
112,65,72091,1,8,0:0:0:0:
82,39,72187,6,0,P|49:128|78:209,1,176.000005371094,4|8,0:1|0:0,0:0:0:0:
233,123,72768,1,2,0:0:0:0:
82,324,72961,1,0,0:0:0:0:
265,290,73155,1,2,0:0:0:0:
147,159,73349,1,8,0:0:0:0:
82,324,73542,1,2,0:0:0:0:
233,123,73736,6,0,P|302:94|399:120,1,176.000005371094,2|8,0:0|0:0,0:0:0:0:
377,270,74316,1,2,0:0:0:0:
467,213,74510,1,0,0:0:0:0:
467,213,74607,1,8,0:0:0:0:
467,213,74703,1,2,0:0:0:0:
298,344,74897,1,8,0:0:0:0:
473,340,75091,1,2,0:0:0:0:
288,209,75284,6,0,L|287:111,1,88.000002685547,2|0,0:0|0:0,0:0:0:0:
100,220,75671,2,0,P|89:269|107:323,1,88.000002685547,8|2,0:0|0:0,0:0:0:0:
114,341,75961,1,2,0:0:0:0:
114,341,76058,2,0,L|289:326,1,176.000005371094,2|8,0:0|1:0,0:0:0:0:
207,182,76639,1,2,0:0:0:0:
399,221,76832,6,0,P|415:174|406:125,1,88.000002685547,2|2,0:0|0:0,0:0:0:0:
410,136,77123,1,2,0:0:0:0:
410,136,77220,1,8,0:0:0:0:
207,182,77413,5,2,0:0:0:0:
207,182,77510,1,2,0:0:0:0:
207,182,77607,2,0,L|146:204,1,44.0000013427735,2|0,0:0|0:0,0:0:0:0:
33,247,77800,2,0,L|111:279,1,44.0000013427735,8|0,0:0|0:0,0:0:0:0:
161,331,77994,5,8,0:0:0:0:
194,342,78091,1,8,0:0:0:0:
228,342,78187,1,8,0:0:0:0:
262,335,78284,1,8,0:0:0:0:
294,321,78381,5,2,0:0:0:0:
302,76,78574,1,12,0:0:0:0:
302,76,78768,1,4,0:0:0:0:
303,68,79155,5,2,0:0:0:0:
79,172,79349,1,12,0:0:0:0:
79,172,79542,1,4,0:0:0:0:
73,177,79929,5,2,0:0:0:0:
277,314,80123,1,12,0:0:0:0:
277,314,80316,1,4,0:0:0:0:
282,319,80703,5,2,0:0:0:0:
167,100,80897,1,12,0:0:0:0:
167,100,81091,1,8,0:0:0:0:
184,265,81284,1,8,0:0:0:0:
184,265,81381,1,8,0:0:0:0:
184,265,81478,6,8,P|171:306|183:359,1,88.000002685547,4|2,0:0|0:0,0:0:0:0:
328,265,81865,2,0,P|341:306|329:359,1,88.000002685547,8|2,0:0|0:0,0:0:0:0:
127,130,82252,2,0,P|110:177|108:219,1,88.000002685547,8|2,0:0|0:0,0:0:0:0:
385,130,82639,2,0,P|402:177|404:219,1,88.000002685547,8|2,0:0|0:0,0:0:0:0:
404,214,82929,1,8,0:0:0:0:
404,214,83026,5,8,0:0:0:0:
224,281,83220,2,0,L|159:296,2,44.0000013427735,2|2|8,0:0|0:0|0:0,0:0:0:0:
423,354,83607,1,2,0:0:0:0:
296,206,83800,5,8,0:0:0:0:
138,372,83994,1,2,0:0:0:0:
316,319,84187,1,8,0:0:0:0:
175,225,84381,1,2,0:0:0:0:
329,126,84574,6,0,P|390:142|424:178,1,88.000002685547,4|2,0:0|0:0,0:0:0:0:
183,126,84961,2,0,P|122:142|88:178,1,88.000002685547,8|2,0:0|0:0,0:0:0:0:
357,30,85349,2,0,P|430:22|474:36,1,88.000002685547,8|2,0:0|0:0,0:0:0:0:
155,30,85736,2,0,P|82:22|38:36,1,88.000002685547,8|2,0:0|0:0,0:0:0:0:
68,24,86026,1,8,0:0:0:0:
68,24,86123,5,8,0:0:0:0:
3,160,86316,1,2,0:0:0:0:
3,160,86413,1,2,0:0:0:0:
3,160,86510,1,8,0:0:0:0:
152,122,86703,1,2,0:0:0:0:
1,278,86897,5,8,0:0:0:0:
67,100,87091,1,2,0:0:0:0:
192,234,87284,1,8,0:0:0:0:
82,197,87478,1,2,0:0:0:0:
279,40,87671,5,4,0:0:0:0:
257,156,87961,5,8,0:0:0:0:
232,277,88252,5,8,0:0:0:0:
368,111,88445,5,8,0:0:0:0:
445,201,88639,2,0,L|442:245,3,29.3333342285157,8|8|8|8,0:0|0:0|0:0|0:0,0:0:0:0:
280,103,89026,1,0,0:0:0:0:
134,326,89220,5,4,0:0:0:0:
134,326,90187,1,8,0:0:0:0:
107,202,90381,1,8,0:0:0:0:
100,166,90478,1,8,0:0:0:0:
93,132,90574,1,8,0:0:0:0:
87,96,90671,1,8,0:0:0:0:
80,61,90768,5,4,0:1:0:0:
174,265,100058,6,0,P|103:254|54:177,1,160,4|8,0:0|0:0,0:0:0:0:
28,49,100639,1,2,0:0:0:0:
130,75,100832,2,0,P|151:130|147:175,1,80,0|2,0:0|0:0,0:0:0:0:
173,265,101220,1,8,0:0:0:0:
265,135,101413,6,0,L|438:104,1,160,2|2,0:0|0:0,0:0:0:0:
360,284,101994,2,0,P|353:244|362:205,1,80,8|2,0:0|0:0,0:0:0:0:
462,201,102381,1,8,0:0:0:0:
462,201,102478,1,8,0:0:0:0:
462,201,102574,1,0,0:0:0:0:
261,272,102768,2,0,L|234:374,1,80,8|0,0:0|0:0,0:0:0:0:
129,343,103155,6,0,P|36:342|-2:261,1,160,2|8,0:0|0:0,0:0:0:0:
9,190,103736,1,2,0:0:0:0:
89,139,103929,2,0,L|77:51,1,80,0|2,0:0|0:0,0:0:0:0:
164,197,104316,1,8,0:0:0:0:
249,136,104510,6,0,P|291:125|397:187,1,160,2|2,0:0|0:0,0:0:0:0:
297,318,105091,2,0,P|290:267|302:231,1,80,8|2,0:0|0:0,0:0:0:0:
446,288,105478,1,8,0:0:0:0:
446,288,105574,2,0,L|387:282,1,40,8|0,0:0|0:0,0:0:0:0:
297,318,105865,1,8,0:0:0:0:
193,185,106058,1,2,0:0:0:0:
146,312,106252,6,0,P|88:320|-1:235,1,160,4|8,0:0|0:0,0:0:0:0:
28,60,106832,1,2,0:0:0:0:
58,152,107026,1,0,0:0:0:0:
180,24,107220,1,2,0:0:0:0:
169,121,107413,1,8,0:0:0:0:
225,215,107607,6,0,L|391:172,1,160,4|0,0:0|0:0,0:0:0:0:
302,26,108187,2,0,P|301:65|308:105,1,80,8|2,0:0|0:0,0:0:0:0:
438,80,108574,2,0,L|448:30,2,40,0|8|0,0:0|0:0|0:0,0:0:0:0:
379,174,108961,1,8,0:0:0:0:
456,251,109155,1,0,0:0:0:0:
368,355,109349,6,0,L|277:340,1,80,4|2,0:0|0:0,0:0:0:0:
208,249,109736,1,8,0:0:0:0:
223,134,109929,1,0,1:2:0:0:
305,212,110123,1,0,1:0:0:0:
106,286,110316,1,0,1:0:0:0:
167,65,110510,1,0,1:0:0:0:
390,20,110703,6,0,L|378:188,1,160,4|2,0:0|0:0,0:0:0:0:
270,134,111284,1,0,0:0:0:0:
270,134,111478,1,2,0:0:0:0:
359,302,111671,5,8,0:0:0:0:
251,252,111865,1,2,0:0:0:0:
165,333,112058,1,8,0:0:0:0:
165,333,112155,1,8,0:0:0:0:
165,333,112252,1,2,0:0:0:0:
26,325,112445,6,0,P|7:243|33:153,1,160,4|8,0:0|0:0,0:0:0:0:
76,52,113026,1,2,0:0:0:0:
76,52,113123,1,8,0:0:0:0:
76,52,113220,2,0,P|152:69|163:76,1,80,0|2,0:0|0:0,0:0:0:0:
123,166,113607,1,8,0:0:0:0:
169,275,113800,6,0,P|277:251|337:256,1,160,2|2,0:0|0:0,0:0:0:0:
79,318,114381,1,8,0:0:0:0:
222,179,114574,1,2,0:0:0:0:
222,179,114671,1,8,0:0:0:0:
222,179,114768,1,0,0:0:0:0:
169,275,114961,1,2,0:0:0:0:
88,211,115155,2,0,P|77:173|74:133,1,80,8|0,0:0|0:0,0:0:0:0:
150,35,115542,6,0,P|236:34|295:112,1,160,2|8,0:0|0:0,0:0:0:0:
270,274,116123,1,2,0:0:0:0:
361,203,116316,1,0,0:0:0:0:
361,203,116413,2,0,L|356:143,1,40,8|2,0:0|0:0,0:0:0:0:
270,274,116703,1,8,0:0:0:0:
313,75,116897,6,0,B|361:46|416:74|416:74|449:48|486:55,1,160,2|0,0:0|0:0,0:0:0:0:
479,212,117478,2,0,P|478:283|462:314,1,80,8|2,0:0|0:0,0:0:0:0:
475,290,117768,1,8,0:0:0:0:
475,290,117865,1,0,0:0:0:0:
358,273,118058,1,2,0:0:0:0:
275,351,118252,1,8,0:0:0:0:
358,273,118445,1,8,0:0:0:0:
358,273,118542,1,8,0:0:0:0:
358,273,118639,6,0,L|347:188,1,80,4|2,0:0|0:0,0:0:0:0:
188,121,119026,2,0,L|199:226,1,80,8|2,0:0|0:0,0:0:0:0:
197,201,119316,1,8,0:0:0:0:
197,201,119413,1,0,0:0:0:0:
274,136,119607,1,2,0:0:0:0:
111,78,119800,1,8,0:0:0:0:
121,274,119994,6,0,P|208:319|276:284,1,160,4|0,0:0|0:0,0:0:0:0:
453,322,120574,1,8,0:0:0:0:
354,226,120768,2,0,L|335:384,1,160,4|2,0:0|0:0,0:0:0:0:
475,246,121349,1,8,0:0:0:0:
475,246,121445,1,8,0:0:0:0:
475,246,121542,1,8,0:0:0:0:
382,127,121736,6,0,P|342:126|304:139,1,80,4|2,0:0|0:0,0:0:0:0:
200,227,122123,2,0,L|184:125,1,80,8|2,0:0|0:0,0:0:0:0:
187,148,122413,1,8,0:0:0:0:
187,148,122510,1,0,0:0:0:0:
251,51,122703,1,0,0:0:0:0:
200,227,122897,1,8,0:0:0:0:
67,120,123091,6,0,P|30:178|31:276,1,160,4|0,0:0|0:0,0:0:0:0:
102,356,123671,1,8,0:0:0:0:
200,227,123865,1,2,0:0:0:0:
296,352,124058,1,10,0:0:0:0:
308,326,124155,1,0,0:0:0:0:
307,297,124252,1,2,0:0:0:0:
297,271,124349,1,0,0:0:0:0:
288,244,124445,1,10,0:0:0:0:
281,216,124542,1,0,0:0:0:0:
281,187,124639,1,2,0:0:0:0:
284,159,124736,1,0,0:0:0:0:
295,133,124832,6,0,B|152:127,1,128,4|0,0:0|0:0,0:0:0:0:
176,322,125413,1,0,0:0:0:0:
176,322,125607,2,0,P|197:256|196:206,2,96,2|2|2,0:0|0:0|0:0,0:0:0:0:
32,302,126381,6,0,P|20:257|21:230,1,64,2|8,0:0|0:0,0:0:0:0:
0,99,126768,2,0,L|143:109,1,128,2|8,0:0|0:0,0:0:0:0:
140,107,127542,2,0,L|126:184,1,64,2|0,0:0|0:0,0:0:0:0:
125,280,127929,6,0,B|222:223|222:223|249:245|306:253,1,192,2|0,0:0|0:0,0:0:0:0:
410,218,128703,2,0,L|387:350,1,128,8|2,0:0|0:0,0:0:0:0:
338,161,129284,1,8,0:0:0:0:
480,164,129478,6,0,P|505:115|506:86,1,64,2|8,0:0|0:0,0:0:0:0:
385,83,129865,2,0,P|378:46|357:17,1,64,8|2,0:0|0:0,0:0:0:0:
282,291,130252,5,8,0:0:0:0:
75,189,130445,1,8,0:0:0:0:
292,96,130639,1,8,0:0:0:0:
173,214,130832,6,0,B|113:227|76:183|76:183|49:193|9:184,1,160,4|0,0:0|0:0,0:0:0:0:
261,254,131413,2,0,P|266:196|253:156,1,80,8|0,0:0|0:0,0:0:0:0:
170,86,131800,5,0,0:0:0:0:
45,278,131994,1,8,0:0:0:0:
261,175,132187,1,8,0:0:0:0:
64,101,132381,6,0,B|126:108|172:85|172:85|212:94|218:100,1,160,4|0,0:0|0:0,0:0:0:0:
164,352,132961,2,0,L|183:262,1,80,8|0,0:0|0:0,0:0:0:0:
383,164,133349,5,0,0:0:0:0:
199,198,133542,1,8,0:0:0:0:
425,270,133736,1,8,0:0:0:0:
277,137,133929,1,0,0:0:0:0:
465,71,134123,6,0,L|470:165,1,80,12|0,0:0|0:0,0:0:0:0:
254,20,134510,2,0,L|354:10,1,80,8|0,0:0|0:0,0:0:0:0:
200,224,134897,2,0,L|193:130,1,80,8|0,0:0|0:0,0:0:0:0:
426,263,135284,2,0,L|343:274,1,80,8|0,0:0|0:0,0:0:0:0:
300,106,135671,5,8,0:0:0:0:
200,224,135865,1,0,0:0:0:0:
429,142,136058,1,8,0:0:0:0:
284,200,136252,1,0,0:0:0:0:
512,267,136445,1,8,0:0:0:0:
365,226,136639,1,0,0:0:0:0:
481,375,136832,1,8,0:0:0:0:
270,352,137026,6,0,P|236:279|248:198,1,160,4|2,0:0|0:0,0:0:0:0:
246,202,137510,1,2,0:0:0:0:
246,202,137607,1,8,0:0:0:0:
346,113,137800,1,2,0:0:0:0:
382,241,137994,5,8,0:0:0:0:
225,79,138187,1,2,0:0:0:0:
225,79,138284,1,8,0:0:0:0:
225,79,138381,1,8,0:0:0:0:
434,30,138574,1,4,0:0:0:0:
346,113,138768,5,2,0:0:0:0:
321,20,138961,1,2,0:0:0:0:
441,133,139155,1,8,0:0:0:0:
290,188,139349,1,2,0:0:0:0:
223,79,139542,5,2,0:0:0:0:
56,90,139736,1,8,0:0:0:0:
32,116,139832,1,8,0:0:0:0:
16,148,139929,1,8,0:1:0:0:
8,183,140026,1,8,0:0:0:0:
12,218,140123,1,8,0:0:0:0:
22,252,140220,1,8,0:0:0:0:
51,278,140316,6,0,B|105:301|148:281|148:281|148:318|179:361,1,176.000005371094,4|8,0:1|0:0,0:0:0:0:
337,355,140897,1,2,0:0:0:0:
421,191,141091,1,0,0:0:0:0:
497,282,141284,1,2,0:0:0:0:
291,238,141478,1,8,0:0:0:0:
368,88,141671,1,2,0:0:0:0:
438,278,141865,6,0,B|473:264|496:285|496:285|515:149,1,176.000005371094,2|8,0:0|0:0,0:0:0:0:
350,215,142445,1,2,0:0:0:0:
387,33,142639,1,0,0:0:0:0:
387,33,142736,1,8,0:0:0:0:
387,33,142832,1,2,0:0:0:0:
223,202,143026,1,8,0:0:0:0:
301,114,143220,1,2,0:0:0:0:
215,36,143413,6,0,L|27:36,1,176.000005371094,2|8,0:0|0:0,0:0:0:0:
0,168,143994,1,0,0:0:0:0:
121,217,144187,2,0,P|130:165|129:123,1,88.000002685547,2|0,0:0|0:0,0:0:0:0:
233,264,144574,2,0,P|224:307|224:351,1,88.000002685547,8|0,0:0|0:0,0:0:0:0:
376,225,144961,5,2,0:0:0:0:
233,264,145155,1,2,0:0:0:0:
233,264,145252,1,2,0:0:0:0:
233,264,145349,1,8,0:0:0:0:
286,117,145542,1,2,0:0:0:0:
438,90,145736,5,2,0:0:0:0:
455,115,145832,1,0,0:0:0:0:
457,145,145929,1,2,0:0:0:0:
452,175,146026,1,0,0:0:0:0:
443,204,146123,1,8,0:0:0:0:
439,234,146220,1,0,0:0:0:0:
443,264,146316,1,2,0:0:0:0:
454,292,146413,1,0,0:0:0:0:
476,312,146510,6,0,L|371:336,1,88.000002685547,2|12,0:0|0:0,0:0:0:0:
155,360,146897,2,0,P|124:312|145:227,1,132.00000402832,4|0,0:0|0:0,0:0:0:0:
180,175,147284,6,0,L|282:190,1,88.000002685547,2|12,0:0|0:0,0:0:0:0:
494,25,147671,2,0,P|434:15|373:75,1,132.00000402832,4|0,0:0|0:0,0:0:0:0:
352,130,148058,6,0,L|354:235,1,88.000002685547,2|12,0:0|0:0,0:0:0:0:
238,358,148445,2,0,P|178:380|121:351,1,132.00000402832,4|0,0:0|0:0,0:0:0:0:
67,292,148832,6,0,L|76:194,1,88.000002685547,2|12,0:0|0:0,0:0:0:0:
232,35,149220,2,0,P|171:13|112:41,1,132.00000402832,4|0,0:0|0:0,0:0:0:0:
87,117,149607,6,0,L|73:219,1,88.000002685547,12|0,0:0|0:0,0:0:0:0:
196,365,149994,2,0,L|206:265,1,88.000002685547,8|0,0:0|0:0,0:0:0:0:
358,76,150381,5,8,0:0:0:0:
254,124,150574,1,0,0:0:0:0:
406,197,150768,1,8,0:0:0:0:
180,54,150961,6,0,L|173:241,1,176.000005371094,4|0,0:0|0:0,0:0:0:0:
424,116,151542,1,8,0:0:0:0:
424,116,151639,1,8,0:0:0:0:
424,116,151736,2,8,L|428:159,2,44.0000013427735
391,331,152123,5,8,0:0:0:0:
353,345,152220,1,8,0:0:0:0:
313,348,152316,1,8,0:0:0:0:
275,338,152413,1,8,0:0:0:0:
237,327,152510,1,8,0:0:0:0:
198,337,152607,1,8,0:0:0:0:
165,359,152703,6,0,P|108:282|114:196,1,176.000005371094,4|8,0:1|0:0,0:0:0:0:
197,126,153284,1,2,0:0:0:0:
302,49,153478,1,0,0:0:0:0:
281,233,153671,1,2,0:0:0:0:
308,41,153865,1,8,0:0:0:0:
271,238,154058,1,2,0:0:0:0:
316,34,154252,6,0,L|493:9,1,176.000005371094,2|8,0:0|0:0,0:0:0:0:
397,211,154832,1,2,0:0:0:0:
394,119,155026,1,0,0:0:0:0:
394,119,155123,1,8,0:0:0:0:
394,119,155220,1,2,0:0:0:0:
485,215,155413,1,8,0:0:0:0:
297,213,155607,1,2,0:0:0:0:
485,215,155800,6,0,L|473:311,1,88.000002685547,2|0,0:0|0:0,0:0:0:0:
294,384,156187,2,0,L|259:280,1,88.000002685547,8|2,0:0|0:0,0:0:0:0:
250,275,156478,1,2,0:0:0:0:
250,275,156574,2,0,L|66:266,1,176.000005371094,2|8,0:0|1:0,0:0:0:0:
155,361,157155,1,2,0:0:0:0:
250,275,157349,6,0,P|253:231|238:190,1,88.000002685547,2|2,0:0|0:0,0:0:0:0:
238,190,157639,1,2,0:0:0:0:
238,190,157736,1,8,0:0:0:0:
70,181,157929,5,2,0:0:0:0:
70,181,158026,1,2,0:0:0:0:
70,181,158123,2,0,L|54:116,1,44.0000013427735,2|0,0:0|0:0,0:0:0:0:
157,120,158316,2,0,L|155:67,1,44.0000013427735,8|0,0:0|0:0,0:0:0:0:
261,102,158510,5,8,0:0:0:0:
294,91,158607,1,8,0:0:0:0:
328,91,158703,1,8,0:0:0:0:
362,98,158800,1,8,0:0:0:0:
394,112,158897,5,2,0:0:0:0:
138,214,159091,1,12,0:0:0:0:
138,214,159284,1,4,0:0:0:0:
434,216,159671,5,2,0:0:0:0:
177,123,159865,1,12,0:0:0:0:
177,123,160058,1,4,0:0:0:0:
470,54,160445,5,2,0:0:0:0:
225,203,160639,1,12,0:0:0:0:
225,203,160832,1,4,0:0:0:0:
512,142,161220,5,2,0:0:0:0:
248,89,161413,1,12,0:0:0:0:
248,89,161607,1,8,0:0:0:0:
345,39,161800,1,8,0:0:0:0:
345,39,161897,1,8,0:0:0:0:
345,39,161994,6,8,P|386:26|439:38,1,88.000002685547,4|2,0:0|0:0,0:0:0:0:
322,239,162381,2,0,P|335:198|323:145,1,88.000002685547,8|2,0:0|0:0,0:0:0:0:
151,160,162768,2,0,P|154:203|170:244,1,88.000002685547,8|2,0:0|0:0,0:0:0:0:
134,54,163155,2,0,P|87:37|45:35,1,88.000002685547,8|2,0:0|0:0,0:0:0:0:
49,34,163445,1,8,0:0:0:0:
49,34,163542,5,8,0:0:0:0:
40,234,163736,2,0,L|38:295,2,44.0000013427735,2|2|8,0:0|0:0|0:0,0:0:0:0:
151,160,164123,1,2,0:0:0:0:
141,279,164316,5,8,0:0:0:0:
63,144,164510,1,2,0:0:0:0:
226,70,164703,1,8,0:0:0:0:
178,170,164897,1,2,0:0:0:0:
302,263,165091,6,0,L|397:211,1,88.000002685547,4|2,0:0|0:0,0:0:0:0:
178,170,165478,2,0,L|77:221,1,88.000002685547,8|2,0:0|0:0,0:0:0:0:
316,132,165865,2,0,L|428:129,1,88.000002685547,8|2,0:0|0:0,0:0:0:0:
273,369,166252,2,0,L|156:363,1,88.000002685547,8|2,0:0|0:0,0:0:0:0:
186,365,166542,1,8,0:0:0:0:
186,365,166639,5,8,0:0:0:0:
76,273,166832,1,2,0:0:0:0:
76,273,166929,1,2,0:0:0:0:
76,273,167026,1,8,0:0:0:0:
221,219,167220,1,2,0:0:0:0:
38,380,167413,5,8,0:0:0:0:
123,135,167607,1,2,0:0:0:0:
287,311,167800,1,8,0:0:0:0:
76,273,167994,1,2,0:0:0:0:
268,51,168187,5,4,0:1:0:0:
127,242,168768,1,0,0:0:0:0:
127,242,168961,2,0,L|100:328,1,80,8|0,0:0|0:0,0:0:0:0:
227,378,169349,1,8,0:0:0:0:
351,334,169542,6,0,P|379:285|350:168,2,160,8|8|8,0:0|0:0|0:0,0:0:0:0:
285,136,170510,2,0,P|312:108|349:94,1,80,8|0,0:0|0:0,0:0:0:0:
196,192,170897,2,0,P|139:164|124:142,1,80,8|0,0:0|0:0,0:0:0:0:
75,64,171284,5,2,0:0:0:0:
16,135,171478,1,8,0:0:0:0:
259,136,171671,1,0,0:0:0:0:
206,54,171865,1,8,0:0:0:0:
180,216,172058,2,0,L|161:302,1,80,2|0,0:0|0:0,0:0:0:0:
68,278,172445,1,8,0:0:0:0:
264,251,172639,6,0,P|345:248|414:299,2,160,8|8|8,0:0|0:0|0:0,0:0:0:0:
441,192,173607,2,0,P|454:136|438:86,1,80,8|0,0:0|0:0,0:0:0:0:
301,43,173994,2,0,P|303:101|315:131,1,80,8|0,0:0|0:0,0:0:0:0:
367,222,174381,5,4,0:0:0:0:
256,193,174574,1,2,0:0:0:0:
225,290,174768,1,0,0:0:0:0:
336,325,174961,1,8,0:0:0:0:
256,193,175155,2,0,L|95:173,1,160,2|8,0:0|0:0,0:0:0:0:
28,372,175736,6,0,P|86:347|117:236,2,160,8|8|8,0:0|0:0|0:0,0:0:0:0:
24,159,176703,2,0,L|14:238,1,80,2|0,0:0|0:0,0:0:0:0:
130,121,177091,2,0,L|123:34,1,80,8|0,0:0|0:0,0:0:0:0:
320,102,177478,6,0,L|237:91,1,80,4|0,0:0|0:0,0:0:0:0:
14,238,177865,2,0,L|115:220,1,80,8|0,0:0|0:0,0:0:0:0:
259,186,178252,1,2,0:0:0:0:
294,179,178349,1,0,0:0:0:0:
329,184,178445,1,2,0:0:0:0:
359,201,178542,1,0,0:0:0:0:
394,206,178639,2,0,P|419:141|412:100,1,80,8|0,0:0|0:0,0:0:0:0:
294,16,179026,6,0,L|263:114,1,80,2|0,0:0|0:0,0:0:0:0:
149,238,179413,1,8,0:0:0:0:
193,144,179607,1,2,0:0:0:0:
392,246,179800,5,2,0:0:0:0:
369,338,179994,1,0,0:0:0:0:
392,246,180187,2,0,L|422:111,1,120,8|0,0:0|0:0,0:0:0:0:
423,112,180574,6,0,L|316:118,1,80,4|0,0:1|0:0,0:0:0:0:
232,58,180961,1,8,0:0:0:0:
110,157,181155,1,2,0:0:0:0:
110,157,181252,1,0,0:0:0:0:
110,157,181349,2,0,P|87:210|80:298,2,120,2|2|2,0:0|0:0|0:0,0:0:0:0:
234,137,182123,6,0,L|231:53,1,80,2|0,0:0|0:0,0:0:0:0:
349,194,182510,2,0,L|358:278,1,80,8|0,0:0|0:0,0:0:0:0:
114,359,182897,6,0,L|123:308,1,40,2|0,0:0|0:0,0:0:0:0:
225,256,183091,2,0,L|230:295,1,40,2|0,0:0|0:0,0:0:0:0:
112,217,183284,2,0,L|121:160,1,40,8|0,0:0|0:0,0:0:0:0:
216,103,183478,2,0,L|221:142,1,40,2|0,0:0|0:0,0:0:0:0:
314,217,183671,5,2,0:0:0:0:
314,217,183865,2,0,P|359:151|337:82,2,120,2|2|2,0:0|0:0|0:0,0:0:0:0:
189,315,184639,1,0,0:0:0:0:
189,315,184736,1,2,0:0:0:0:
189,315,184832,2,0,L|61:290,1,120,8|0,0:0|0:0,0:0:0:0:
46,287,185220,5,2,0:0:0:0:
95,196,185413,1,0,0:0:0:0:
198,163,185607,1,8,0:0:0:0:
292,206,185800,1,0,0:0:0:0:
95,196,185994,5,2,0:0:0:0:
282,332,186187,1,10,0:0:0:0:
291,111,186381,1,8,0:0:0:0:
158,314,186574,6,0,B|42:319|42:319|7:283,1,160,4|2,0:0|0:0,0:0:0:0:
148,49,187155,2,0,P|206:126|195:207,1,160,8|2,0:0|0:0,0:0:0:0:
344,120,187736,1,8,0:0:0:0:
244,265,187929,1,8,0:0:0:0:
494,189,188123,6,0,B|462:257|478:356|478:356|446:338|406:338,1,240,4|8,0:0|0:0,0:0:0:0:
184,148,189091,1,2,0:0:0:0:
96,252,189284,1,8,0:0:0:0:
270,219,189478,1,8,0:0:0:0:
249,48,189671,6,0,L|75:28,1,160,4|8,0:0|0:0,0:0:0:0:
290,146,190252,2,0,P|339:116|357:84,1,80,8|2,0:0|0:0,0:0:0:0:
351,98,190542,1,2,0:0:0:0:
351,98,190639,1,0,0:0:0:0:
125,155,190832,1,8,0:0:0:0:
369,196,191026,1,8,0:0:0:0:
182,70,191220,1,4,0:0:0:0:
182,70,191607,5,2,0:0:0:0:
237,156,191800,2,0,L|210:234,1,80,8|2,0:0|0:0,0:0:0:0:
210,231,192091,1,2,0:0:0:0:
210,231,192187,5,8,0:0:0:0:
378,33,192381,1,8,0:0:0:0:
464,278,192574,1,8,0:0:0:0:
292,98,192768,1,0,0:0:0:0:
454,159,192961,1,4,0:1:0:0:
116,130,198574,5,8,0:0:0:0:
173,284,198768,2,0,P|182:221|170:191,1,80,8|0,0:0|0:0,0:0:0:0:
206,77,199155,6,0,P|270:64|382:55,1,160,2|2,0:0|0:0,0:0:0:0:
417,153,199736,1,0,0:0:0:0:
417,153,199929,2,0,P|434:210|403:275,1,120,2|2,0:0|0:0,0:0:0:0:
392,276,200316,2,0,L|294:264,1,80
136,240,200703,5,2,0:0:0:0:
296,144,201091,1,0,0:0:0:0:
316,356,201478,1,2,0:0:0:0:
244,252,201865,1,0,0:0:0:0:
244,252,202058,1,8,0:0:0:0:
447,198,202252,5,4,0:0:0:0:
447,198,202639,1,8,0:0:0:0:
409,88,202832,1,8,0:0:0:0:
235,211,203026,1,8,0:0:0:0:
328,153,203220,1,8,0:0:0:0:
328,322,203413,1,8,0:0:0:0:
275,32,203607,1,12,0:0:0:0:
275,32,203994,5,2,0:0:0:0:
175,133,204187,1,8,0:0:0:0:
175,133,204284,1,8,0:0:0:0:
175,133,204381,1,0,0:0:0:0:
37,55,204574,1,8,0:0:0:0:
13,82,204671,1,8,0:0:0:0:
9,117,204768,1,8,0:0:0:0:
21,150,204865,1,8,0:0:0:0:
39,180,204961,1,8,0:0:0:0:
35,215,205058,1,8,0:0:0:0:
23,249,205155,6,0,P|132:223|203:244,1,160,4|2,0:0|0:0,0:0:0:0:
280,377,205736,1,8,0:0:0:0:
294,287,205929,1,2,0:0:0:0:
294,287,206026,1,2,0:0:0:0:
294,287,206123,2,0,L|311:179,1,80
173,158,206510,1,8,0:0:0:0:
380,55,206703,6,0,B|333:71|280:42|280:42|244:55|214:82,1,160,2|2,0:0|0:0,0:0:0:0:
306,207,207284,1,8,0:0:0:0:
471,130,207478,1,2,0:0:0:0:
471,130,207574,1,2,0:0:0:0:
471,130,207671,2,0,P|485:70|479:37,1,80
237,160,208058,1,8,0:0:0:0:
483,310,208252,5,4,0:0:0:0:
483,310,208639,1,2,0:0:0:0:
373,259,208832,2,0,P|366:299|370:351,1,80,8|2,0:0|0:0,0:0:0:0:
419,164,209220,1,0,0:0:0:0:
263,306,209413,1,2,0:0:0:0:
276,98,209607,1,8,0:0:0:0:
194,204,209800,6,0,P|105:206|36:142,1,160,4|2,0:0|0:0,0:0:0:0:
259,19,210381,2,0,L|278:108,1,80,8|0,0:0|0:0,0:0:0:0:
212,283,210768,1,8,0:0:0:0:
212,283,210865,1,8,0:0:0:0:
212,283,210961,2,0,L|195:204,1,80,0|8,0:0|0:0,0:0:0:0:
0,326,211349,6,0,P|64:334|128:266,1,160,4|2,0:0|0:0,0:0:0:0:
187,109,211929,2,0,L|82:87,1,80,8|0,0:0|0:0,0:0:0:0:
291,247,212316,2,0,L|186:225,1,80,8|2,0:0|0:0,0:0:0:0:
278,362,212703,1,8,0:0:0:0:
360,193,212897,1,4,0:0:0:0:
465,353,213091,6,0,P|478:320|474:261,1,80,8|0,0:0|0:0,0:0:0:0:
277,169,213478,2,0,P|276:208|290:246,1,80,8|0,0:0|0:0,0:0:0:0:
440,46,213865,1,8,0:0:0:0:
396,196,214058,1,0,0:0:0:0:
325,28,214252,1,8,0:0:0:0:
479,139,214445,1,4,0:0:0:0:
244,207,214639,6,0,L|142:191,1,80,8|0,0:0|0:0,0:0:0:0:
429,223,215026,2,0,L|508:235,1,80,8|0,0:0|0:0,0:0:0:0:
342,135,215413,2,0,L|357:54,1,80,8|2,0:0|0:0,0:0:0:0:
323,296,215800,1,8,0:0:0:0:
115,149,215994,5,4,0:0:0:0:
115,149,216381,1,8,0:0:0:0:
316,193,216574,1,8,0:0:0:0:
197,42,216768,1,8,0:0:0:0:
99,287,216961,5,8,0:0:0:0:
211,268,217155,1,0,0:0:0:0:
284,145,217349,1,2,0:0:0:0:
170,159,217542,1,0,0:0:0:0:
374,351,217736,5,4,0:1:0:0:
374,351,219478,6,0,L|404:178,1,160,4|4,0:0|0:0,0:0:0:0:
127,77,220832,6,0,B|85:126|104:205|104:205|223:186|223:186|207:269,1,320,4|0,0:0|0:0,0:0:0:0:
342,113,221994,1,0,0:0:0:0:
342,113,222381,1,2,0:0:0:0:
280,224,222574,6,0,P|228:265|127:246,2,160,4|4|8,0:0|0:0|0:0,0:0:0:0:
261,29,223542,1,2,0:0:0:0:
225,32,223639,1,0,0:0:0:0:
189,35,223736,1,2,0:0:0:0:
153,40,223832,1,0,0:0:0:0:
117,46,223929,5,2,0:0:0:0:
246,127,224123,1,12,0:0:0:0:
12,188,224316,1,4,0:0:0:0:
12,188,224703,5,2,0:0:0:0:
117,46,224897,1,12,0:0:0:0:
161,306,225091,1,4,0:0:0:0:
161,306,225478,5,2,0:0:0:0:
12,188,225671,1,12,0:0:0:0:
303,242,225865,1,4,0:0:0:0:
91,244,226058,1,0,0:0:0:0:
184,101,226252,5,2,0:0:0:0:
251,334,226445,1,12,0:0:0:0:
10,277,226639,1,4,0:0:0:0:
230,185,226832,1,2,0:0:0:0:
18,83,227026,5,4,0:0:0:0:
412,327,228574,1,8,0:0:0:0:
412,327,228768,6,0,L|438:217,1,88.000002685547,4|0,0:0|0:0,0:0:0:0:
442,135,229058,6,0,L|348:170,1,88.000002685547,4|0,0:0|0:0,0:0:0:0:
267,207,229349,6,0,L|338:273,1,88.000002685547,4|8,0:0|0:0,0:0:0:0:
335,358,229639,5,8,0:0:0:0:
297,369,229736,1,8,0:0:0:0:
261,351,229832,1,8,0:0:0:0:
221,348,229929,1,8,0:0:0:0:
184,364,230026,1,8,0:0:0:0:
157,384,230123,6,0,L|165:177,1,176.000005371094,4|8,0:1|0:0,0:0:0:0:
268,268,230703,1,2,0:0:0:0:
353,57,230897,1,0,0:0:0:0:
242,167,231091,1,2,0:0:0:0:
265,12,231284,1,8,0:0:0:0:
335,155,231478,1,2,0:0:0:0:
192,79,231671,6,0,L|15:54,1,176.000005371094,2|8,0:0|0:0,0:0:0:0:
0,214,232252,1,2,0:0:0:0:
154,183,232445,1,0,0:0:0:0:
154,183,232542,1,8,0:0:0:0:
154,183,232639,1,2,0:0:0:0:
60,129,232832,1,8,0:0:0:0:
52,294,233026,1,2,0:0:0:0:
163,371,233220,6,0,P|167:327|152:283,1,88.000002685547,2|0,0:0|0:0,0:0:0:0:
254,126,233607,2,0,P|237:166|242:209,1,88.000002685547,8|2,0:0|0:0,0:0:0:0:
242,209,233897,1,2,0:0:0:0:
242,209,233994,1,0,0:0:0:0:
446,225,234187,1,0,0:0:0:0:
338,169,234381,1,8,0:0:0:0:
461,327,234574,1,2,0:0:0:0:
282,379,234768,6,0,L|300:279,1,88.000002685547,2|2,0:0|0:0,0:0:0:0:
297,292,235058,1,2,0:0:0:0:
297,292,235155,1,8,0:0:0:0:
430,170,235349,2,0,L|411:117,1,44.0000013427735,2|2,0:0|0:0,0:0:0:0:
402,35,235542,5,2,0:0:0:0:
367,27,235639,1,0,0:0:0:0:
331,30,235736,1,8,0:0:0:0:
297,41,235832,1,0,0:0:0:0:
273,67,235929,1,8,0:0:0:0:
248,92,236026,1,8,0:0:0:0:
213,100,236123,1,8,0:0:0:0:
178,105,236220,1,8,0:0:0:0:
143,97,236316,5,2,0:0:0:0:
87,277,236510,1,12,0:0:0:0:
87,277,236703,1,4,0:0:0:0:
71,157,237091,5,2,0:0:0:0:
322,109,237284,1,12,0:0:0:0:
322,109,237478,1,4,0:0:0:0:
54,56,237865,5,2,0:0:0:0:
3,242,238058,1,12,0:0:0:0:
3,242,238252,1,4,0:0:0:0:
437,164,238639,5,2,0:0:0:0:
187,211,238832,1,12,0:0:0:0:
187,211,239026,1,8,0:0:0:0:
235,114,239220,1,8,0:0:0:0:
235,114,239316,1,8,0:0:0:0:
235,114,239413,6,8,P|194:101|141:113,1,88.000002685547,4|2,0:0|0:0,0:0:0:0:
32,196,239800,2,0,L|45:102,1,88.000002685547,8|2,0:0|0:0,0:0:0:0:
262,263,240187,2,0,P|261:308|245:349,1,88.000002685547,8|2,0:0|0:0,0:0:0:0:
59,310,240574,2,0,L|148:291,1,88.000002685547,8|2,0:0|0:0,0:0:0:0:
146,292,240865,1,8,0:0:0:0:
146,292,240961,5,8,0:0:0:0:
379,332,241155,2,0,L|381:393,2,44.0000013427735,2|2|8,0:0|0:0|0:0,0:0:0:0:
377,170,241542,1,2,0:0:0:0:
311,253,241736,5,8,0:0:0:0:
376,59,241929,1,2,0:0:0:0:
442,253,242123,1,8,0:0:0:0:
276,129,242316,1,2,0:0:0:0:
484,128,242510,6,0,P|489:65|467:20,1,88.000002685547,4|2,0:0|0:0,0:0:0:0:
279,21,242897,2,0,P|241:29|198:63,1,88.000002685547,8|2,0:0|0:0,0:0:0:0:
398,126,243284,2,0,P|441:119|484:128,1,88.000002685547,8|2,0:0|0:0,0:0:0:0:
277,253,243671,2,0,P|233:256|190:247,1,88.000002685547,8|2,0:0|0:0,0:0:0:0:
190,247,243961,1,8,0:0:0:0:
190,247,244058,5,8,0:0:0:0:
120,344,244252,1,2,0:0:0:0:
120,344,244349,1,2,0:0:0:0:
120,344,244445,1,8,0:0:0:0:
236,155,244639,1,2,0:0:0:0:
35,279,244832,5,8,0:0:0:0:
348,194,245026,1,2,0:0:0:0:
242,377,245220,1,8,0:0:0:0:
135,75,245413,1,2,0:0:0:0:
189,241,245607,5,4,0:0:0:0:
231,148,245897,5,8,0:0:0:0:
277,53,246187,5,8,0:0:0:0:
407,205,246381,5,8,0:0:0:0:
320,254,246574,2,0,L|317:298,3,29.3333342285157,8|8|8|8,0:0|0:0|0:0|0:0,0:0:0:0:
366,109,246961,1,0,0:0:0:0:
504,335,247155,5,4,0:0:0:0:
470,262,247349,1,0,0:0:0:0:
482,183,247542,1,0,0:0:0:0:
480,102,247736,1,0,0:0:0:0:
433,37,247929,1,0,0:0:0:0:
210,101,248123,5,8,0:0:0:0:
398,130,248316,1,8,0:0:0:0:
250,275,248510,6,0,P|170:293|85:235,1,160,12|2,0:0|0:0,0:0:0:0:
64,119,249091,1,0,0:0:0:0:
208,83,249284,2,0,L|225:173,1,80,2|2,0:0|0:0,0:0:0:0:
281,326,249671,5,8,0:0:0:0:
281,326,249768,1,8,0:0:0:0:
281,326,249865,2,0,L|303:270,1,40,8|8,0:0|0:0,0:0:0:0:
158,321,250058,2,0,L|136:378,1,40,8|8,0:0|0:0,0:0:0:0:
222,186,250252,5,4,0:1:0:0:
