osu file format v14

[General]
AudioFilename: audio.mp3
AudioLeadIn: 0
PreviewTime: 58929
Countdown: 0
SampleSet: Soft
StackLeniency: 0.7
Mode: 0
LetterboxInBreaks: 0
WidescreenStoryboard: 1

[Editor]
DistanceSpacing: 1
BeatDivisor: 4
GridSize: 4
TimelineZoom: 2.799999

[Metadata]
Title:Himekoi
TitleUnicode:ヒメコイ
Artist:Kano
ArtistUnicode:鹿乃
Creator:Fycho
Version:Easy
Source:
Tags:secret love Hime Koi 田代智一 やしきん nowhere Zero__wind Momochikun
BeatmapID:975505
BeatmapSetID:454637

[Difficulty]
HPDrainRate:2
CircleSize:3
OverallDifficulty:2
ApproachRate:3
SliderMultiplier:1
SliderTickRate:1

[Events]
//Background and Video events
0,0,"evb04_03b.jpg",0,0
//Break Periods
2,90968,98618
2,193161,200812
//Storyboard Layer 0 (Background)
//Storyboard Layer 1 (Fail)
//Storyboard Layer 2 (Pass)
//Storyboard Layer 3 (Foreground)
//Storyboard Sound Samples

[TimingPoints]
962,387.096774193548,4,2,1,40,1,0
2510,-100,4,2,1,40,0,0
9865,-100,4,2,1,50,0,0
10252,-100,4,2,1,70,0,0
18961,-100,4,2,1,50,0,0
19542,-100,4,2,1,60,0,0
59800,-100,4,2,1,70,0,1
87671,-100,4,2,1,60,0,0
90768,-100,4,2,1,60,0,0
124832,-100,4,2,1,60,0,0
130252,-100,4,2,1,60,0,0
140316,-100,4,2,1,70,0,1
168187,-100,4,2,1,60,0,0
198574,-100,4,2,1,40,0,0
203026,-100,4,2,1,50,0,0
203413,-100,4,2,1,60,0,0
205155,-100,4,2,1,70,0,0
219478,-100,4,2,1,50,0,0
223929,-100,4,2,1,60,0,0
228768,-100,4,2,1,60,0,0
230123,-100,4,2,1,70,0,1
245607,-100,4,2,1,70,0,0
247155,-100,4,2,1,70,0,0

[Colours]
Combo1 : 214,251,0
Combo2 : 0,176,0
Combo3 : 61,121,182
Combo4 : 0,255,128

[HitObjects]
102,140,961,6,0,P|89:181|79:338,2,200,4|2|2,0:1|0:0|0:0,0:0:0:0:
410,140,4058,6,0,P|423:181|433:338,2,200,4|2|2,0:1|0:0|0:0,0:0:0:0:
250,18,6381,1,0,0:0:0:0:
188,96,6768,1,2,0:0:0:0:
256,192,7155,12,2,8703,0:0:0:0:
360,228,10252,6,0,L|391:125,1,100,4|8,0:1|0:0,0:0:0:0:
321,58,11026,2,0,L|290:161,1,100,0|8,0:0|0:0,0:0:0:0:
240,239,11800,2,0,P|149:258|69:190,1,200,2|2,0:0|0:0,0:0:0:0:
36,100,12961,1,8,0:0:0:0:
109,31,13349,6,0,P|254:23|311:24,1,200,2|2,0:0|0:0,0:0:0:0:
364,106,14510,1,8,0:0:0:0:
463,102,14897,2,0,P|487:58|490:3,2,100,2|8|2,0:0|0:0|0:0,0:0:0:0:
443,200,16058,1,8,0:0:0:0:
417,296,16445,6,0,L|308:272,1,100,4|8,0:0|0:0,0:0:0:0:
219,262,17220,2,0,P|186:310|188:349,1,100,8|8,0:0|0:0,0:0:0:0:
88,355,17994,1,12,0:0:0:0:
20,280,18381,2,0,P|28:163|79:94,1,200,8|8,0:0|0:0,0:0:0:0:
162,50,19542,6,0,L|283:37,1,100,4|8,0:0|0:0,0:0:0:0:
269,138,20316,2,0,L|258:209,1,50,0|2,0:0|0:0,0:0:0:0:
332,258,20897,2,0,P|399:257|462:185,1,150,2|8,0:0|0:0,0:0:0:0:
480,104,21865,2,0,L|470:48,2,50,8|0|8,0:0|0:0|0:0,0:0:0:0:
383,129,22639,5,2,0:0:0:0:
288,162,23026,2,0,P|263:62|287:17,1,150,8|2,0:0|0:0,0:0:0:0:
181,29,23994,2,0,L|19:36,1,150,2|8,0:0|0:0,0:0:0:0:
39,135,24961,2,0,P|52:177|44:235,1,100,8|8,0:0|0:0,0:0:0:0:
26,330,25736,5,4,0:0:0:0:
123,352,26123,2,0,P|187:366|265:330,1,150,8|2,0:0|0:0,0:0:0:0:
252,233,27091,2,0,L|412:216,1,150,4|8,0:0|0:0,0:0:0:0:
479,155,28058,2,0,L|481:50,1,100,2|8,0:0|0:0,0:0:0:0:
383,78,28832,5,4,0:0:0:0:
292,34,29220,2,0,P|226:41|142:103,1,150,8|2,0:0|0:0,0:0:0:0:
152,184,30187,2,0,L|132:332,1,150,4|8,0:0|0:0,0:0:0:0:
35,305,31155,2,0,L|44:255,2,50,0|2|8,0:0|0:0|0:0,0:0:0:0:
131,332,31929,6,0,L|252:345,1,100,4|8,0:0|0:0,0:0:0:0:
317,293,32703,2,0,L|306:222,1,50,0|2,0:0|0:0,0:0:0:0:
408,256,33284,2,0,L|416:91,1,150,2|8,0:0|0:0,0:0:0:0:
330,50,34252,2,0,L|320:106,2,50,0|2|8,0:0|0:0|0:0,0:0:0:0:
230,48,35026,5,2,0:0:0:0:
132,71,35413,2,0,P|107:171|128:222,1,150,8|2,0:0|0:0,0:0:0:0:
113,312,36381,2,0,L|262:307,1,150,2|8,0:0|0:0,0:0:0:0:
353,349,37349,2,0,P|366:306|346:252,1,100,0|8,0:0|0:0,0:0:0:0:
264,202,38123,5,4,0:0:0:0:
310,113,38510,2,0,P|386:89|460:102,1,150,8|2,0:0|0:0,0:0:0:0:
478,196,39478,2,0,L|474:306,1,100,4|2,0:0|0:0,0:0:0:0:
397,359,40252,2,0,L|357:207,1,150,4|8,0:0|0:0,0:0:0:0:
361,113,41220,6,0,P|292:130|270:165,1,100,4|8,0:0|0:0,0:0:0:0:
208,223,41994,2,0,L|55:247,2,150,0|4|8,0:0|0:0|0:0,0:0:0:0:
305,242,43542,1,10,0:0:0:0:
366,320,43929,1,10,0:0:0:0:
460,286,44316,6,0,P|475:197|464:183,1,100,4|0,0:0|0:0,0:0:0:0:
388,142,45091,1,2,0:0:0:0:
298,187,45478,1,8,0:0:0:0:
198,177,45865,2,0,L|192:75,2,100,2|0|0,0:0|0:0|0:0,0:0:0:0:
162,270,47026,1,8,0:0:0:0:
231,342,47413,6,0,L|339:317,1,100,2|0,0:0|0:0,0:0:0:0:
356,223,48187,2,0,L|258:245,1,100,2|8,0:0|0:0,0:0:0:0:
158,244,48961,1,2,0:0:0:0:
99,162,49349,1,0,0:0:0:0:
131,67,49736,2,0,L|233:42,1,100,0|8,0:0|0:0,0:0:0:0:
275,28,50316,6,0,P|298:83|284:182,1,150,4|8,0:0|0:0,0:0:0:0:
341,256,51284,2,0,L|401:277,1,50,0|8,0:0|0:0,0:0:0:0:
363,369,51865,2,0,P|246:345|196:350,1,150,4|8,0:0|0:0,0:0:0:0:
132,293,52832,2,0,L|153:226,2,50,0|8|8,0:0|0:0|0:0,0:0:0:0:
228,264,53607,6,0,L|263:152,1,100,12|8,0:0|0:0,0:0:0:0:
231,72,54381,2,0,L|342:41,1,100,8|8,0:0|0:0,0:0:0:0:
426,32,55155,1,8,0:0:0:0:
468,122,55542,2,0,P|470:171|451:217,2,100,8|8|8,0:0|0:0|0:0,0:0:0:0:
256,192,56510,12,4,58252,0:0:0:0:
92,352,59800,6,0,P|92:289|108:245,1,100,4|8,0:1|0:0,0:0:0:0:
183,194,60574,1,0,0:0:0:0:
108,127,60961,1,8,0:0:0:0:
172,50,61349,2,0,L|287:38,1,100,2|8,0:0|0:0,0:0:0:0:
335,116,62123,1,0,0:0:0:0:
429,84,62510,1,8,0:0:0:0:
457,179,62897,6,0,B|414:237|345:221|345:221|361:261|347:313,1,200,2|2,0:0|0:0,0:0:0:0:
260,333,64058,1,8,0:0:0:0:
164,302,64445,2,0,P|175:203|171:184,1,100,2|8,0:0|0:0,0:0:0:0:
183,103,65220,2,0,L|83:115,1,100,2|10,0:0|0:0,0:0:0:0:
75,214,65994,6,0,L|49:334,1,100,2|4,0:0|0:0,0:0:0:0:
150,336,66768,2,0,L|171:238,1,100,2|4,0:0|0:0,0:0:0:0:
270,239,67542,2,0,L|244:359,1,100,2|4,0:0|0:0,0:0:0:0:
348,346,68316,2,0,L|369:248,1,100,2|4,0:0|0:0,0:0:0:0:
411,157,69091,5,12,0:0:0:0:
364,68,69478,1,8,0:0:0:0:
265,50,69865,1,8,0:0:0:0:
182,105,70252,2,0,L|168:170,1,50,8|4,0:0|0:0,0:0:0:0:
77,188,70832,2,0,L|82:237,1,50,0|8,0:0|0:0,0:0:0:0:
105,337,71413,2,0,L|218:310,1,100,8|8,0:0|0:0,0:0:0:0:
301,303,72187,6,0,P|287:255|288:205,1,100,4|8,0:1|0:0,0:0:0:0:
361,137,72961,1,0,0:0:0:0:
459,154,73349,1,8,0:0:0:0:
481,251,73736,2,0,L|381:240,1,100,2|8,0:0|0:0,0:0:0:0:
287,207,74510,1,0,0:0:0:0:
243,295,74897,1,8,0:0:0:0:
147,324,75284,6,0,B|104:266|35:282|35:282|25:241|37:190,1,200,2|2,0:0|0:0,0:0:0:0:
69,116,76445,1,8,0:0:0:0:
168,108,76832,2,0,P|179:207|175:226,1,100,2|8,0:0|0:0,0:0:0:0:
231,291,77607,2,0,L|244:339,2,50,2|8|8,0:0|0:0|0:0,0:0:0:0:
293,212,78381,6,0,L|322:104,1,100,2|4,0:0|0:0,0:0:0:0:
241,51,79155,2,0,L|212:154,1,100,2|4,0:0|0:0,0:0:0:0:
124,191,79929,2,0,L|98:71,1,100,2|4,0:0|0:0,0:0:0:0:
15,141,80703,2,0,L|36:238,1,100,2|8,0:0|0:0,0:0:0:0:
13,336,81478,5,4,0:0:0:0:
110,359,81865,1,8,0:0:0:0:
208,342,82252,2,8,L|321:313,1,100
368,239,83026,2,0,P|359:169|373:125,1,100,8|8,0:0|0:0,0:0:0:0:
302,63,83800,2,0,L|201:87,1,100,8|8,0:0|0:0,0:0:0:0:
112,124,84574,6,0,P|106:190|120:236,2,100,4|8|8,0:0|0:0|0:0,0:0:0:0:
199,173,85736,1,8,0:0:0:0:
289,130,86123,2,0,B|372:105|427:130|427:130|452:193,1,200,8|8,0:0|0:0,0:0:0:0:
392,267,87284,1,8,0:0:0:0:
439,354,87671,5,4,0:0:0:0:
256,192,87865,12,0,89220,0:0:0:0:
256,192,90768,5,4,0:1:0:0:
430,123,100058,6,0,L|309:110,1,100,4|8,0:0|0:0,0:0:0:0:
247,168,100832,2,0,P|236:215|253:276,1,100,0|8,0:0|0:0,0:0:0:0:
308,343,101607,2,0,P|231:298|121:315,1,200
45,252,102768,1,8,0:0:0:0:
78,157,103155,5,2,0:0:0:0:
168,199,103542,2,0,P|217:191|262:170,1,100,8|0,0:0|0:0,0:0:0:0:
275,70,104316,1,8,0:0:0:0:
364,25,104703,2,0,L|472:37,1,100,0|8,0:0|0:0,0:0:0:0:
464,135,105478,2,0,P|450:177|474:240,1,100,0|8,0:0|0:0,0:0:0:0:
473,326,106252,5,4,0:0:0:0:
374,343,106639,2,0,P|316:315|225:318,1,150,8|2,0:0|0:0,0:0:0:0:
133,339,107607,2,0,P|98:231|157:156,1,200,4|2,0:0|0:0,0:0:0:0:
291,154,108961,1,8,0:0:0:0:
376,101,109349,5,4,0:0:0:0:
297,39,109736,1,8,0:0:0:0:
211,90,110123,2,0,L|187:258,2,150,0|4|0,0:0|0:0|0:0,0:0:0:0:
321,86,111671,2,0,L|389:77,2,50,8|2|8,0:0|0:0|0:0,0:0:0:0:
338,184,112445,6,0,L|437:173,1,100,4|8,0:0|0:0,0:0:0:0:
447,272,113220,2,0,L|386:276,1,50,0|2,0:0|0:0,0:0:0:0:
305,315,113800,2,0,P|232:293|146:296,1,150,2|8,0:0|0:0,0:0:0:0:
76,236,114768,2,0,L|67:186,2,50,0|2|8,0:0|0:0|0:0,0:0:0:0:
155,174,115542,5,2,0:0:0:0:
254,168,115929,2,0,P|270:95|243:26,1,150,8|2,0:0|0:0,0:0:0:0:
144,40,116897,2,0,L|-13:81,1,150,2|8,0:0|0:0,0:0:0:0:
34,171,117865,2,0,P|22:213|32:269,1,100,0|8,0:0|0:0,0:0:0:0:
67,360,118639,5,4,0:0:0:0:
160,324,119026,2,0,P|233:313|304:337,1,150,8|2,0:0|0:0,0:0:0:0:
399,307,119994,2,0,L|395:207,1,100,4|0,0:0|0:0,0:0:0:0:
428,112,120768,2,0,L|279:132,1,150,4|8,0:0|0:0,0:0:0:0:
179,138,121736,6,0,P|142:104|93:100,1,100,4|8,0:0|0:0,0:0:0:0:
16,162,122510,2,0,L|31:317,2,150,2|4|8,0:0|0:0|0:0,0:0:0:0:
16,62,124058,1,10,0:0:0:0:
109,97,124445,1,10,0:0:0:0:
202,62,124832,6,0,P|244:37|384:87,1,200,4|2,0:0|0:0,0:0:0:0:
287,257,126381,2,0,L|281:356,2,100,2|0|8,0:0|0:0|0:0,0:0:0:0:
383,232,127542,1,0,0:0:0:0:
326,149,127929,6,0,L|218:124,1,100,2|0,0:0|0:0,0:0:0:0:
128,123,128703,2,0,P|87:199|120:319,1,200,8|2,0:0|0:0,0:0:0:0:
197,354,129865,1,0,0:0:0:0:
295,334,130252,2,0,L|319:180,2,150,8|4|8,0:0|0:0|0:0,0:0:0:0:
202,296,131800,6,0,L|191:142,1,150,0|4,0:0|0:0,0:0:0:0:
304,48,132961,1,8,0:0:0:0:
399,79,133349,2,0,L|405:29,2,50,0|8|8,0:0|0:0|0:0,0:0:0:0:
318,137,134123,6,0,L|219:148,1,100,12|8,0:0|0:0,0:0:0:0:
118,143,134897,2,0,P|105:208|113:259,1,100,8|8,0:0|0:0,0:0:0:0:
152,330,135671,1,8,0:0:0:0:
251,343,136058,2,0,L|355:323,2,100,8|8|8,0:0|0:0|0:0,0:0:0:0:
256,192,137026,12,4,138574,0:0:0:0:
263,101,139929,5,8,0:1:0:0:
362,112,140316,6,0,P|375:159|374:209,1,100,4|8,0:1|0:0,0:0:0:0:
379,309,141091,1,0,0:0:0:0:
289,265,141478,1,8,0:0:0:0:
293,364,141865,2,0,L|178:352,1,100,2|8,0:0|0:0,0:0:0:0:
93,351,142639,1,0,0:0:0:0:
28,274,143026,1,8,0:0:0:0:
117,230,143413,6,0,B|148:220|188:236|188:236|179:165|161:101,1,200,2|2,0:0|0:0,0:0:0:0:
254,68,144574,1,8,0:0:0:0:
348,100,144961,2,0,P|361:146|359:198,1,100,2|8,0:0|0:0,0:0:0:0:
283,263,145736,2,0,P|269:215|271:165,1,100,2|8,0:0|0:0,0:0:0:0:
207,87,146510,6,0,L|152:105,2,50,2|12|4,0:0|0:0|0:0,0:0:0:0:
185,184,147284,2,0,L|130:202,2,50,2|12|4,0:0|0:0|0:0,0:0:0:0:
257,252,148058,2,0,L|312:270,2,50,2|12|4,0:0|0:0|0:0,0:0:0:0:
275,350,148832,2,0,L|330:368,2,50,2|12|4,0:0|0:0|0:0,0:0:0:0:
174,345,149607,5,12,0:0:0:0:
87,294,149994,1,8,0:0:0:0:
80,194,150381,1,8,0:0:0:0:
146,119,150768,2,0,L|153:60,1,50,8|4,0:0|0:0,0:0:0:0:
246,36,151349,2,0,L|255:88,1,50,0|8,0:0|0:0,0:0:0:0:
256,185,151929,2,0,L|364:173,1,100,0|8,0:0|0:0,0:0:0:0:
455,175,152703,6,0,P|468:127|467:77,1,100,4|8,0:1|0:0,0:0:0:0:
376,34,153478,1,0,0:0:0:0:
276,38,153865,1,8,0:0:0:0:
210,113,154252,2,0,L|110:123,1,100,2|8,0:0|0:0,0:0:0:0:
51,203,155026,1,0,0:0:0:0:
64,302,155413,1,8,0:0:0:0:
157,336,155800,6,0,B|208:298|269:294|269:294|278:240|245:200,1,200,2|2,0:0|0:0,0:0:0:0:
195,139,156961,1,8,0:0:0:0:
248,53,157349,2,0,P|347:64|366:60,1,100,2|8,0:0|0:0,0:0:0:0:
427,122,158123,2,0,L|443:62,2,50,2|8|8,0:0|0:0|0:0,0:0:0:0:
391,215,158897,6,0,L|408:261,2,50,2|4|4,0:0|0:0|0:0,0:0:0:0:
303,264,159671,2,0,L|320:310,2,50,2|4|4,0:0|0:0|0:0,0:0:0:0:
300,164,160445,2,0,L|277:102,2,50,2|4|4,0:0|0:0|0:0,0:0:0:0:
206,198,161220,2,0,L|183:136,2,50,2|4|4,0:0|0:0|0:0,0:0:0:0:
180,294,161994,5,4,0:0:0:0:
264,347,162381,1,8,0:0:0:0:
350,293,162768,2,0,L|448:322,1,100,8|8,0:0|0:0,0:0:0:0:
473,225,163542,2,0,L|468:111,2,100,8|8|8,0:0|0:0|0:0,0:0:0:0:
374,205,164703,1,8,0:0:0:0:
271,224,165091,6,0,L|263:336,2,100,4|8|8,0:0|0:0|0:0,0:0:0:0:
308,131,166252,1,8,0:0:0:0:
212,102,166639,2,0,B|134:126|74:102|74:102|62:130|49:165,1,200,8|8,0:0|0:0,0:0:0:0:
5,245,167800,1,8,0:0:0:0:
74,316,168187,5,4,0:1:0:0:
256,192,168381,12,2,171284,0:0:0:0:
256,192,171478,12,4,174381,0:0:0:0:
256,192,174574,12,2,177478,0:0:0:0:
256,192,177671,12,8,179026,0:0:0:0:
256,100,180574,5,4,0:1:0:0:
178,163,180961,2,0,L|61:141,1,100,8|2,0:0|0:0,0:0:0:0:
41,237,181736,2,0,L|144:257,1,100,8|2,0:0|0:0,0:0:0:0:
234,284,182510,2,0,P|325:256|319:151,1,200,8|8,0:0|0:0,0:0:0:0:
235,126,183671,5,2,0:0:0:0:
304,54,184058,2,0,L|404:39,2,100,8|2|8,0:0|0:0|0:0,0:0:0:0:
207,25,185220,1,2,0:0:0:0:
107,30,185607,1,8,0:0:0:0:
41,105,185994,2,0,P|17:167|11:251,2,150,2|4|8,0:0|0:0|0:0,0:0:0:0:
132,144,187542,6,0,L|288:136,1,150,2|4,0:0|0:0,0:0:0:0:
302,234,188510,2,0,L|291:297,1,50,0|8,0:0|0:0,0:0:0:0:
387,317,189091,2,0,L|414:163,1,150,2|4,0:0|0:0,0:0:0:0:
308,61,190252,5,8,0:0:0:0:
209,43,190639,2,0,P|121:69|88:115,1,150,2|4,0:0|0:0,0:0:0:0:
107,262,191800,1,8,0:0:0:0:
205,276,192187,2,0,L|210:334,2,50,8|8|8,0:0|0:0|0:0,0:0:0:0:
283,237,192961,5,4,0:1:0:0:
104,115,202252,6,0,L|78:223,1,100,4|8,0:0|0:0,0:0:0:0:
60,310,203026,1,8,0:0:0:0:
192,239,203607,2,0,P|283:232|337:275,1,150,12|8,0:0|0:0,0:0:0:0:
419,303,204574,2,0,L|443:148,1,150,8|4,0:0|0:0,0:0:0:0:
322,63,205736,6,0,L|317:178,1,100,8|2,0:0|0:0,0:0:0:0:
257,243,206510,2,0,L|252:312,1,50,8|2,0:0|0:0,0:0:0:0:
131,205,207284,2,0,L|31:200,1,100,8|2,0:0|0:0,0:0:0:0:
115,76,208252,6,0,P|262:57|275:60,1,150,4|8,0:0|0:0,0:0:0:0:
325,133,209220,2,0,L|285:292,2,150,2|4|8,0:0|0:0|0:0,0:0:0:0:
267,51,210768,1,8,0:0:0:0:
146,140,211349,6,0,P|128:213|176:285,1,150,4|8,0:0|0:0,0:0:0:0:
253,233,212316,1,8,0:0:0:0:
344,272,212703,1,8,0:0:0:0:
429,220,213091,2,0,P|444:126|437:100,1,100,8|8,0:0|0:0,0:0:0:0:
369,55,213865,2,0,L|304:66,2,50,8|0|8,0:0|0:0|0:0,0:0:0:0:
256,192,214445,12,4,217736,0:0:0:0:
121,34,219284,6,0,L|109:90,1,50,2|4,0:0|0:0,0:0:0:0:
79,178,219865,2,0,P|74:267|76:332,1,150,4|0,0:0|0:0,0:0:0:0:
173,350,220832,6,0,P|245:318|280:202,1,200,4|0,0:0|0:0,0:0:0:0:
295,109,221994,1,0,0:0:0:0:
347,23,222381,2,0,L|465:46,2,100,2|2|0,0:0|0:0|0:0,0:0:0:0:
163,103,223929,5,2,0:0:0:0:
88,170,224316,1,4,0:0:0:0:
124,263,224703,2,0,P|121:335|98:375,2,100,2|4|2,0:0|0:0|0:0,0:0:0:0:
205,205,225865,2,0,L|318:191,1,100,4|2,0:0|0:0,0:0:0:0:
400,221,226639,1,4,0:0:0:0:
463,143,227026,6,0,B|447:100|409:75|409:75|305:97|305:97|255:73,1,250,4|0,0:0|0:0,0:0:0:0:
206,160,228381,2,0,B|162:208|162:208|97:206|56:154|56:154|10:219,1,250,2|4,0:0|0:0,0:0:0:0:
39,302,229736,1,8,0:0:0:0:
131,339,230123,6,0,P|178:352|228:351,1,100,4|8,0:1|0:0,0:0:0:0:
326,329,230897,1,0,0:0:0:0:
289,238,231284,1,8,0:0:0:0:
382,202,231671,2,0,P|411:133|408:93,1,100,2|8,0:0|0:0,0:0:0:0:
353,27,232445,1,0,0:0:0:0:
259,61,232832,1,8,0:0:0:0:
308,148,233220,6,0,B|237:166|183:123|183:123|155:146|134:188,1,200,2|0,0:0|0:0,0:0:0:0:
119,272,234381,1,8,0:0:0:0:
21,294,234768,2,0,P|34:248|32:196,1,100,2|8,0:0|0:0,0:0:0:0:
54,98,235542,2,0,P|102:112|152:110,1,100,10|8,0:0|0:0,0:0:0:0:
250,125,236316,6,0,L|305:107,2,50,2|12|4,0:0|0:0|0:0,0:0:0:0:
190,204,237091,2,0,L|135:186,2,50,2|12|4,0:0|0:0|0:0,0:0:0:0:
280,246,237865,2,0,L|335:228,2,50,2|12|4,0:0|0:0|0:0,0:0:0:0:
205,312,238639,2,0,L|150:294,2,50,2|12|8,0:0|0:0|0:0,0:0:0:0:
298,346,239413,5,4,0:0:0:0:
388,304,239800,1,8,0:0:0:0:
425,211,240187,1,8,0:0:0:0:
386,118,240574,2,0,L|280:108,2,100,8|8|8,0:0|0:0|0:0,0:0:0:0:
335,204,241736,2,0,L|235:192,1,100,8|8,0:0|0:0,0:0:0:0:
137,210,242510,6,0,P|137:262|149:308,1,100,4|8,0:0|0:0,0:0:0:0:
248,311,243284,1,8,0:0:0:0:
347,300,243671,1,8,0:0:0:0:
443,274,244058,2,0,L|433:379,2,100,8|8|8,0:0|0:0|0:0,0:0:0:0:
417,177,245220,1,8,0:0:0:0:
324,139,245607,6,0,B|319:99|335:62|335:62|274:58|200:79,1,200,4|8,0:0|0:0,0:0:0:0:
181,169,246768,1,8,0:0:0:0:
150,264,247155,2,0,P|51:253|32:257,1,100,4|0,0:0|0:0,0:0:0:0:
29,155,247929,1,2,0:0:0:0:
125,40,248510,6,0,L|186:142,1,100,12|2,0:0|0:0,0:0:0:0:
317,76,249478,2,0,L|379:168,2,100,2|8|4,0:0|0:0|0:1,0:0:0:0:
