osu file format v14

[General]
AudioFilename: audio.ogg
AudioLeadIn: 0
PreviewTime: 59064
Countdown: 0
SampleSet: Soft
StackLeniency: 0.2
Mode: 0
LetterboxInBreaks: 0
WidescreenStoryboard: 1

[Editor]
Bookmarks: 1000,10290,19580,31967,44354,50354,59838,90806
DistanceSpacing: 1
BeatDivisor: 4
GridSize: 16
TimelineZoom: 1

[Metadata]
Title:Himekoi (Cut Ver.)
TitleUnicode:ヒメコイ (Cut Ver.)
Artist:Kano
ArtistUnicode:鹿乃
Creator:Mochi-
Version:Collab Normal
Source:
Tags:japanese pop female vocal secret love Hime Koi 田代智一 やしきん midorijeon ducky- mochia kuro fuyusaki jpop pop j_pop j pop nowhere
BeatmapID:4575786
BeatmapSetID:2167438

[Difficulty]
HPDrainRate:4
CircleSize:3
OverallDifficulty:4
ApproachRate:6
SliderMultiplier:1.1
SliderTickRate:1

[Events]
//Background and Video events
0,0,"bg.jpg",0,0
//Break Periods
//Storyboard Layer 0 (Background)
//Storyboard Layer 1 (Fail)
//Storyboard Layer 2 (Pass)
//Storyboard Layer 3 (Foreground)
//Storyboard Layer 4 (Overlay)
//Storyboard Sound Samples

[TimingPoints]
1000,387.096774193549,4,2,1,50,1,0
1000,-111.111111111111,4,2,1,50,0,0
7193,-100,4,2,1,60,0,0
9516,-100,4,2,1,65,0,0
10290,-100,4,2,1,75,0,0
18419,-100,4,2,2,75,0,0
19193,-100,4,2,1,75,0,0
19580,-111.111111111111,4,2,1,65,0,0
25774,-111.111111111111,4,2,2,70,0,0
27129,-111.111111111111,4,2,1,70,0,0
28870,-111.111111111111,4,2,2,70,0,0
30225,-111.111111111111,4,2,1,70,0,0
31967,-100,4,2,1,65,0,0
38161,-100,4,2,2,70,0,0
39516,-100,4,2,1,70,0,0
40290,-100,4,2,2,70,0,0
41064,-100,4,2,1,70,0,0
42612,-100,4,2,2,70,0,0
44354,-111.111111111111,4,2,1,60,0,0
49967,-111.111111111111,4,2,2,65,0,0
50354,-100,4,2,1,70,0,0
51903,-100,4,2,2,70,0,0
53645,-100,4,2,1,75,0,0
56548,-100,4,2,2,75,0,0
59064,-100,4,2,2,60,0,0
59258,-100,4,2,2,65,0,0
59451,-100,4,2,1,70,0,0
59645,-90.9090909090909,4,2,1,75,0,0
59838,-90.9090909090909,4,2,1,80,0,0
67000,-90.9090909090909,4,2,2,80,0,0
67774,-90.9090909090909,4,2,1,80,0,0
68548,-90.9090909090909,4,2,2,80,0,0
69129,-90.9090909090909,4,2,1,80,0,0
70483,-90.9090909090909,4,2,2,80,0,0
71258,-90.9090909090909,4,2,1,80,0,0
79387,-90.9090909090909,4,2,2,80,0,0
80161,-90.9090909090909,4,2,1,80,0,0
80935,-90.9090909090909,4,2,2,80,0,0
81322,-90.9090909090909,4,2,1,80,0,0
84612,-90.9090909090909,4,2,2,80,0,0
89064,-90.9090909090909,4,2,1,80,0,0
89258,-90.9090909090909,4,2,1,65,0,0
90806,-100,4,2,1,75,0,0
98935,-100,4,2,2,75,0,0
104741,-100,4,2,2,5,0,0

[Colours]
Combo1 : 168,168,255
Combo2 : 255,155,255

[HitObjects]
0,4,1000,6,0,P|102:37|139:131,2,197.99999395752,2|2|2,0:0|0:0|0:0,0:0:0:0:
24,105,2935,1,2,0:0:0:0:
24,105,3129,2,0,L|11:223,1,98.9999969787599,2|2,0:0|0:0,0:0:0:0:
9,252,3709,1,2,0:0:0:0:
50,341,4096,6,0,P|159:320|264:320,2,197.99999395752,2|2|2,0:0|0:0|0:0,0:0:0:0:
15,306,5838,2,0,P|9:277|10:245,1,49.4999984893799,2|2,0:0|0:0,0:0:0:0:
35,216,6225,1,2,0:0:0:0:
179,248,6806,1,2,0:0:0:0:
229,150,7193,2,0,B|266:132|266:132|310:21|458:67|472:115|472:115|441:120|374:186|374:186|414:261|411:350|305:380,1,660,2|8,0:0|0:3,0:0:0:0:
261,347,9709,2,0,P|203:339|132:337,1,110,10|6,0:0|0:3,0:0:0:0:
114,377,10290,5,6,1:2:0:0:
33,301,10677,1,10,1:2:0:0:
96,211,11064,2,0,L|84:120,2,55,2|2|8,1:2|0:0|1:2,0:0:0:0:
152,206,11645,1,2,0:0:0:0:
152,206,11838,2,0,L|272:223,1,110,0|10,1:2|1:2,0:0:0:0:
338,307,12612,1,2,1:2:0:0:
338,307,12806,2,0,L|327:388,2,55,2|10|2,0:0|1:2|0:0,0:0:0:0:
394,294,13387,5,2,1:2:0:0:
462,207,13774,1,10,1:2:0:0:
397,118,14161,1,2,1:2:0:0:
291,150,14548,1,10,1:2:0:0:
291,259,14935,2,0,L|357:274,2,55,2|2|10,1:2|0:0|1:2,0:0:0:0:
250,295,15516,1,2,0:0:0:0:
250,295,15709,1,2,1:2:0:0:
161,360,16096,2,0,L|98:344,1,55,2|10,1:2|0:0,0:0:0:0:
53,358,16483,6,0,P|43:327|37:241,1,110,6|10,1:2|1:2,0:0:0:0:
27,140,17258,2,0,P|62:129|99:126,1,55,2|10,1:2|0:0,0:0:0:0:
129,151,17645,2,0,P|163:149|207:136,1,55,10|6,1:2|0:3,0:0:0:0:
229,114,18032,1,2,1:2:0:0:
296,200,18419,2,0,L|419:213,1,110,14|0,0:0|0:0,0:0:0:0:
445,173,19000,2,0,L|430:85,2,55,8|8|4,0:0|0:3|0:3,0:0:0:0:
495,194,19580,5,6,1:2:0:0:
505,292,19967,2,0,L|395:282,1,98.9999969787599,10|2,0:0|0:0,0:0:0:0:
368,314,20548,1,2,1:2:0:0:
286,370,20935,1,2,1:2:0:0:
200,320,21322,1,2,1:2:0:0:
229,228,21709,1,2,0:0:0:0:
229,228,21903,2,0,P|237:187|244:167,2,49.4999984893799,2|2|10,0:0|1:2|0:0,0:0:0:0:
132,250,22677,5,2,1:2:0:0:
70,172,23064,2,0,P|53:115|38:60,1,98.9999969787599,10|2,0:0|0:0,0:0:0:0:
33,31,23645,1,2,1:2:0:0:
127,59,24032,2,0,P|175:49|237:32,1,98.9999969787599,2|2,1:2|1:2,0:0:0:0:
268,16,24612,1,10,0:0:0:0:
268,16,24806,1,2,0:0:0:0:
215,155,25387,2,0,L|218:212,1,49.4999984893799,10|2,0:0|0:0,0:0:0:0:
219,254,25774,6,0,P|268:251|316:239,1,98.9999969787599,6|10,1:2|0:0,0:0:0:0:
356,211,26354,2,0,L|363:157,1,49.4999984893799,2|0,0:0|0:0,0:0:0:0:
383,117,26741,1,2,1:2:0:0:
460,178,27129,2,0,P|485:244|490:327,1,148.49999546814,6|8,1:2|0:0,0:0:0:0:
482,370,27903,1,2,0:0:0:0:
342,320,28483,2,0,L|286:331,1,49.4999984893799,10|0,0:0|0:0,0:0:0:0:
257,363,28870,6,0,P|207:361|158:353,1,98.9999969787599,6|10,1:2|0:0,0:0:0:0:
88,292,29645,1,2,0:0:0:0:
88,292,29838,1,2,1:2:0:0:
171,238,30225,2,0,P|219:245|269:248,1,98.9999969787599,6|2,1:2|1:2,0:0:0:0:
308,217,30806,2,0,L|302:153,1,49.4999984893799,10|2,0:0|0:0,0:0:0:0:
266,133,31193,2,0,L|269:69,2,49.4999984893799,2|2|10,0:0|1:2|0:0,0:0:0:0:
156,125,31967,5,6,1:2:0:0:
92,35,32354,2,0,P|61:66|42:138,1,110,10|2,0:0|0:0,0:0:0:0:
33,182,32935,1,2,1:2:0:0:
3,287,33322,1,2,1:2:0:0:
87,357,33709,1,2,1:2:0:0:
180,299,34096,1,2,0:0:0:0:
180,299,34290,2,0,L|235:315,2,55,2|2|10,0:0|1:2|0:0,0:0:0:0:
169,189,35064,5,2,1:2:0:0:
123,88,35451,2,0,P|130:59|158:24,1,55,10|2,0:0|0:0,0:0:0:0:
193,11,35838,1,2,0:0:0:0:
193,11,36032,1,2,1:2:0:0:
285,70,36419,2,0,P|343:62|415:55,1,110,2|2,1:2|1:2,0:0:0:0:
449,40,37000,1,10,0:0:0:0:
449,40,37193,2,0,L|437:172,1,110,2|2,0:0|1:2,0:0:0:0:
453,202,37774,1,10,0:0:0:0:
352,246,38161,6,0,L|296:255,1,55,6|2,1:2|0:0,0:0:0:0:
254,219,38548,2,0,L|245:148,2,55,10|2|2,0:0|0:0|0:0,0:0:0:0:
208,250,39129,1,2,1:2:0:0:
245,354,39516,2,0,P|322:366|425:355,1,165,6|8,1:2|0:0,0:0:0:0:
459,337,40290,1,6,1:2:0:0:
375,195,40870,2,0,L|311:200,1,55,10|6,0:0|0:3,0:0:0:0:
281,160,41258,6,0,L|282:104,2,55,6|2|10,1:2|0:0|0:0,0:0:0:0:
226,255,42032,2,0,L|219:319,1,55,2|2,0:0|1:2,0:0:0:0:
192,359,42419,1,10,0:0:0:0:
192,359,42612,2,0,P|139:361|80:341,1,110,6|0,1:2|1:2,0:0:0:0:
43,307,43193,1,10,0:0:0:0:
97,211,43580,1,10,1:2:0:0:
28,124,43967,1,10,1:2:0:0:
84,42,44354,6,0,P|157:32|231:36,1,148.49999546814,6|2,1:2|0:0,0:0:0:0:
278,53,45129,1,2,1:2:0:0:
427,28,45710,1,2,0:0:0:0:
427,28,45903,2,0,P|442:77|438:137,1,98.9999969787599,2|2,1:2|1:2,0:0:0:0:
417,167,46483,1,2,0:0:0:0:
476,253,46870,1,2,0:0:0:0:
476,253,47064,1,10,1:2:0:0:
444,346,47451,6,0,L|345:354,1,98.9999969787599,2|0,1:2|1:2,0:0:0:0:
305,335,48032,1,2,0:0:0:0:
305,335,48225,1,2,1:2:0:0:
163,366,48806,1,2,0:0:0:0:
163,366,49000,2,0,P|139:319|148:255,1,98.9999969787599,2|2,1:2|1:2,0:0:0:0:
162,229,49580,1,2,0:0:0:0:
84,167,49967,2,0,L|93:107,1,49.4999984893799,14|14,0:0|0:0,0:0:0:0:
104,64,50354,6,0,P|161:70|208:47,1,110,6|2,1:2|1:2,0:0:0:0:
255,20,50935,2,0,L|261:87,1,55,10|2,0:0|0:0,0:0:0:0:
300,111,51322,2,0,L|299:176,2,55,2|0|8,1:2|1:2|0:0,0:0:0:0:
347,83,51903,1,6,1:2:0:0:
454,61,52290,2,0,L|456:-10,2,55,2|10|2,1:2|0:0|0:0,0:0:0:0:
448,115,52870,2,0,L|465:236,1,110,2|8,1:2|0:0,0:0:0:0:
439,275,53451,1,2,0:0:0:0:
439,275,53645,6,0,L|447:334,2,55,6|2|10,1:2|0:0|0:0,0:0:0:0:
387,257,54225,1,2,0:0:0:0:
324,347,54612,1,2,1:2:0:0:
219,311,55000,2,0,P|157:314|103:326,1,110,2|2,1:2|0:0,0:0:0:0:
62,351,55580,2,0,P|53:303|69:179,1,165,10|2,0:0|1:2,0:0:0:0:
106,151,56354,1,10,0:0:0:0:
106,151,56548,6,0,P|169:145|231:129,1,110,6|2,1:2|1:2,0:0:0:0:
265,114,57129,1,10,0:0:0:0:
365,158,57516,2,0,P|413:159|440:152,1,55,10|2,0:0|1:2,0:0:0:0:
463,124,57903,2,0,L|466:62,1,55,10|2,0:0|1:2,0:0:0:0:
472,14,58290,1,10,1:2:0:0:
365,40,58677,1,10,1:2:0:0:
473,231,59451,1,10,0:1:0:0:
434,345,59838,6,0,P|379:347|311:330,1,121.000003692627,6|8,1:2|1:2,0:0:0:0:
260,351,60419,1,2,0:0:0:0:
260,351,60612,2,0,P|228:351|186:345,1,60.5000018463135,2|2,1:2|0:0,0:0:0:0:
142,369,61000,1,10,1:2:0:0:
39,304,61387,2,0,P|29:246|49:178,1,121.000003692627,2|8,1:2|1:2,0:0:0:0:
73,135,61967,1,2,0:0:0:0:
73,135,62161,2,0,P|112:145|141:145,1,60.5000018463135,2|2,1:2|0:0,0:0:0:0:
192,139,62548,2,0,L|189:64,1,60.5000018463135,10|2,1:2|0:0,0:0:0:0:
187,17,62935,5,2,1:2:0:0:
300,60,63322,1,10,1:2:0:0:
285,186,63709,1,2,1:2:0:0:
167,211,64096,1,10,1:2:0:0:
145,330,64483,2,0,P|211:348|285:351,1,121.000003692627,2|10,1:2|1:2,0:0:0:0:
319,363,65064,1,2,0:0:0:0:
319,363,65258,2,0,P|330:314|325:236,1,121.000003692627,2|10,1:2|1:2,0:0:0:0:
447,254,66032,6,0,L|454:187,1,60.5000018463135,2|14,1:2|0:0,0:0:0:0:
459,132,66419,1,14,0:0:0:0:
476,19,66806,1,2,1:2:0:0:
476,19,67000,1,14,0:0:0:0:
476,19,67193,1,14,0:0:0:0:
361,58,67580,2,0,P|331:68|301:68,1,60.5000018463135,2|14,1:2|0:0,0:0:0:0:
245,46,67967,1,14,0:0:0:0:
287,170,68354,1,2,1:2:0:0:
287,170,68548,1,14,0:0:0:0:
287,170,68741,1,14,0:0:0:0:
202,257,69129,6,0,L|211:328,2,60.5000018463135,14|0|10,0:0|0:0|0:0,0:0:0:0:
142,269,69709,2,0,P|111:270|83:262,1,60.5000018463135,0|10,0:0|0:0,0:0:0:0:
26,274,70096,2,0,P|12:246|16:209,1,60.5000018463135,2|10,1:2|0:0,0:0:0:0:
18,157,70483,2,0,L|164:140,1,121.000003692627,6|2,1:2|1:2,0:0:0:0:
190,174,71064,1,10,0:0:0:0:
304,135,71451,2,0,L|319:58,1,60.5000018463135,6|10,0:3|0:0,0:0:0:0:
344,22,71838,2,0,L|407:40,1,60.5000018463135,10|10,0:0|0:0,0:0:0:0:
458,61,72225,6,0,L|476:202,1,121.000003692627,6|8,1:2|1:2,0:0:0:0:
466,244,72806,1,2,0:0:0:0:
466,244,72999,2,0,L|473:308,1,60.5000018463135,2|2,1:2|0:0,0:0:0:0:
479,364,73387,1,10,1:2:0:0:
358,373,73774,2,0,P|302:372|231:359,1,121.000003692627,2|8,1:2|1:2,0:0:0:0:
217,309,74354,1,2,0:0:0:0:
217,309,74548,2,0,L|205:237,1,60.5000018463135,2|2,1:2|0:0,0:0:0:0:
230,193,74935,2,0,L|241:132,1,60.5000018463135,10|2,1:2|0:0,0:0:0:0:
227,74,75322,5,2,1:2:0:0:
126,16,75709,1,10,1:2:0:0:
31,91,76096,1,2,1:2:0:0:
80,195,76483,1,10,1:2:0:0:
200,194,76870,2,0,L|322:186,1,121.000003692627,2|10,1:2|1:2,0:0:0:0:
370,152,77451,1,2,0:0:0:0:
370,152,77645,2,0,P|381:96|370:24,1,121.000003692627,2|10,1:2|1:2,0:0:0:0:
480,90,78419,6,0,L|488:158,1,60.5000018463135,2|14,1:2|0:0,0:0:0:0:
494,211,78806,1,14,0:0:0:0:
407,295,79193,1,2,1:2:0:0:
407,295,79387,1,14,0:0:0:0:
407,295,79580,1,14,0:0:0:0:
296,249,79967,2,0,L|237:260,1,60.5000018463135,2|14,1:2|0:0,0:0:0:0:
188,296,80354,1,14,0:0:0:0:
77,351,80741,1,2,1:2:0:0:
77,351,80935,1,14,0:0:0:0:
77,351,81128,1,14,0:0:0:0:
18,246,81516,6,0,L|0:179,2,60.5000018463135,14|2|10,1:2|0:0|0:0,0:0:0:0:
80,235,82096,1,0,0:0:0:0:
80,235,82290,2,0,P|110:234|143:238,1,60.5000018463135,10|2,0:0|1:2,0:0:0:0:
195,213,82677,2,0,P|196:183|192:150,1,60.5000018463135,10|0,0:0|1:2,0:0:0:0:
164,98,83064,1,10,1:2:0:0:
249,16,83451,1,10,0:0:0:0:
366,51,83838,2,0,L|429:40,1,60.5000018463135,8|2,0:0|1:2,0:0:0:0:
485,27,84225,1,10,0:0:0:0:
458,145,84612,6,0,L|469:216,2,60.5000018463135,14|2|10,1:2|0:0|0:0,0:0:0:0:
395,150,85192,1,0,0:0:0:0:
395,150,85386,2,0,L|332:153,1,60.5000018463135,10|2,0:0|1:2,0:0:0:0:
275,164,85774,2,0,P|267:187|268:240,1,60.5000018463135,10|0,0:0|1:2,0:0:0:0:
292,277,86160,1,10,1:2:0:0:
197,352,86547,1,10,0:0:0:0:
96,287,86935,2,0,P|91:215|108:146,1,121.000003692627,10|10,0:0|0:0,0:0:0:0:
160,63,87709,6,0,P|214:67|264:50,2,90.7500027694703,14|2|2,1:2|1:2|1:2,0:0:0:0:
109,32,88483,1,2,1:2:0:0:
8,98,88870,1,10,0:0:0:0:
60,208,89258,1,10,1:2:0:0:
60,208,90806,5,6,1:2:0:0:
152,149,91193,1,10,1:2:0:0:
243,212,91580,2,0,L|232:282,2,55,2|2|8,1:2|0:0|1:2,0:0:0:0:
274,166,92161,1,2,0:0:0:0:
274,166,92354,2,0,P|264:99|264:44,1,110,0|10,1:2|1:2,0:0:0:0:
366,26,93128,1,2,1:2:0:0:
366,26,93322,2,0,P|400:20|438:21,2,55,2|10|2,0:0|1:2|0:0,0:0:0:0:
378,81,93903,5,2,1:2:0:0:
451,164,94290,1,10,1:2:0:0:
394,258,94677,1,2,1:2:0:0:
294,214,95064,1,10,1:2:0:0:
220,295,95451,2,0,L|224:371,2,55,2|2|10,1:2|0:0|1:2,0:0:0:0:
172,280,96032,1,2,0:0:0:0:
172,280,96225,1,2,1:2:0:0:
185,170,96612,2,0,L|183:99,1,55,2|10,1:2|0:0,0:0:0:0:
139,81,96999,6,0,L|135:10,2,55,6|2|10,1:2|0:0|1:2,0:0:0:0:
47,142,97774,2,0,P|44:168|49:204,1,55,2|10,1:2|0:0,0:0:0:0:
91,229,98161,2,0,P|96:265|89:297,1,55,10|6,1:2|0:3,0:0:0:0:
63,329,98548,1,2,1:2:0:0:
165,368,98935,5,14,0:0:0:0:
321,315,99516,2,0,P|376:301|489:259,1,165,10|0,0:0|0:0,0:0:0:0:
256,192,100193,12,0,104741,0:0:0:0:
