osu file format v14

[General]
AudioFilename: audio.mp3
AudioLeadIn: 0
PreviewTime: 59064
Countdown: 1
SampleSet: Soft
StackLeniency: 0.4
Mode: 0
LetterboxInBreaks: 0
WidescreenStoryboard: 1

[Editor]
Bookmarks: 35838,64096
DistanceSpacing: 1
BeatDivisor: 4
GridSize: 8
TimelineZoom: 1

[Metadata]
Title:Himekoi
TitleUnicode:ヒメコイ
Artist:Kano
ArtistUnicode:鹿乃
Creator:- Matha -
Version:Normal
Source:
Tags:secret love Hime Koi 田代智一 やしきん Matha
BeatmapID:1463295
BeatmapSetID:691227

[Difficulty]
HPDrainRate:4
CircleSize:3.5
OverallDifficulty:5
ApproachRate:5
SliderMultiplier:0.9
SliderTickRate:1

[Events]
//Background and Video events
0,0,"BG.jpg",0,0
//Break Periods
//Storyboard Layer 0 (Background)
//Storyboard Layer 1 (Fail)
//Storyboard Layer 2 (Pass)
//Storyboard Layer 3 (Foreground)
//Storyboard Sound Samples

[TimingPoints]
1000,387.096774193548,4,2,1,30,1,0
10290,-100,4,2,1,60,0,0
59838,-100,4,2,1,60,0,1
81516,-100,4,2,1,60,0,0

[Colours]
Combo1 : 255,128,64
Combo2 : 255,0,128
Combo3 : 0,128,0
Combo4 : 128,128,0

[HitObjects]
79,69,999,6,0,P|124:86|186:72,1,90,2|2,0:0|0:0,0:0:0:0:
243,37,1774,2,0,L|244:146,1,90,2|2,0:0|0:0,0:0:0:0:
305,192,2548,2,0,P|370:204|400:268,2,135
292,298,4096,6,0,P|244:301|194:335,1,90,2|2,0:0|0:0,0:0:0:0:
128,362,4870,2,0,P|86:364|48:332,1,90,2|2,0:0|0:0,0:0:0:0:
80,250,5645,2,0,L|96:58,1,180,2|0,0:0|0:0,0:0:0:0:
179,39,6806,1,2,0:0:0:0:
256,192,7193,12,8,9516,0:0:0:0:
378,89,10290,6,0,L|270:72,1,90,6|8,0:0|0:0,0:0:0:0:
214,125,11064,2,0,P|173:139|125:124,1,90,2|8,0:0|0:0,0:0:0:0:
68,60,11838,1,2,0:0:0:0:
149,21,12225,1,8,0:0:0:0:
238,21,12612,1,2,0:0:0:0:
311,72,12999,1,8,0:0:0:0:
332,159,13387,6,0,L|314:264,1,90,2|8,0:0|0:0,0:0:0:0:
355,329,14161,2,0,P|399:344|460:332,1,90,2|8,0:0|0:0,0:0:0:0:
477,257,14935,2,0,L|480:191,1,45,2|0,0:0|0:0,0:0:0:0:
461,170,15322,2,0,L|463:105,1,45,8|0,0:0|0:0,0:0:0:0:
483,85,15709,2,0,P|459:39|417:24,1,90,2|8,0:0|0:0,0:0:0:0:
345,65,16483,6,0,L|250:68,1,90,6|8,0:0|0:0,0:0:0:0:
180,118,17258,2,0,L|91:122,1,90,2|12,0:0|0:0,0:0:0:0:
45,129,17838,1,4,0:3:0:0:
45,129,18032,1,12,0:0:0:0:
43,218,18419,2,0,P|108:305|188:299,1,180,12|0,0:0|0:0,0:0:0:0:
134,223,19580,5,12,0:0:0:0:
211,177,19967,2,0,L|317:178,1,90,8|2,0:0|0:0,0:0:0:0:
389,163,20741,1,8,0:0:0:0:
389,163,20935,2,0,P|407:117|404:58,1,90,2|2,0:0|0:0,0:0:0:0:
332,28,21709,1,0,0:0:0:0:
332,28,21903,2,0,L|238:23,1,90,0|8,0:0|0:0,0:0:0:0:
176,85,22677,1,2,0:0:0:0:
256,126,23064,6,0,P|300:112|367:121,1,90,8|2,0:0|0:0,0:0:0:0:
385,129,23645,1,2,0:0:0:0:
464,86,24032,2,0,L|459:194,1,90,2|0,0:0|0:0,0:0:0:0:
431,210,24612,1,8,0:0:0:0:
431,210,24806,2,0,L|423:352,1,135,0|8,0:0|0:0,0:0:0:0:
335,324,25774,6,0,L|242:320,1,90,4|8,0:0|0:0,0:0:0:0:
207,344,26354,1,0,0:0:0:0:
207,344,26548,2,0,L|118:339,1,90,0|8,0:0|0:0,0:0:0:0:
76,319,27129,2,0,P|62:261|106:196,1,135,4|8,0:0|0:0,0:0:0:0:
144,195,27903,2,0,P|188:204|276:173,1,135,0|8,0:0|0:0,0:0:0:0:
332,242,28870,6,0,L|450:246,1,90,12|8,0:0|0:0,0:0:0:0:
465,233,29451,1,0,0:0:0:0:
465,233,29645,2,0,P|480:185|479:142,1,90,8|8,0:0|0:0,0:0:0:0:
450,111,30225,1,4,0:0:0:0:
366,89,30612,2,0,L|299:88,1,45,2|8,0:0|0:0,0:0:0:0:
280,107,30999,1,2,0:0:0:0:
235,110,31193,2,0,L|168:108,2,45,0|2|8,0:0|0:0|0:0,0:0:0:0:
258,196,31967,6,0,L|258:308,1,90,4|8,0:0|0:0,0:0:0:0:
201,357,32741,2,0,P|148:376|89:364,1,90,0|8,0:0|0:0,0:0:0:0:
89,336,33322,2,0,L|89:240,1,90,2|2,0:0|0:0,0:0:0:0:
133,166,34096,1,0,0:0:0:0:
133,166,34290,2,0,L|135:73,1,90,0|8,0:0|0:0,0:0:0:0:
79,5,35064,1,2,0:0:0:0:
168,5,35451,6,0,L|287:16,1,90,8|0,0:0|0:0,0:0:0:0:
318,79,36225,1,8,0:0:0:0:
318,79,36419,2,0,P|329:127|317:171,1,90,2|0,0:0|0:0,0:0:0:0:
302,207,36999,2,0,L|195:198,1,90,8|0,0:0|0:0,0:0:0:0:
128,233,37774,2,0,L|59:225,1,45,8|8,0:0|0:0,0:0:0:0:
44,241,38161,6,0,L|-26:235,2,45,4|0|8,0:0|0:0|0:0,0:0:0:0:
126,277,38935,2,0,L|228:281,1,90,0|8,0:0|0:0,0:0:0:0:
259,270,39516,2,0,P|276:220|269:179,1,90,6|0,0:0|0:0,0:0:0:0:
208,118,40290,2,0,L|110:111,1,90,2|0,0:0|0:0,0:0:0:0:
73,108,40870,1,8,0:0:0:0:
119,30,41258,6,0,P|165:16|219:27,1,90,2|8,0:0|0:0,0:0:0:0:
278,74,42032,2,0,P|328:89|381:63,1,90,2|8,0:0|0:0,0:0:0:0:
402,56,42612,2,0,L|406:165,1,90,4|0,0:0|0:0,0:0:0:0:
400,192,43193,1,8,0:0:0:0:
320,176,43580,1,4,0:3:0:0:
304,264,43967,1,4,0:3:0:0:
392,280,44354,6,0,P|398:329|380:374,1,90,6|2,0:0|0:0,0:0:0:0:
296,352,45129,2,0,P|250:340|204:350,1,90,2|8,0:0|0:0,0:0:0:0:
120,344,45903,2,0,L|124:282,1,45,2|0,0:0|0:0,0:0:0:0:
154,267,46290,2,0,L|159:194,1,45,2|0,0:0|0:0,0:0:0:0:
182,184,46677,1,2,0:0:0:0:
118,119,47064,1,8,0:0:0:0:
100,30,47451,6,0,P|143:20|207:54,1,90,2|2,0:0|0:0,0:0:0:0:
239,105,48225,2,0,P|282:112|341:88,1,90,2|8,0:0|0:0,0:0:0:0:
368,19,48999,2,0,L|418:27,1,45,2|0,0:0|0:0,0:0:0:0:
445,57,49387,2,0,L|496:71,1,45,2|2,0:0|0:0,0:0:0:0:
473,157,49967,2,0,L|469:217,1,45,8|8,0:0|0:0,0:0:0:0:
485,247,50354,6,0,L|474:358,1,90,4|0,0:0|0:0,0:0:0:0:
449,372,50935,2,0,L|388:361,1,45,8|2,0:0|0:0,0:0:0:0:
361,351,51322,1,2,0:0:0:0:
250,273,51903,6,0,P|239:221|257:160,1,90,6|0,0:0|0:0,0:0:0:0:
281,159,52483,2,0,L|281:98,2,45,8|0|2,0:0|0:0|0:0,0:0:0:0:
317,185,53064,2,0,L|392:181,1,45,8|8,0:0|0:0,0:0:0:0:
444,219,53645,6,0,P|451:163|434:128,1,90,4|8,0:0|0:0,0:0:0:0:
382,62,54419,2,0,L|274:57,1,90,8|8,0:0|0:0,0:0:0:0:
254,82,54999,1,0,0:0:0:0:
254,82,55193,2,0,L|149:75,1,90,8|8,0:0|0:0,0:0:0:0:
80,107,55967,2,0,P|69:162|94:216,1,90,8|8,0:0|0:0,0:0:0:0:
110,225,56548,1,4,0:0:0:0:
192,188,56935,6,0,P|197:166|195:134,2,45,2|8|2,0:0|0:0|0:0,0:0:0:0:
209,229,57516,2,0,P|211:262|221:291,1,45,8|2,0:0|0:0,0:0:0:0:
250,300,57903,2,0,L|313:299,1,45,8|8,0:0|0:3,0:0:0:0:
340,299,58290,1,4,0:3:0:0:
392,226,58677,1,4,0:3:0:0:
216,33,59838,6,0,L|111:33,1,90,4|8,0:0|0:0,0:0:0:0:
86,113,60612,2,0,L|91:180,1,45,2|0,0:0|0:0,0:0:0:0:
118,192,60999,2,0,L|114:236,1,45,8|0,0:0|0:0,0:0:0:0:
78,265,61387,2,0,L|79:372,1,90,2|8,0:0|0:0,0:0:0:0:
123,354,61967,1,0,0:0:0:0:
164,337,62161,2,0,L|228:338,1,45,2|0,0:0|0:0,0:0:0:0:
248,360,62548,1,8,0:0:0:0:
327,332,62935,6,0,P|340:284|321:224,1,90,2|8,0:0|0:0,0:0:0:0:
269,181,63709,2,0,P|256:133|276:73,1,90,2|8,0:0|0:0,0:0:0:0:
341,49,64483,1,2,0:0:0:0:
345,93,64677,2,0,P|346:118|332:145,1,45,0|8,0:0|0:0,0:0:0:0:
363,173,65064,1,0,0:0:0:0:
387,210,65258,2,0,L|370:309,1,90,8|8,0:0|0:0,0:0:0:0:
246,349,66225,5,12,0:0:0:0:
246,349,66419,2,0,P|263:286|233:217,1,135,12|0,0:0|0:0,0:0:0:0:
195,208,67193,1,8,0:0:0:0:
156,337,67774,5,12,0:0:0:0:
156,337,67967,2,0,P|64:316|71:266,1,135,12|0,0:0|0:0,0:0:0:0:
83,254,68741,1,8,0:0:0:0:
98,165,69129,6,0,P|106:113|93:63,1,90,8|8,0:0|0:0,0:0:0:0:
47,3,69903,2,0,P|92:-8|146:4,1,90,8|8,0:0|0:0,0:0:0:0:
166,30,70483,2,0,P|219:40|261:24,1,90,4|2,0:0|0:0,0:0:0:0:
288,2,71064,1,8,0:0:0:0:
355,61,71451,1,8,0:0:0:0:
357,150,71838,1,8,0:0:0:0:
296,216,72225,6,0,P|334:243|393:248,1,90,12|8,0:0|0:0,0:0:0:0:
385,339,72999,2,0,L|321:340,1,45,2|0,0:0|0:0,0:0:0:0:
301,315,73387,2,0,L|235:313,1,45,8|0,0:0|0:0,0:0:0:0:
219,339,73774,2,0,L|110:337,1,90,2|8,0:0|0:0,0:0:0:0:
87,257,74548,6,0,L|81:203,1,45,2|0,0:0|0:0,0:0:0:0:
110,177,74935,2,0,L|116:123,1,45,8|0,0:0|0:0,0:0:0:0:
88,95,75322,2,0,L|91:0,1,90,2|8,0:0|0:0,0:0:0:0:
179,18,76096,2,0,P|232:4|284:18,1,90,2|8,0:0|0:0,0:0:0:0:
331,75,76870,1,2,0:0:0:0:
296,104,77064,2,0,P|268:104|253:96,1,45,0|8,0:0|0:0,0:0:0:0:
211,113,77451,1,0,0:0:0:0:
169,130,77645,2,0,L|65:119,1,90,8|8,0:0|0:0,0:0:0:0:
52,252,78612,5,12,0:0:0:0:
52,252,78806,2,0,P|114:264|206:224,1,135,12|0,0:0|0:0,0:0:0:0:
215,213,79580,1,8,0:0:0:0:
301,316,80161,5,12,0:0:0:0:
301,316,80354,2,0,P|360:295|419:329,1,135,12|0,0:0|0:0,0:0:0:0:
439,369,81129,1,8,0:0:0:0:
487,288,81516,6,0,P|497:242|484:191,1,90,2|8,0:0|0:0,0:0:0:0:
456,169,82096,1,2,0:0:0:0:
415,148,82290,2,0,L|347:137,1,45,8|2,0:0|0:0,0:0:0:0:
329,159,82677,2,0,L|264:150,1,45,8|2,0:0|0:0,0:0:0:0:
246,129,83064,2,0,L|138:114,2,90,8|8|8,0:0|0:0|0:0,0:0:0:0:
301,58,84225,1,8,0:0:0:0:
371,113,84612,6,0,P|421:104|466:112,1,90,8|8,0:0|0:0,0:0:0:0:
493,139,85193,1,2,0:0:0:0:
503,179,85387,2,0,L|517:246,1,45,8|2,0:0|0:0,0:0:0:0:
488,261,85774,2,0,L|476:310,1,45,8|2,0:0|0:0,0:0:0:0:
453,342,86161,2,0,L|346:360,2,90,8|8|8,0:0|0:0|0:0,0:0:0:0:
391,276,87322,1,10,0:0:0:0:
354,193,87709,6,0,L|276:190,2,67.5,10|4|2,0:0|0:3|0:0,0:0:0:0:
396,177,88483,1,0,0:0:0:0:
255,64,89258,5,8,0:0:0:0:
256,192,89451,12,0,90806,0:0:0:0:
