osu file format v14

[General]
AudioFilename: audio.mp3
AudioLeadIn: 0
PreviewTime: 59064
Countdown: 1
SampleSet: Soft
StackLeniency: 0.5
Mode: 0
LetterboxInBreaks: 0
WidescreenStoryboard: 0

[Editor]
Bookmarks: 76483
DistanceSpacing: 2.1
BeatDivisor: 4
GridSize: 16
TimelineZoom: 1

[Metadata]
Title:Himekoi
TitleUnicode:ヒメコイ
Artist:Kano
ArtistUnicode:鹿乃
Creator:- Matha -
Version:Insane
Source:
Tags:secret love Hime Koi 田代智一 やしきん Matha
BeatmapID:1462812
BeatmapSetID:691227

[Difficulty]
HPDrainRate:6
CircleSize:4
OverallDifficulty:8
ApproachRate:9
SliderMultiplier:1.8
SliderTickRate:1

[Events]
//Background and Video events
0,0,"BG.jpg",0,0
//Break Periods
//Storyboard Layer 0 (Background)
//Storyboard Layer 1 (Fail)
//Storyboard Layer 2 (Pass)
//Storyboard Layer 3 (Foreground)
//Storyboard Sound Samples

[TimingPoints]
1000,387.096774193548,4,2,1,30,1,0
1774,-142.857142857143,4,2,1,30,0,0
9709,-90.909090909091,4,2,1,60,0,0
18322,-90.909090909091,4,2,1,5,0,0
18419,-90.909090909091,4,2,1,60,0,0
44354,-125,4,2,1,60,0,0
50354,-100,4,2,1,60,0,0
53645,-90.9090909090909,4,2,1,60,0,0
59451,-76.9230769230769,4,2,1,60,0,0
59838,-90.9090909090909,4,2,1,60,0,1
81516,-90.9090909090909,4,2,1,60,0,0
87709,-125,4,2,1,60,0,0

[Colours]
Combo1 : 255,128,64
Combo2 : 255,0,128
Combo3 : 0,128,0
Combo4 : 128,128,0

[HitObjects]
80,92,999,5,2,0:0:0:0:
80,92,1193,1,0,0:0:0:0:
150,169,1387,1,2,0:0:0:0:
150,169,1580,1,0,0:0:0:0:
76,246,1774,2,0,P|72:282|85:319,1,62.9999980773926,2|0,0:0|0:0,0:0:0:0:
170,350,2161,2,0,L|249:337,1,62.9999980773926,2|0,0:0|0:0,0:0:0:0:
333,313,2548,2,0,P|392:354|349:223,1,377.999988464356,2|0,0:0|0:0,0:0:0:0:
292,167,4096,5,2,0:0:0:0:
292,167,4290,1,0,0:0:0:0:
214,249,4483,1,2,0:0:0:0:
214,249,4677,1,0,0:0:0:0:
166,142,4870,2,0,P|161:106|169:73,1,62.9999980773926,2|0,0:0|0:0,0:0:0:0:
245,24,5258,2,0,L|312:18,1,62.9999980773926,2|0,0:0|0:0,0:0:0:0:
394,70,5645,2,0,P|419:158|321:103,1,251.999992309571,2|0,0:0|0:0,0:0:0:0:
217,112,6806,1,2,0:0:0:0:
256,192,7193,1,2,0:0:0:0:
256,192,7387,12,4,9516,0:3:0:0:
402,309,9709,5,8,0:0:0:0:
404,259,9805,1,8,0:0:0:0:
406,210,9902,1,8,0:0:0:0:
409,160,9999,1,8,0:0:0:0:
411,111,10096,2,8,L|414:61,1,49.5000015106202,8|4,0:3|0:3,0:0:0:0:
304,190,10290,6,0,P|253:204|196:180,1,99.0000030212403,6|0,0:0|0:0,0:0:0:0:
103,30,10677,2,0,L|88:139,1,99.0000030212403,8|0,0:0|0:0,0:0:0:0:
104,264,11064,1,2,0:0:0:0:
231,333,11258,1,0,0:0:0:0:
202,197,11451,1,8,0:0:0:0:
134,358,11645,1,0,0:0:0:0:
300,254,11838,6,0,L|420:250,1,99.0000030212403,2|0,0:0|0:0,0:0:0:0:
489,139,12225,2,0,L|390:142,1,99.0000030212403,8|0,0:0|0:0,0:0:0:0:
323,67,12612,1,2,0:0:0:0:
323,67,12709,1,8,0:0:0:0:
323,67,12806,1,0,0:0:0:0:
300,254,12999,1,8,0:0:0:0:
226,143,13193,1,0,0:0:0:0:
264,334,13387,6,0,L|155:326,1,99.0000030212403,2|0,0:0|0:0,0:0:0:0:
81,232,13774,2,0,B|68:182|68:182|86:123,1,99.0000030212403,8|0,0:0|0:0,0:0:0:0:
227,48,14161,2,0,B|240:93|240:93|227:143,1,99.0000030212403,2|0,0:0|0:0,0:0:0:0:
72,239,14548,2,0,B|59:189|59:189|77:130,1,99.0000030212403,8|0,0:0|0:0,0:0:0:0:
240,37,14935,5,2,0:0:0:0:
155,192,15129,1,0,0:0:0:0:
82,55,15322,1,8,0:0:0:0:
236,137,15516,1,0,0:0:0:0:
140,279,15709,1,2,0:0:0:0:
167,88,15903,2,0,L|162:30,2,49.5000015106202,8|8|8,0:0|0:0|0:0,0:0:0:0:
304,236,16290,1,8,0:0:0:0:
304,236,16387,1,10,0:0:0:0:
304,236,16483,6,0,L|427:242,1,99.0000030212403,6|0,0:0|0:0,0:0:0:0:
314,364,16870,1,8,0:0:0:0:
466,287,17064,1,0,0:0:0:0:
369,163,17258,1,2,0:0:0:0:
228,294,17451,1,8,0:0:0:0:
179,300,17547,1,8,0:0:0:0:
132,286,17644,1,12,0:0:0:0:
95,253,17741,1,8,0:0:0:0:
76,208,17838,2,0,P|75:177|81:143,1,49.5000015106202,6|4,0:3|0:3,0:0:0:0:
229,132,18032,6,0,P|238:189|154:186,1,148.50000453186,12|0,0:0|0:0,0:0:0:0:
178,44,18419,2,0,B|244:43|244:43|296:67|296:67|381:68,1,198.000006042481,12|0,0:0|0:0,0:0:0:0:
452,139,18999,1,8,0:0:0:0:
452,139,19096,1,8,0:0:0:0:
452,139,19193,2,0,L|447:197,1,49.5000015106202,2|2,0:0|0:0,0:0:0:0:
349,287,19387,1,8,0:3:0:0:
349,287,19483,1,8,0:3:0:0:
349,287,19580,6,0,L|226:292,1,99.0000030212403,12|0,0:0|0:0,0:0:0:0:
161,193,19967,2,0,P|152:138|169:81,1,99.0000030212403,8|0,0:0|0:0,0:0:0:0:
337,174,20354,1,2,0:0:0:0:
262,28,20548,2,0,L|361:26,1,99.0000030212403,8|0,0:0|0:0,0:0:0:0:
460,125,20935,6,0,P|483:76|484:22,1,99.0000030212403,2|0,0:0|0:0,0:0:0:0:
338,174,21322,2,0,P|341:223|363:267,1,99.0000030212403,2|8,0:0|0:0,0:0:0:0:
495,334,21709,1,0,0:0:0:0:
444,211,21903,1,0,0:0:0:0:
444,211,21999,1,8,0:0:0:0:
444,211,22096,1,0,0:0:0:0:
351,350,22290,2,0,L|250:348,1,99.0000030212403,8|0,0:0|0:0,0:0:0:0:
118,197,22677,6,0,P|115:144|135:90,1,99.0000030212403,2|0,0:0|0:0,0:0:0:0:
298,58,23064,2,0,L|193:53,1,99.0000030212403,8|0,0:0|0:0,0:0:0:0:
287,222,23451,1,2,0:0:0:0:
393,130,23645,2,0,P|404:79|397:19,1,99.0000030212403,0|8,0:0|0:0,0:0:0:0:
287,222,24032,6,0,L|155:220,1,99.0000030212403,2|0,0:0|0:0,0:0:0:0:
63,137,24419,1,0,0:0:0:0:
138,312,24612,1,8,0:0:0:0:
210,131,24806,1,0,0:0:0:0:
74,243,24999,1,0,0:0:0:0:
74,243,25096,1,8,0:0:0:0:
74,243,25193,1,0,0:0:0:0:
277,206,25387,2,0,L|384:209,1,99.0000030212403,8|0,0:0|0:0,0:0:0:0:
498,100,25774,6,0,B|513:53|513:53|503:-3,2,99.0000030212403,4|0|8,0:0|0:0|0:0,0:0:0:0:
486,276,26354,1,0,0:0:0:0:
486,276,26451,1,8,0:0:0:0:
486,276,26548,1,0,0:0:0:0:
379,176,26741,1,0,0:0:0:0:
331,323,26935,1,8,0:0:0:0:
200,174,27129,6,0,P|102:161|92:56,1,198.000006042481,4|0,0:0|0:0,0:0:0:0:
253,8,27709,1,8,0:0:0:0:
299,180,27903,1,0,0:0:0:0:
164,104,28096,1,0,0:0:0:0:
164,104,28193,1,8,0:0:0:0:
164,104,28290,1,0,0:0:0:0:
390,53,28483,1,8,0:0:0:0:
390,53,28870,6,0,L|406:167,1,99.0000030212403,12|0,0:0|0:0,0:0:0:0:
328,361,29258,1,8,0:0:0:0:
460,251,29451,1,0,0:0:0:0:
460,251,29548,1,8,0:0:0:0:
460,251,29645,1,0,0:0:0:0:
299,180,29838,2,0,P|238:176|195:182,1,99.0000030212403,0|8,0:0|0:0,0:0:0:0:
63,331,30225,6,8,L|63:210,1,99.0000030212403,4|0,0:0|0:0,0:0:0:0:
174,17,30612,1,2,0:0:0:0:
59,139,30806,1,8,0:0:0:0:
229,159,30999,2,0,L|282:164,2,49.5000015106202,2|8|2,0:0|0:0|0:0,0:0:0:0:
142,97,31387,1,2,0:0:0:0:
166,275,31580,1,8,0:0:0:0:
166,275,31677,1,4,0:3:0:0:
166,275,31774,1,4,0:3:0:0:
401,209,31967,6,0,L|518:206,1,99.0000030212403,4|0,0:0|0:0,0:0:0:0:
352,384,32354,1,8,0:0:0:0:
460,296,32548,1,0,0:0:0:0:
460,296,32645,1,8,0:0:0:0:
460,296,32741,1,0,0:0:0:0:
314,247,32935,2,0,P|305:191|320:122,1,99.0000030212403,2|8,0:0|0:0,0:0:0:0:
392,12,33322,6,0,L|283:-2,1,99.0000030212403,2|0,0:0|0:0,0:0:0:0:
114,105,33709,2,0,L|212:92,1,99.0000030212403,2|8,0:0|0:0,0:0:0:0:
345,171,34096,1,0,0:0:0:0:
345,171,34193,1,8,0:0:0:0:
345,171,34290,1,0,0:0:0:0:
267,292,34483,1,0,0:0:0:0:
449,266,34677,2,0,L|455:157,1,99.0000030212403,8|0,0:0|0:0,0:0:0:0:
329,7,35064,6,0,P|278:0|220:12,1,99.0000030212403,2|0,0:0|0:0,0:0:0:0:
251,229,35451,1,8,0:0:0:0:
276,78,35645,1,0,0:0:0:0:
149,120,35838,1,0,0:0:0:0:
149,120,35935,1,8,0:0:0:0:
149,120,36032,1,0,0:0:0:0:
368,165,36225,1,8,0:0:0:0:
201,302,36419,6,0,L|87:291,1,99.0000030212403,2|0,0:0|0:0,0:0:0:0:
35,93,36806,1,0,0:0:0:0:
163,207,36999,1,8,0:0:0:0:
0,255,37193,2,0,P|-4:287|10:320,2,49.5000015106202,0|8|0,0:0|0:0|0:0,0:0:0:0:
116,121,37580,1,0,0:0:0:0:
216,304,37774,1,8,0:0:0:0:
332,184,37967,1,8,0:0:0:0:
332,184,38064,1,8,0:0:0:0:
332,184,38161,6,0,L|451:180,1,99.0000030212403,4|0,0:0|0:0,0:0:0:0:
391,382,38548,1,8,0:0:0:0:
464,264,38741,1,0,0:0:0:0:
464,264,38838,1,8,0:0:0:0:
464,264,38935,1,0,0:0:0:0:
289,313,39129,2,0,L|190:316,1,99.0000030212403,2|8,0:0|0:0,0:0:0:0:
70,189,39516,6,0,P|77:97|168:81,1,198.000006042481,6|0,0:0|0:0,0:0:0:0:
238,228,40096,1,8,0:0:0:0:
318,105,40290,2,0,B|371:103|416:55|416:55|450:86|511:98,1,198.000006042481,6|0,0:0|0:0,0:0:0:0:
426,252,40870,2,0,L|421:315,2,49.5000015106202,8|8|8,0:0|0:0|0:0,0:0:0:0:
284,350,41258,6,0,L|294:239,1,99.0000030212403,2|2,0:0|0:0,0:0:0:0:
270,60,41645,2,0,L|262:159,1,99.0000030212403,8|2,0:0|0:0,0:0:0:0:
485,72,42032,1,2,0:0:0:0:
412,160,42225,1,2,0:0:0:0:
353,63,42419,1,8,0:0:0:0:
180,103,42612,6,0,P|120:110|68:96,1,99.0000030212403,4|0,0:0|0:0,0:0:0:0:
132,23,42999,1,0,0:0:0:0:
82,179,43193,2,0,L|83:282,1,99.0000030212403,8|0,0:0|0:0,0:0:0:0:
163,357,43580,5,4,0:3:0:0:
407,283,43967,1,4,0:3:0:0:
407,283,44354,6,0,L|319:279,1,72,6|0,0:0|0:0,0:0:0:0:
256,241,44741,2,0,L|168:237,1,72,2|0,0:0|0:0,0:0:0:0:
82,259,45129,2,0,L|86:179,1,72,2|0,0:0|0:0,0:0:0:0:
113,39,45516,1,8,0:0:0:0:
214,142,45709,1,0,0:0:0:0:
214,142,45903,6,0,P|251:147|308:142,1,72,2|0,0:0|0:0,0:0:0:0:
385,33,46290,2,0,P|380:70|386:126,1,72,2|0,0:0|0:0,0:0:0:0:
425,186,46677,2,0,L|429:236,2,36,0|8|0,0:0|0:0|0:0,0:0:0:0:
285,145,47064,1,8,0:0:0:0:
285,145,47258,1,0,0:0:0:0:
179,257,47451,6,0,L|270:257,1,72,2|0,0:0|0:0,0:0:0:0:
327,302,47838,2,0,L|418:302,1,72,2|0,0:0|0:0,0:0:0:0:
486,351,48225,2,0,L|486:265,1,72,2|0,0:0|0:0,0:0:0:0:
362,190,48612,1,8,0:0:0:0:
487,125,48806,1,0,0:0:0:0:
487,125,48999,6,0,P|492:74|476:40,1,72,2|0,0:0|0:0,0:0:0:0:
397,10,49387,1,2,0:0:0:0:
336,85,49580,2,0,L|239:76,1,72,2|0,0:0|0:0,0:0:0:0:
132,184,49967,5,8,0:0:0:0:
157,278,50161,1,8,0:0:0:0:
312,360,50354,6,0,B|320:302|320:302|305:235|305:235|316:162,1,180,4|0,0:0|0:0,0:0:0:0:
309,10,50935,1,8,0:0:0:0:
426,125,51129,1,2,0:0:0:0:
249,119,51322,1,8,0:0:0:0:
419,17,51516,1,8,0:0:0:0:
419,17,51709,1,8,0:0:0:0:
249,119,51903,6,0,L|53:112,1,180,6|0,0:0|0:0,0:0:0:0:
43,242,52483,1,8,0:0:0:0:
166,350,52677,1,0,0:0:0:0:
152,193,52870,1,2,0:0:0:0:
56,355,53064,1,8,0:0:0:0:
56,355,53258,1,8,0:0:0:0:
216,254,53451,1,0,0:0:0:0:
395,363,53645,5,8,0:0:0:0:
345,210,53838,1,2,0:0:0:0:
449,240,54032,5,8,0:0:0:0:
315,117,54225,1,2,0:0:0:0:
475,102,54419,5,8,0:0:0:0:
252,181,54612,1,2,0:0:0:0:
356,12,54806,5,8,0:0:0:0:
270,268,54999,1,2,0:0:0:0:
218,33,55193,5,8,0:0:0:0:
381,188,55387,1,2,0:0:0:0:
142,149,55580,5,8,0:0:0:0:
363,107,55774,1,2,0:0:0:0:
160,299,55967,5,8,0:0:0:0:
266,153,56161,1,2,0:0:0:0:
143,54,56354,5,8,0:0:0:0:
275,281,56548,2,0,L|398:285,1,99.0000030212403,4|0,0:0|0:0,0:0:0:0:
448,163,56935,1,2,0:0:0:0:
512,350,57129,1,8,0:0:0:0:
349,205,57322,1,2,0:0:0:0:
468,45,57516,1,8,0:0:0:0:
512,260,57709,1,2,0:0:0:0:
319,72,57903,1,8,0:0:0:0:
319,72,57999,1,8,0:0:0:0:
319,72,58096,1,8,0:3:0:0:
255,327,58290,5,4,0:3:0:0:
255,327,58677,1,4,0:3:0:0:
204,230,59451,6,0,P|132:246|146:173,1,175.499991966248,10|0,0:0|0:0,0:0:0:0:
246,128,59838,6,0,P|298:124|352:139,1,99.0000030212403,4|0,0:0|0:0,0:0:0:0:
447,279,60225,2,0,P|439:230|457:180,1,99.0000030212403,8|0,0:0|0:0,0:0:0:0:
379,2,60612,1,2,0:0:0:0:
290,210,60806,1,0,0:0:0:0:
452,105,60999,1,8,0:0:0:0:
262,42,61193,1,0,0:0:0:0:
122,146,61387,6,0,L|13:141,1,99.0000030212403,2|0,0:0|0:0,0:0:0:0:
250,215,61774,2,0,P|276:161|269:95,1,99.0000030212403,8|0,0:0|0:0,0:0:0:0:
66,225,62161,1,2,0:0:0:0:
187,384,62354,1,0,0:0:0:0:
32,319,62548,1,8,0:0:0:0:
208,176,62741,1,0,0:0:0:0:
362,299,62935,6,0,B|379:249|379:249|370:186,1,99.0000030212403,2|0,0:0|0:0,0:0:0:0:
337,2,63322,2,0,B|371:41|371:41|430:65,1,99.0000030212403,8|0,0:0|0:0,0:0:0:0:
207,42,63709,2,0,B|155:52|155:52|105:91,1,99.0000030212403,2|0,0:0|0:0,0:0:0:0:
198,272,64096,2,0,B|215:222|215:222|206:159,1,99.0000030212403,8|0,0:0|0:0,0:0:0:0:
132,338,64483,5,2,0:0:0:0:
295,176,64677,1,0,0:0:0:0:
295,176,64774,1,2,0:0:0:0:
295,176,64870,1,8,0:0:0:0:
367,366,65064,1,0,0:0:0:0:
497,209,65258,2,0,L|510:89,1,99.0000030212403,8|0,0:0|0:0,0:0:0:0:
428,13,65645,5,8,0:0:0:0:
404,55,65741,1,8,0:0:0:0:
360,78,65838,1,8,0:3:0:0:
312,73,65935,1,8,0:3:0:0:
274,42,66032,1,8,0:0:0:0:
182,295,66225,5,12,0:0:0:0:
274,42,66419,1,12,0:0:0:0:
408,191,66999,5,12,0:0:0:0:
125,153,67193,1,12,0:0:0:0:
358,54,67774,5,12,0:0:0:0:
300,349,67967,1,12,0:0:0:0:
429,230,68548,5,12,0:0:0:0:
254,44,68741,1,12,0:0:0:0:
106,230,68935,1,0,0:0:0:0:
106,230,69032,1,2,0:0:0:0:
106,230,69129,6,0,L|-3:223,1,99.0000030212403,8|2,0:0|0:0,0:0:0:0:
202,338,69516,2,0,P|231:286|225:234,1,99.0000030212403,8|2,0:0|0:0,0:0:0:0:
156,100,69903,1,8,0:0:0:0:
156,100,70096,2,0,L|265:93,1,99.0000030212403,2|8,0:0|0:0,0:0:0:0:
446,23,70483,5,0,0:0:0:0:
338,217,70677,1,8,0:0:0:0:
512,155,70870,1,2,0:0:0:0:
324,21,71064,1,8,0:0:0:0:
324,21,71161,1,8,0:0:0:0:
324,21,71258,1,8,0:3:0:0:
450,262,71451,5,8,0:0:0:0:
449,309,71547,1,8,0:0:0:0:
414,342,71644,1,8,0:0:0:0:
365,345,71741,1,8,0:0:0:0:
320,326,71838,1,8,0:0:0:0:
280,298,71934,1,8,0:0:0:0:
232,286,72031,1,8,0:0:0:0:
183,292,72128,1,8,0:0:0:0:
143,320,72225,6,0,P|154:270|132:206,1,99.0000030212403,12|0,0:0|0:0,0:0:0:0:
56,40,72612,2,0,P|93:74|159:87,1,99.0000030212403,8|0,0:0|0:0,0:0:0:0:
278,158,72999,1,2,0:0:0:0:
239,0,73193,1,0,0:0:0:0:
173,181,73387,1,8,0:0:0:0:
371,137,73580,1,0,0:0:0:0:
283,279,73774,6,0,L|271:386,1,99.0000030212403,2|0,0:0|0:0,0:0:0:0:
456,249,74161,2,0,L|467:150,1,99.0000030212403,8|0,0:0|0:0,0:0:0:0:
328,25,74548,1,2,0:0:0:0:
376,181,74741,1,0,0:0:0:0:
192,27,74935,1,8,0:0:0:0:
146,188,75129,1,0,0:0:0:0:
316,266,75322,6,0,B|333:314|333:314|319:362,1,99.0000030212403,2|0,0:0|0:0,0:0:0:0:
424,180,75709,2,0,B|457:141|457:141|505:129,1,99.0000030212403,8|0,0:0|0:0,0:0:0:0:
295,121,76096,2,0,B|244:111|244:111|210:75,1,99.0000030212403,2|0,0:0|0:0,0:0:0:0:
316,266,76483,2,0,B|333:314|333:314|319:362,1,99.0000030212403,10|0,0:0|0:0,0:0:0:0:
98,82,76870,5,2,0:0:0:0:
205,311,77064,1,0,0:0:0:0:
205,311,77161,1,0,0:0:0:0:
205,311,77258,1,8,0:0:0:0:
35,221,77451,1,0,0:0:0:0:
307,227,77645,2,0,L|328:330,1,99.0000030212403,8|0,0:0|0:0,0:0:0:0:
458,231,78032,5,8,0:0:0:0:
478,186,78128,1,8,0:0:0:0:
485,137,78225,1,8,0:3:0:0:
478,88,78322,1,8,0:3:0:0:
458,43,78419,1,8,0:0:0:0:
205,157,78612,5,12,0:0:0:0:
458,43,78806,1,12,0:0:0:0:
233,5,79387,5,12,0:0:0:0:
359,255,79580,1,12,0:0:0:0:
387,43,80161,5,12,0:0:0:0:
214,279,80355,1,12,0:0:0:0:
91,142,80935,5,12,0:0:0:0:
423,193,81129,1,12,0:0:0:0:
221,345,81322,1,8,0:3:0:0:
221,345,81419,1,8,0:3:0:0:
221,345,81516,6,0,L|216:233,1,99.0000030212403,12|0,0:0|0:0,0:0:0:0:
262,18,81903,1,8,0:0:0:0:
383,247,82096,1,2,0:0:0:0:
93,194,82290,5,8,0:0:0:0:
433,82,82483,1,2,0:0:0:0:
256,329,82677,5,8,0:0:0:0:
185,47,82870,1,2,0:0:0:0:
386,216,83064,6,0,L|509:217,1,99.0000030212403,8|2,0:0|0:0,0:0:0:0:
230,343,83451,2,0,L|131:342,1,99.0000030212403,8|2,0:0|0:0,0:0:0:0:
406,198,83838,2,0,L|529:199,1,99.0000030212403,8|2,0:0|0:0,0:0:0:0:
209,357,84225,2,0,L|109:357,1,99.0000030212403,8|2,0:0|0:0,0:0:0:0:
425,175,84612,6,0,P|434:126|425:78,1,99.0000030212403,8|2,0:0|0:0,0:0:0:0:
172,192,84999,1,10,0:0:0:0:
344,135,85193,1,2,0:0:0:0:
224,16,85387,5,8,0:0:0:0:
396,284,85580,1,2,0:0:0:0:
353,47,85774,5,8,0:0:0:0:
200,295,85967,1,2,0:0:0:0:
200,295,86064,1,0,0:0:0:0:
200,295,86161,6,0,L|70:279,1,99.0000030212403,8|2,0:0|0:0,0:0:0:0:
360,153,86548,2,0,L|490:137,1,99.0000030212403,8|2,0:0|0:0,0:0:0:0:
245,100,86935,2,0,P|220:148|233:198,1,99.0000030212403,8|2,0:0|0:0,0:0:0:0:
350,379,87322,2,0,P|375:331|361:280,1,99.0000030212403,8|2,0:0|0:0,0:0:0:0:
217,323,87709,6,0,L|104:309,2,108,8|4|4,0:0|0:3|0:3,0:0:0:0:
366,288,88483,1,4,0:3:0:0:
273,165,88677,1,8,0:0:0:0:
273,165,88774,1,8,0:0:0:0:
273,165,88870,1,8,0:0:0:0:
298,124,88966,1,8,0:0:0:0:
341,101,89063,1,8,0:0:0:0:
389,105,89160,1,8,0:0:0:0:
426,135,89257,5,8,0:0:0:0:
256,192,89354,12,8,90419,0:0:0:0:
256,192,90806,5,12,0:0:0:0:
