osu file format v14

[General]
AudioFilename: audio.mp3
AudioLeadIn: 0
PreviewTime: 59064
Countdown: 1
SampleSet: Soft
StackLeniency: 0.5
Mode: 0
LetterboxInBreaks: 0
WidescreenStoryboard: 1

[Editor]
Bookmarks: 35838,64096
DistanceSpacing: 1.1
BeatDivisor: 4
GridSize: 32
TimelineZoom: 1

[Metadata]
Title:Himekoi
TitleUnicode:ヒメコイ
Artist:Kano
ArtistUnicode:鹿乃
Creator:- Matha -
Version:Hard
Source:
Tags:secret love Hime Koi 田代智一 やしきん Matha
BeatmapID:1463289
BeatmapSetID:691227

[Difficulty]
HPDrainRate:5
CircleSize:3.8
OverallDifficulty:6.5
ApproachRate:7
SliderMultiplier:1.6
SliderTickRate:1

[Events]
//Background and Video events
0,0,"BG.jpg",0,0
//Break Periods
//Storyboard Layer 0 (Background)
//Storyboard Layer 1 (Fail)
//Storyboard Layer 2 (Pass)
//Storyboard Layer 3 (Foreground)
//Storyboard Sound Samples

[TimingPoints]
1000,387.096774193548,4,2,1,30,1,0
1000,-111.111111111111,4,2,1,30,0,0
10290,-100,4,2,1,60,0,0
44354,-125,4,2,1,60,0,0
50354,-100,4,2,1,60,0,0
59741,-100,4,2,1,5,0,0
59838,-100,4,2,1,60,0,1
81516,-100,4,2,1,60,0,0

[Colours]
Combo1 : 255,128,64
Combo2 : 255,0,128
Combo3 : 0,128,0
Combo4 : 128,128,0

[HitObjects]
76,365,999,6,0,P|71:315|83:278,1,80,2|0,0:0|0:0,0:0:0:0:
127,233,1387,2,0,P|132:183|121:147,1,71.9999978027344,2|0,0:0|0:0,0:0:0:0:
168,103,1774,2,0,L|259:97,1,71.9999978027344,2|0,0:0|0:0,0:0:0:0:
308,120,2161,2,0,L|395:114,1,71.9999978027344,2|0,0:0|0:0,0:0:0:0:
453,154,2548,2,2,P|468:247|431:318,1,143.999995605469,0|0,0:0|0:0,0:0:0:0:
355,220,3322,2,0,P|270:209|208:262,1,143.999995605469
319,83,4096,6,0,P|282:111|238:122,1,71.9999978027344,2|0,0:0|0:0,0:0:0:0:
198,79,4483,2,0,P|154:69|101:77,1,71.9999978027344,2|0,0:0|0:0,0:0:0:0:
71,116,4870,2,0,L|69:205,1,71.9999978027344,2|0,0:0|0:0,0:0:0:0:
104,251,5258,2,0,P|154:260|198:251,1,71.9999978027344,2|0,0:0|0:0,0:0:0:0:
275,316,5645,2,0,P|259:234|318:172,1,143.999995605469
424,240,6419,1,0,0:0:0:0:
438,96,6806,1,2,0:0:0:0:
256,192,7193,12,8,9903,0:0:0:0:
408,102,10290,6,0,L|415:196,1,80,6|0,0:0|0:0,0:0:0:0:
369,258,10677,2,0,P|325:270|278:258,1,80,8|0,0:0|0:0,0:0:0:0:
237,194,11064,1,2,0:0:0:0:
237,194,11258,1,0,0:0:0:0:
155,227,11451,1,8,0:0:0:0:
155,227,11645,1,0,0:0:0:0:
219,286,11838,6,0,P|225:336|217:365,1,80,2|0,0:0|0:0,0:0:0:0:
155,227,12225,2,0,P|147:188|154:149,1,80,8|0,0:0|0:0,0:0:0:0:
165,61,12612,2,0,L|134:26,2,40,2|0|0,0:0|0:0|0:0,0:0:0:0:
243,100,12999,1,8,0:0:0:0:
314,47,13193,1,0,0:0:0:0:
387,96,13387,6,0,L|391:186,1,80,2|0,0:0|0:0,0:0:0:0:
295,258,13774,2,0,L|291:178,1,80,8|0,0:0|0:0,0:0:0:0:
408,75,14161,2,0,L|412:165,1,80,2|0,0:0|0:0,0:0:0:0:
273,275,14548,2,0,L|269:195,1,80,8|0,0:0|0:0,0:0:0:0:
315,40,14935,5,2,0:0:0:0:
315,40,15129,1,0,0:0:0:0:
254,103,15322,1,8,0:0:0:0:
254,103,15516,1,0,0:0:0:0:
188,44,15709,1,2,0:0:0:0:
129,110,15903,2,0,P|147:124|171:132,2,40,8|8|8,0:0|0:0|0:0,0:0:0:0:
51,78,16290,1,8,0:0:0:0:
51,78,16387,1,8,0:0:0:0:
51,78,16483,6,0,P|44:22|55:-7,1,80,6|0,0:0|0:0,0:0:0:0:
82,173,16870,2,0,P|90:211|82:250,1,80,8|0,0:0|0:0,0:0:0:0:
107,335,17258,1,2,0:0:0:0:
180,286,17451,2,0,L|181:225,4,40,8|8|12|8|4,0:0|0:0|0:0|0:0|0:3,0:0:0:0:
253,334,18032,6,0,L|393:330,1,120,12|0,0:0|0:0,0:0:0:0:
403,361,18419,2,0,P|389:293|457:211,1,160,12|0,0:0|0:0,0:0:0:0:
398,141,18999,2,8,L|375:99,2,40,8|0|8,0:0|0:0|0:0,0:0:0:0:
322,187,19387,1,8,0:3:0:0:
322,187,19483,1,8,0:3:0:0:
322,187,19580,2,0,L|221:187,1,80,12|0,0:0|0:0,0:0:0:0:
163,228,19967,6,0,P|153:182|176:135,1,80,8|0,0:0|0:0,0:0:0:0:
216,81,20354,2,0,P|171:109|128:116,1,80,2|0,0:0|0:0,0:0:0:0:
60,89,20741,1,8,0:0:0:0:
65,177,20935,2,0,L|67:273,1,80,2|0,0:0|0:0,0:0:0:0:
123,324,21322,2,0,P|170:333|206:329,1,80,2|8,0:0|0:0,0:0:0:0:
259,263,21709,1,0,0:0:0:0:
313,332,21903,2,0,L|305:377,2,40,0|8|0,0:0|0:0|0:0,0:0:0:0:
378,272,22290,2,0,P|390:219|382:172,1,80,8|0,0:0|0:0,0:0:0:0:
317,118,22677,6,0,L|231:111,1,80,2|0,0:0|0:0,0:0:0:0:
166,164,23064,1,8,0:0:0:0:
128,84,23258,2,0,L|117:39,2,40,0|0|2,0:0|0:0|0:0,0:0:0:0:
80,158,23645,2,0,P|71:214|77:251,1,80,0|8,0:0|0:0,0:0:0:0:
183,273,24032,2,0,P|249:246|340:280,1,160,2|0,0:0|0:0,0:0:0:0:
362,353,24612,1,8,0:0:0:0:
362,353,24806,1,0,0:0:0:0:
413,281,24999,2,0,L|418:233,2,40,0|8|0,0:0|0:0|0:0,0:0:0:0:
464,353,25387,5,8,0:0:0:0:
464,353,25580,1,0,0:0:0:0:
509,244,25774,2,0,P|519:200|508:156,1,80,4|0,0:0|0:0,0:0:0:0:
441,113,26161,1,8,0:0:0:0:
358,142,26354,2,0,L|311:133,2,40,0|8|0,0:0|0:0|0:0,0:0:0:0:
404,217,26741,1,0,0:0:0:0:
404,217,26935,1,8,0:0:0:0:
298,274,27129,6,0,L|305:364,1,80,4|0,0:0|0:0,0:0:0:0:
216,366,27516,1,0,0:0:0:0:
172,289,27709,1,8,0:0:0:0:
217,213,27903,1,2,0:0:0:0:
217,213,28096,2,0,L|281:200,2,40,0|8|0,0:0|0:0|0:0,0:0:0:0:
162,143,28483,1,8,0:0:0:0:
162,143,28870,6,0,L|75:130,1,80,12|0,0:0|0:0,0:0:0:0:
23,65,29258,1,8,0:0:0:0:
106,38,29451,2,0,L|94:-5,2,40,0|8|0,0:0|0:0|0:0,0:0:0:0:
189,66,29838,1,0,0:0:0:0:
274,44,30032,1,8,0:0:0:0:
375,95,30225,6,8,L|464:85,1,80,4|0,0:0|0:0,0:0:0:0:
493,165,30612,1,2,0:0:0:0:
430,226,30806,1,8,0:0:0:0:
430,226,30999,1,2,0:0:0:0:
468,305,31193,1,0,0:0:0:0:
387,341,31387,1,2,0:0:0:0:
349,261,31580,2,0,L|317:217,2,40,8|4|4,0:0|0:3|0:3,0:0:0:0:
230,176,31967,6,0,P|234:227|222:269,1,80,4|0,0:0|0:0,0:0:0:0:
159,310,32354,1,8,0:0:0:0:
123,229,32548,2,0,L|118:184,2,40,0|8|0,0:0|0:0|0:0,0:0:0:0:
60,291,32935,1,2,0:0:0:0:
60,291,33129,1,8,0:0:0:0:
15,192,33322,6,0,P|3:147|9:100,1,80,2|0,0:0|0:0,0:0:0:0:
93,106,33709,2,0,P|128:87|155:58,1,80,2|8,0:0|0:0,0:0:0:0:
230,12,34096,2,0,L|300:5,2,40,0|8|0,0:0|0:0|0:0,0:0:0:0:
234,100,34483,1,0,0:0:0:0:
234,100,34677,2,0,P|248:141|281:174,1,80,8|0,0:0|0:0,0:0:0:0:
382,207,35064,6,0,L|395:123,1,80,2|0,0:0|0:0,0:0:0:0:
464,74,35451,1,8,0:0:0:0:
464,74,35645,1,0,0:0:0:0:
382,40,35838,2,0,L|339:57,2,40,0|8|0,0:0|0:0|0:0,0:0:0:0:
394,127,36225,1,8,0:0:0:0:
273,146,36419,6,0,B|209:126|209:126|178:148|178:148|123:128,1,160,2|0,0:0|0:0,0:0:0:0:
111,42,36999,1,8,0:0:0:0:
46,102,37193,2,0,L|-5:86,2,40,0|8|0,0:0|0:0|0:0,0:0:0:0:
70,186,37580,1,0,0:0:0:0:
21,259,37774,1,8,0:0:0:0:
86,319,37967,1,8,0:0:0:0:
86,319,38064,1,8,0:0:0:0:
86,319,38161,6,0,L|182:331,1,80,4|0,0:0|0:0,0:0:0:0:
241,284,38548,1,8,0:0:0:0:
317,327,38741,2,0,L|327:394,2,40,0|8|0,0:0|0:0|0:0,0:0:0:0:
361,250,39129,1,2,0:0:0:0:
361,250,39322,1,8,0:0:0:0:
451,319,39516,6,0,B|476:284|476:284|463:228|493:152,1,160,6|0,0:0|0:0,0:0:0:0:
431,100,40096,1,8,0:0:0:0:
350,135,40290,2,0,B|280:159|280:159|181:103,1,160,6|0,0:0|0:0,0:0:0:0:
132,165,40870,2,0,L|71:186,2,40,8|8|4,0:0|0:0|0:3,0:0:0:0:
212,246,41258,6,0,L|301:259,1,80,2|2,0:0|0:0,0:0:0:0:
331,335,41645,1,8,0:0:0:0:
389,269,41838,2,0,L|402:228,2,40,2|0|2,0:0|0:0|0:0,0:0:0:0:
437,342,42225,1,2,0:0:0:0:
437,342,42419,1,8,0:0:0:0:
499,253,42612,6,0,P|512:210|509:157,1,80,4|0,0:0|0:0,0:0:0:0:
429,144,42999,1,0,0:0:0:0:
372,76,43193,1,8,0:0:0:0:
314,142,43387,1,0,0:0:0:0:
251,79,43580,1,4,0:3:0:0:
251,79,43967,1,4,0:3:0:0:
164,166,44354,6,0,P|141:227|171:288,1,128,6|2,0:0|0:0,0:0:0:0:
234,320,44935,1,0,0:0:0:0:
295,272,45129,2,0,P|358:263|420:307,1,128,2|8,0:0|0:0,0:0:0:0:
482,263,45709,1,0,0:0:0:0:
453,189,45903,6,0,L|460:109,2,64,2|0|2,0:0|0:0|0:0,0:0:0:0:
377,167,46483,2,0,P|341:148|297:155,1,64,0|0,0:0|0:0,0:0:0:0:
298,158,46774,1,8,0:0:0:0:
285,176,46870,1,0,0:0:0:0:
320,78,47064,2,0,P|325:44|318:10,1,64,8|0,0:0|0:0,0:0:0:0:
241,47,47451,6,0,B|196:54|196:54|150:37|150:37|95:47,1,128,2|2,0:0|0:0,0:0:0:0:
58,93,48032,1,0,0:0:0:0:
37,165,48225,2,0,P|44:201|127:244,1,128,2|8,0:0|0:0,0:0:0:0:
118,162,48806,1,0,0:0:0:0:
189,123,48999,6,0,L|271:120,2,64,2|0|2,0:0|0:0|0:0,0:0:0:0:
250,199,49580,2,0,L|342:196,1,64,2|0,0:0|0:0,0:0:0:0:
387,220,49967,1,8,0:0:0:0:
389,296,50161,1,8,0:0:0:0:
300,342,50354,6,0,P|224:328|128:366,1,160,4|0,0:0|0:0,0:0:0:0:
58,358,50935,1,8,0:0:0:0:
83,273,51129,1,2,0:0:0:0:
83,273,51322,2,0,L|82:180,1,80,8|8,0:0|0:0,0:0:0:0:
101,106,51709,1,8,0:0:0:0:
182,183,51903,6,0,P|254:196|341:140,1,160,6|0,0:0|0:0,0:0:0:0:
358,74,52483,1,8,0:0:0:0:
358,74,52677,1,0,0:0:0:0:
426,128,52870,2,0,P|436:174|428:233,1,80,2|8,0:0|0:0,0:0:0:0:
353,243,53258,2,0,P|348:295|365:345,1,80,8|0,0:0|0:0,0:0:0:0:
411,365,53645,6,0,L|319:369,1,80,4|0,0:0|0:0,0:0:0:0:
260,315,54032,2,0,L|180:318,1,80,8|2,0:0|0:0,0:0:0:0:
133,244,54419,5,8,0:0:0:0:
91,331,54612,1,2,0:0:0:0:
36,209,54806,1,8,0:0:0:0:
142,150,54999,2,0,L|234:152,1,80,2|8,0:0|0:0,0:0:0:0:
284,100,55387,1,2,0:0:0:0:
333,162,55580,6,0,P|344:216|335:255,1,80,8|0,0:0|0:0,0:0:0:0:
277,289,55967,2,0,L|177:281,1,80,8|2,0:0|0:0,0:0:0:0:
152,216,56354,1,8,0:0:0:0:
152,216,56548,2,0,P|106:200|69:202,1,80,4|0,0:0|0:0,0:0:0:0:
51,108,56935,5,2,0:0:0:0:
146,124,57129,1,8,0:0:0:0:
130,24,57322,5,2,0:0:0:0:
229,95,57516,1,8,0:0:0:0:
242,3,57709,5,2,0:0:0:0:
313,116,57903,2,0,L|336:160,2,40,8|8|8,0:0|0:0|0:3,0:0:0:0:
392,8,58290,1,4,0:3:0:0:
392,8,58677,1,4,0:3:0:0:
373,291,59451,6,0,P|320:303|266:258,1,120,10|0,0:0|0:0,0:0:0:0:
279,227,59838,6,0,P|292:183|285:134,1,80,4|0,0:0|0:0,0:0:0:0:
239,67,60225,2,0,P|284:54|331:63,1,80,8|0,0:0|0:0,0:0:0:0:
376,137,60612,1,2,0:0:0:0:
376,137,60806,1,0,0:0:0:0:
464,106,60999,1,8,0:0:0:0:
464,106,61193,1,0,0:0:0:0:
440,234,61387,6,0,P|435:285|454:331,1,80,2|0,0:0|0:0,0:0:0:0:
360,361,61774,2,0,L|267:370,1,80,8|0,0:0|0:0,0:0:0:0:
211,301,62161,1,2,0:0:0:0:
211,301,62354,1,0,0:0:0:0:
131,355,62548,1,8,0:0:0:0:
131,355,62741,1,0,0:0:0:0:
119,230,62935,6,0,B|109:187|109:187|120:129,1,80,2|0,0:0|0:0,0:0:0:0:
163,67,63322,2,0,B|130:97|130:97|75:116,1,80,8|0,0:0|0:0,0:0:0:0:
0,102,63709,2,0,B|42:114|42:114|86:153,1,80,2|0,0:0|0:0,0:0:0:0:
119,230,64096,2,0,B|109:187|109:187|120:129,1,80,8|0,0:0|0:0,0:0:0:0:
211,163,64483,5,2,0:0:0:0:
285,223,64677,1,0,0:0:0:0:
285,223,64774,1,0,0:0:0:0:
285,223,64870,1,8,0:0:0:0:
364,169,65064,1,0,0:0:0:0:
364,169,65258,2,0,P|381:116|370:71,1,80,8|0,0:0|0:0,0:0:0:0:
311,23,65645,2,0,L|255:11,2,40,8|8|8,0:0|0:0|0:3,0:0:0:0:
120,49,66225,5,12,0:0:0:0:
120,49,66419,1,12,0:0:0:0:
133,231,66999,5,12,0:0:0:0:
133,231,67193,1,12,0:0:0:0:
274,159,67774,5,12,0:0:0:0:
274,159,67967,1,12,0:0:0:0:
252,338,68548,5,12,0:0:0:0:
252,338,68741,1,12,0:0:0:0:
435,216,69129,6,0,P|450:166|436:112,1,80,8|2,0:0|0:0,0:0:0:0:
389,61,69516,2,0,L|287:56,1,80,8|2,0:0|0:0,0:0:0:0:
256,137,69903,1,8,0:0:0:0:
185,72,70096,2,0,P|165:114|176:174,1,80,2|8,0:0|0:0,0:0:0:0:
214,229,70483,2,0,L|389:230,1,160,0|2,0:0|0:0,0:0:0:0:
465,258,71064,6,0,L|517:259,2,40,8|8|8,0:0|0:0|0:3,0:0:0:0:
395,324,71451,2,0,P|358:307|308:310,1,80,8|8,0:0|0:0,0:0:0:0:
236,355,71838,2,0,P|199:372|149:369,1,80,8|8,0:0|0:0,0:0:0:0:
117,265,72225,6,0,P|128:212|120:161,1,80,12|0,0:0|0:0,0:0:0:0:
64,112,72612,2,0,P|53:59|61:8,1,80,8|0,0:0|0:0,0:0:0:0:
150,29,72999,1,2,0:0:0:0:
150,29,73193,1,0,0:0:0:0:
223,91,73387,1,8,0:0:0:0:
223,91,73580,1,0,0:0:0:0:
327,31,73774,6,0,L|419:28,1,80,2|0,0:0|0:0,0:0:0:0:
471,88,74161,2,0,P|482:140|470:186,1,80,8|0,0:0|0:0,0:0:0:0:
408,220,74548,1,2,0:0:0:0:
408,220,74741,1,0,0:0:0:0:
450,297,74935,1,8,0:0:0:0:
450,297,75129,1,0,0:0:0:0:
360,362,75322,6,0,B|319:375|319:375|270:358,1,80,2|0,0:0|0:0,0:0:0:0:
233,281,75709,2,0,B|242:238|242:238|281:205,1,80,8|0,0:0|0:0,0:0:0:0:
365,212,76096,2,0,B|396:241|396:241|406:291,1,80,2|0,0:0|0:0,0:0:0:0:
360,362,76483,2,0,B|319:375|319:375|270:358,1,80,10|0,0:0|0:0,0:0:0:0:
233,281,76870,5,2,0:0:0:0:
149,328,77064,1,0,0:0:0:0:
149,328,77161,1,0,0:0:0:0:
149,328,77258,1,8,0:0:0:0:
112,239,77451,1,0,0:0:0:0:
112,239,77645,2,0,P|119:189|112:134,1,80,8|0,0:0|0:0,0:0:0:0:
172,89,78032,2,0,P|179:65|179:38,2,40,8|8|8,0:0|0:0|0:0,0:0:0:0:
307,174,78612,5,12,0:0:0:0:
307,174,78806,1,12,0:0:0:0:
243,335,79387,5,12,0:0:0:0:
243,335,79580,1,12,0:0:0:0:
420,168,80161,5,12,0:0:0:0:
420,168,80354,1,12,0:0:0:0:
512,333,80935,5,12,0:0:0:0:
512,333,81129,1,12,0:0:0:0:
457,91,81516,6,0,P|406:68|366:68,1,80,12|0,0:0|0:0,0:0:0:0:
306,110,81903,2,0,P|266:104|231:85,1,80,8|2,0:0|0:0,0:0:0:0:
180,13,82290,1,8,0:0:0:0:
180,13,82483,1,2,0:0:0:0:
116,74,82677,1,8,0:0:0:0:
116,74,82870,1,2,0:0:0:0:
174,160,83064,6,0,P|184:211|178:265,1,80,8|2,0:0|0:0,0:0:0:0:
50,210,83451,2,0,P|40:261|46:315,1,80,8|2,0:0|0:0,0:0:0:0:
199,142,83838,2,0,P|209:193|203:247,1,80,8|2,0:0|0:0,0:0:0:0:
23,220,84225,2,0,P|13:271|19:325,1,80,8|2,0:0|0:0,0:0:0:0:
170,299,84612,6,0,L|258:303,1,80,8|2,0:0|0:0,0:0:0:0:
329,341,84999,2,0,L|408:337,1,80,8|2,0:0|0:0,0:0:0:0:
486,294,85387,1,8,0:0:0:0:
486,294,85580,1,2,0:0:0:0:
420,234,85774,1,8,0:0:0:0:
420,234,85967,1,2,0:0:0:0:
465,154,86161,6,0,P|457:106|465:61,1,80,8|2,0:0|0:0,0:0:0:0:
311,78,86548,2,0,P|319:30|311:-15,1,80,8|2,0:0|0:0,0:0:0:0:
233,95,86935,6,2,P|284:153|378:127,1,160,8|10,0:0|0:0,0:0:0:0:
444,228,87709,2,0,L|459:104,2,120,12|4|4,0:3|0:3|0:3,0:0:0:0:
310,294,88483,1,4,0:3:0:0:
479,351,88870,1,8,0:0:0:0:
479,351,89258,5,8,0:0:0:0:
256,192,89354,12,8,90419,0:0:0:0:
256,192,90806,5,12,0:0:0:0:
