osu file format v14

[General]
AudioFilename: audio.mp3
AudioLeadIn: 0
PreviewTime: 59064
Countdown: 1
SampleSet: Soft
StackLeniency: 0.4
Mode: 0
LetterboxInBreaks: 0
WidescreenStoryboard: 1

[Editor]
Bookmarks: 35838,64096
DistanceSpacing: 0.5
BeatDivisor: 2
GridSize: 16
TimelineZoom: 1

[Metadata]
Title:Himekoi
TitleUnicode:ヒメコイ
Artist:Kano
ArtistUnicode:鹿乃
Creator:- Matha -
Version:Easy
Source:
Tags:secret love Hime Koi 田代智一 やしきん Matha
BeatmapID:1463349
BeatmapSetID:691227

[Difficulty]
HPDrainRate:2
CircleSize:2.4
OverallDifficulty:3
ApproachRate:3
SliderMultiplier:0.9
SliderTickRate:1

[Events]
//Background and Video events
0,0,"BG.jpg",0,0
//Break Periods
//Storyboard Layer 0 (Background)
//Storyboard Layer 1 (Fail)
//Storyboard Layer 2 (Pass)
//Storyboard Layer 3 (Foreground)
//Storyboard Sound Samples

[TimingPoints]
1000,387.096774193548,4,2,1,30,1,0
8741,-100,4,2,1,5,0,0
10290,-100,4,2,1,60,0,0
59838,-100,4,2,1,60,0,1
81516,-100,4,2,1,60,0,0

[Colours]
Combo1 : 255,128,64
Combo2 : 255,0,128
Combo3 : 0,128,0
Combo4 : 128,128,0

[HitObjects]
60,72,999,6,0,P|213:133|185:58,1,360,2|0,0:0|0:0,0:0:0:0:
468,328,4096,2,0,B|375:351|375:351|272:322|272:322|112:362,1,360
227,215,6419,1,0,0:0:0:0:
314,235,6806,1,0,0:0:0:0:
256,192,7193,12,0,8741,0:0:0:0:
73,82,10290,6,0,P|147:56|245:102,1,180,6|2,0:0|0:0,0:0:0:0:
233,183,11451,1,8,0:0:0:0:
179,255,11838,2,0,P|201:355|340:298,1,270,2|8,0:0|0:0,0:0:0:0:
328,232,13387,2,0,B|313:185|313:185|341:107,2,90,2|8|2,0:0|0:0|0:0,0:0:0:0:
407,190,14548,1,8,0:0:0:0:
423,101,14935,2,0,P|398:52|346:31,1,90,2|8,0:0|0:0,0:0:0:0:
280,49,15709,1,2,0:0:0:0:
128,145,16483,6,0,P|121:273|243:292,1,270,6|12,0:0|0:0,0:0:0:0:
314,247,18032,1,12,0:0:0:0:
397,279,18419,1,12,0:0:0:0:
398,9,19580,6,0,P|336:98|216:56,1,225,12|0,0:0|0:0,0:0:0:0:
144,91,20935,1,2,0:0:0:0:
89,162,21322,1,2,0:0:0:0:
112,295,21903,2,0,P|148:327|215:336,1,90,0|8,0:0|0:0,0:0:0:0:
241,266,22677,6,0,P|240:199|370:146,1,225,2|0,0:0|0:0,0:0:0:0:
457,159,24032,2,0,B|460:256|460:256|381:366,1,225,2|0,0:0|0:0,0:0:0:0:
295,351,25387,1,8,0:0:0:0:
224,294,25774,6,0,L|107:279,1,90,4|8,0:0|0:0,0:0:0:0:
73,216,26548,2,0,P|66:141|97:89,1,135,0|4,0:0|0:0,0:0:0:0:
181,67,27516,1,2,0:0:0:0:
254,118,27903,2,0,P|319:149|409:130,1,135,8|8,0:0|0:0,0:0:0:0:
468,126,28870,6,0,L|470:361,1,225,12|0,0:0|0:0,0:0:0:0:
383,325,30225,1,4,0:0:0:0:
296,356,30612,2,0,P|248:367|165:327,1,135,2|0,0:0|0:0,0:0:0:0:
144,248,31580,1,8,0:0:0:0:
159,159,31967,1,4,0:0:0:0:
241,123,32354,6,0,P|293:134|369:91,1,135,8|2,0:0|0:0,0:0:0:0:
452,85,33322,2,0,P|460:154|438:210,1,90,2|2,0:0|0:0,0:0:0:0:
407,248,34096,2,0,L|238:239,1,135,0|8,0:0|0:0,0:0:0:0:
193,285,35064,1,2,0:0:0:0:
162,200,35451,6,0,P|154:136|204:70,1,135,8|0,0:0|0:0,0:0:0:0:
280,76,36419,2,0,P|356:97|439:65,1,135,2|8,0:0|0:0,0:0:0:0:
489,125,37387,1,0,0:0:0:0:
487,214,37774,1,8,0:0:0:0:
440,291,38161,2,0,L|336:289,1,90,4|8,0:0|0:0,0:0:0:0:
265,258,38935,1,0,0:0:0:0:
149,328,39516,6,0,L|147:136,1,180,6|6,0:0|0:0,0:0:0:0:
187,23,40870,1,8,0:0:0:0:
242,94,41258,2,0,P|303:111|361:93,1,90,2|8,0:0|0:0,0:0:0:0:
414,80,42032,1,2,0:0:0:0:
454,208,42612,2,0,P|382:191|295:221,1,135,4|8,0:0|0:0,0:0:0:0:
259,268,43580,1,4,0:3:0:0:
175,235,43967,1,4,0:3:0:0:
96,285,44354,6,0,P|83:245|102:170,1,90,6|2,0:0|0:0,0:0:0:0:
150,132,45129,2,0,P|175:70|170:32,1,90,2|8,0:0|0:0,0:0:0:0:
251,5,45903,1,2,0:0:0:0:
325,55,46290,1,2,0:0:0:0:
413,36,46677,2,0,P|436:87|427:146,1,90,0|8,0:0|0:0,0:0:0:0:
379,190,47451,6,0,L|286:192,1,90,2|2,0:0|0:0,0:0:0:0:
206,226,48225,2,0,L|113:228,1,90,2|8,0:0|0:0,0:0:0:0:
46,285,48999,2,0,P|87:314|150:316,1,90,2|2,0:0|0:0,0:0:0:0:
250,370,49967,1,8,0:0:0:0:
314,307,50354,6,0,P|336:248|326:172,1,135,4|8,0:0|0:0,0:0:0:0:
265,112,51322,1,8,0:0:0:0:
148,180,51903,6,0,P|74:125|119:13,1,225,6|2,0:0|0:0,0:0:0:0:
194,56,53258,1,8,0:0:0:0:
272,11,53645,6,0,P|332:6|369:17,1,90,4|8,0:0|0:0,0:0:0:0:
418,81,54419,1,8,0:0:0:0:
386,165,54806,2,0,L|383:275,1,90,8|8,0:0|0:0,0:0:0:0:
420,337,55580,1,8,0:0:0:0:
333,361,55967,1,8,0:0:0:0:
211,301,56548,5,4,0:0:0:0:
269,232,56935,2,0,P|293:149|249:75,1,135,2|8,0:0|0:0,0:0:0:0:
206,50,57903,1,8,0:0:0:0:
118,71,58290,1,4,0:3:0:0:
97,158,58677,1,4,0:3:0:0:
301,334,59838,6,0,P|332:285|336:251,1,90,4|8,0:0|0:0,0:0:0:0:
286,178,60612,1,2,0:0:0:0:
210,226,60999,1,8,0:0:0:0:
126,191,61387,2,0,P|98:145|103:85,1,90,2|8,0:0|0:0,0:0:0:0:
148,36,62161,1,2,0:0:0:0:
233,63,62548,1,8,0:0:0:0:
320,43,62935,6,0,P|366:26|429:50,2,90,2|8|2,0:0|0:0|0:0,0:0:0:0:
372,117,64096,1,8,0:0:0:0:
419,193,64483,2,0,P|425:251|411:293,1,90,2|8,0:0|0:0,0:0:0:0:
327,293,65258,2,0,P|259:290|221:305,1,90,8|8,0:0|0:0,0:0:0:0:
156,332,66032,6,0,L|146:235,1,90,8|12,0:0|0:0,0:0:0:0:
201,171,66806,2,0,P|248:172|301:151,1,90,8|12,0:0|0:0,0:0:0:0:
346,89,67580,2,0,P|399:74|455:86,1,90,8|12,0:0|0:0,0:0:0:0:
474,157,68354,2,0,L|481:271,1,90,8|12,0:0|0:0,0:0:0:0:
429,322,69129,6,0,L|284:327,1,135,8|2,0:0|0:0,0:0:0:0:
231,260,70096,1,10,0:0:0:0:
168,324,70483,2,0,P|142:262|187:181,1,135,0|8,0:0|0:0,0:0:0:0:
238,150,71451,1,8,0:0:0:0:
205,64,71838,1,8,0:0:0:0:
286,26,72225,6,0,P|356:15|408:28,1,90,12|8,0:0|0:0,0:0:0:0:
436,82,72999,1,2,0:0:0:0:
442,171,73387,1,8,0:0:0:0:
419,258,73774,2,0,L|312:252,1,90,2|8,0:0|0:0,0:0:0:0:
266,188,74548,1,2,0:0:0:0:
192,240,74935,1,8,0:0:0:0:
128,176,75322,6,0,B|115:124|115:124|127:86,2,90,2|8|2,0:0|0:0|0:0,0:0:0:0:
82,253,76483,1,10,0:0:0:0:
137,324,76870,2,0,P|192:343|239:334,1,90,2|8,0:0|0:0,0:0:0:0:
283,272,77645,2,0,P|338:253|385:262,1,90,8|8,0:0|0:0,0:0:0:0:
449,296,78419,6,0,L|469:196,1,90,8|12,0:0|0:0,0:0:0:0:
421,130,79193,2,0,P|372:99|328:94,1,90,8|12,0:0|0:0,0:0:0:0:
267,145,79967,2,0,P|223:134|187:108,1,90,8|12,0:0|0:0,0:0:0:0:
131,37,80741,2,0,P|81:55|49:98,1,90,8|12,0:0|0:0,0:0:0:0:
77,169,81516,6,0,P|87:220|71:278,1,90,12|8,0:0|0:0,0:0:0:0:
50,341,82290,1,8,0:0:0:0:
138,326,82677,1,8,0:0:0:0:
222,355,83064,2,0,B|270:364|270:364|315:356,2,90,8|8|8,0:0|0:0|0:0,0:0:0:0:
256,271,84225,1,8,0:0:0:0:
328,217,84612,6,0,P|348:169|346:108,1,90,8|8,0:0|0:0,0:0:0:0:
286,67,85387,2,0,L|184:57,1,90,8|8,0:0|0:0,0:0:0:0:
113,93,86161,2,0,L|11:83,1,90,8|8,0:0|0:0,0:0:0:0:
21,174,86935,1,8,0:0:0:0:
78,243,87322,1,10,0:0:0:0:
60,331,87709,2,0,L|281:335,1,180,8|4,0:0|0:3,0:0:0:0:
314,283,88870,1,8,0:0:0:0:
393,325,89258,1,8,0:0:0:0:
383,145,90806,5,12,0:0:0:0:
