osu file format v14

[General]
AudioFilename: audio.mp3
AudioLeadIn: 0
PreviewTime: 45957
Countdown: 0
SampleSet: Soft
StackLeniency: 0.7
Mode: 0
LetterboxInBreaks: 0
WidescreenStoryboard: 1

[Editor]
Bookmarks: 68545
DistanceSpacing: 1.1
BeatDivisor: 4
GridSize: 8
TimelineZoom: 1

[Metadata]
Title:Hikari no Michishirube (TV Size)
TitleUnicode:光の道標 (TV Size)
Artist:Kano
ArtistUnicode:鹿乃
Creator:aidanbh123
Version:Normal
Source:アズールレーン
Tags:ending ed theme azur azure lane the animation anime japanese female ed album light signpost 碧蓝航线 벽람항로 cut short illustrious unicorn warspite queen elizabeth
BeatmapID:2201086
BeatmapSetID:1049190

[Difficulty]
HPDrainRate:3
CircleSize:3
OverallDifficulty:4
ApproachRate:5
SliderMultiplier:1.4
SliderTickRate:1

[Events]
//Background and Video events
Video,0,"ed.mp4"
0,0,"azurlane2.jpg",0,0
//Break Periods
//Storyboard Layer 0 (Background)
//Storyboard Layer 1 (Fail)
//Storyboard Layer 2 (Pass)
//Storyboard Layer 3 (Foreground)
//Storyboard Layer 4 (Overlay)
//Storyboard Sound Samples

[TimingPoints]
781,705.882352941176,4,2,0,35,1,0
781,-111.111111111111,4,2,0,35,0,0
23369,-100,4,2,0,40,0,0
40310,-95.2380952380952,4,2,0,45,0,0
43486,-95.2380952380952,4,2,0,45,0,0
45957,-90.9090909090909,4,2,0,55,0,0
65722,-90.9090909090909,4,2,0,60,0,0
68545,-90.9090909090909,4,2,0,55,0,0
82663,725.075528700906,4,2,0,35,1,0
82663,-111.111111111111,4,2,0,35,0,0
84475,-111.111111111111,4,2,0,25,0,0
85563,-125,4,2,0,15,0,0

[Colours]
Combo1 : 255,166,194
Combo2 : 222,222,222
Combo3 : 164,140,255
Combo4 : 209,209,233

[HitObjects]
2,304,781,6,0,P|74:317|124:291,1,125.999996154785,2|0,0:0|0:0,0:0:0:0:
169,152,2192,2,0,P|235:128|308:153,1,125.999996154785,2|0,0:0|0:0,0:0:0:0:
381,258,3604,2,0,L|371:124,1,125.999996154785,2|0,0:0|0:0,0:0:0:0:
478,24,5016,2,0,L|487:149,1,125.999996154785
511,221,6075,1,2,0:0:0:0:
476,295,6428,6,0,B|446:306|446:306|415:301|415:301|385:314|351:312,1,125.999996154785,2|0,0:0|0:0,0:0:0:0:
208,332,7839,2,0,P|164:286|172:228,1,125.999996154785,2|0,0:0|0:0,0:0:0:0:
295,140,9251,2,0,P|235:142|168:111,1,125.999996154785,2|0,0:0|0:0,0:0:0:0:
78,0,10663,1,0,0:0:0:0:
237,19,11369,2,0,L|290:21,2,31.4999990386963,2|0|0,0:0|0:0|0:0,0:0:0:0:
169,66,12075,6,0,P|138:118|151:180,1,125.999996154785
232,193,13133,1,2,0:0:0:0:
314,197,13486,2,0,P|335:235|330:280,1,62.9999980773926,2|0,0:0|0:0,0:0:0:0:
316,284,14016,2,0,L|220:293,1,94.499997116089,0|0,0:0|0:0,0:0:0:0:
143,264,14898,6,0,P|139:217|160:174,1,94.499997116089,2|0,0:0|0:0,0:0:0:0:
198,170,15604,1,2,0:0:0:0:
192,87,15957,2,0,B|246:57|246:57|296:68|347:61,1,157.499995193482
357,94,17016,2,0,L|367:124,2,31.4999990386963,2|0|0,0:0|0:0|0:0,0:0:0:0:
283,134,17722,6,0,P|280:176|291:215,1,62.9999980773926,2|0,0:0|0:0,0:0:0:0:
297,226,18251,2,0,L|406:222,1,94.499997116089,0|2,0:0|0:0,0:0:0:0:
387,188,18957,2,0,P|407:122|488:117,1,157.499995193482,2|0,0:0|0:0,0:0:0:0:
466,254,20545,6,0,L|442:314,1,62.9999980773926,2|0,0:0|0:0,0:0:0:0:
366,335,21251,1,0,0:0:0:0:
301,288,21604,1,2,0:0:0:0:
209,33,23369,6,0,L|134:43,1,70,2|0,3:2|0:0,0:0:0:0:
106,53,23898,2,0,P|86:100|102:155,1,105,0|0,3:0|0:0,0:0:0:0:
132,159,24604,2,0,P|152:206|136:261,1,105,0|2,3:0|0:0,0:0:0:0:
0,318,25839,1,0,3:0:0:0:
73,358,26192,6,0,L|172:363,1,70,2|0,3:2|0:0,0:0:0:0:
161,323,26722,2,0,P|212:315|259:336,1,105,0|0,3:0|0:0,0:0:0:0:
290,365,27428,2,0,P|341:372|388:351,1,105,0|2,3:0|0:0,0:0:0:0:
432,240,28663,1,0,3:0:0:0:
510,211,29016,6,0,P|515:169|503:135,1,70,2|0,3:2|0:0,0:0:0:0:
468,140,29545,2,0,P|448:92|476:46,1,105,0|0,3:0|0:0,0:0:0:0:
506,33,30251,2,0,L|401:47,1,105,0|2,3:0|0:0,0:0:0:0:
351,123,31133,1,0,3:0:0:0:
269,106,31486,1,0,3:0:0:0:
254,23,31839,6,0,P|212:18|181:30,1,70,2|0,3:2|0:0,0:0:0:0:
157,101,32545,2,0,P|115:106|84:94,1,70,0|0,3:0|0:0,0:0:0:0:
53,19,33251,1,0,3:0:0:0:
8,91,33604,2,0,L|-2:141,1,35,2|0,3:2|0:0,0:0:0:0:
25,155,33957,2,0,L|32:228,1,70,0|2,3:0|0:0,0:0:0:0:
0,312,34663,6,0,L|81:320,1,70,2|0,3:2|0:0,0:0:0:0:
103,309,35192,2,0,P|134:262|124:212,1,105,0|0,3:0|0:0,0:0:0:0:
100,192,35898,2,0,P|93:141|123:99,1,105,0|2,3:0|0:0,0:0:0:0:
264,140,37133,1,0,3:0:0:0:
221,208,37486,6,0,L|230:291,1,70,2|0,3:2|0:0,0:0:0:0:
246,308,38016,2,0,P|304:326|360:307,1,105,0|0,3:0|0:0,0:0:0:0:
358,283,38722,2,0,P|416:265|472:284,1,105,0|2,3:0|0:0,0:0:0:0:
428,131,39957,1,0,3:0:0:0:
369,190,40310,6,0,P|325:206|276:201,1,73.4999977569581,6|0,3:2|0:0,0:0:0:0:
265,189,40839,2,0,P|203:187|164:234,1,110.249996635437,2|2,3:2|0:0,0:0:0:0:
176,258,41545,2,0,L|61:245,1,110.249996635437,2|0,2:2|0:0,0:0:0:0:
26,324,42428,2,0,L|111:334,1,73.4999977569581,0|0,3:0|0:0,0:0:0:0:
142,341,42957,1,2,3:2:0:0:
205,237,43486,5,0,1:0:0:0:
219,324,43839,1,0,1:0:0:0:
303,349,44192,1,0,1:0:0:0:
359,281,44545,1,0,1:0:0:0:
359,281,45957,6,0,P|347:241|351:197,1,77.0000023498536,6|0,1:1|0:0,0:0:0:0:
404,141,46663,2,0,P|400:99|382:59,1,77.0000023498536,8|0,3:2|0:0,0:0:0:0:
346,54,47192,2,0,L|299:43,1,38.5000011749268,2|0,3:2|0:0,0:0:0:0:
230,79,47722,1,2,3:0:0:0:
172,17,48075,1,8,0:0:0:0:
94,50,48428,1,0,3:0:0:0:
150,112,48780,6,0,P|153:164|137:201,1,77.0000023498536,2|0,3:2|0:0,0:0:0:0:
67,221,49486,2,0,P|64:273|80:310,1,77.0000023498536,8|0,3:2|0:0,0:0:0:0:
106,321,50016,1,0,0:0:0:0:
135,346,50192,2,0,L|131:385,2,38.5000011749268,2|0|2,3:2|0:0|0:0,0:0:0:0:
218,328,50898,2,0,L|307:351,1,77.0000023498536,8|0,0:0|0:0,0:0:0:0:
373,320,51604,6,0,P|377:279|366:236,1,77.0000023498536,2|0,3:1|0:0,0:0:0:0:
292,209,52310,2,0,P|288:250|299:293,1,77.0000023498536,8|0,3:2|0:0,0:0:0:0:
308,321,52839,2,0,L|298:369,1,38.5000011749268,2|0,3:2|0:0,0:0:0:0:
214,380,53369,1,2,3:2:0:0:
167,309,53722,1,8,0:0:0:0:
216,240,54075,1,0,3:0:0:0:
155,181,54428,6,0,L|150:83,1,77.0000023498536,2|0,3:2|0:0,0:0:0:0:
231,76,55133,2,0,L|234:152,1,77.0000023498536,8|0,3:2|0:0,0:0:0:0:
233,195,55663,1,0,0:0:0:0:
218,234,55839,2,0,L|198:267,2,38.5000011749268,2|0|2,3:2|0:0|0:0,0:0:0:0:
302,240,56545,2,0,L|348:246,1,38.5000011749268,8|0,1:2|0:0,0:0:0:0:
360,207,56898,2,0,L|406:201,1,38.5000011749268,0|0,1:2|0:0,0:0:0:0:
439,212,57251,6,0,P|452:249|446:297,1,77.0000023498536,4|0,3:2|0:0,0:0:0:0:
374,321,57957,2,0,P|339:318|296:330,1,77.0000023498536,8|0,3:2|0:0,0:0:0:0:
267,357,58486,2,0,L|208:357,1,38.5000011749268,0|0,3:0|0:0,0:0:0:0:
146,379,59016,1,2,3:2:0:0:
86,319,59369,1,8,0:0:0:0:
114,239,59722,1,0,3:0:0:0:
57,175,60075,6,0,P|49:119|62:85,1,77.0000023498536,2|0,3:2|0:0,0:0:0:0:
128,58,60780,2,0,P|177:69|228:56,1,77.0000023498536,8|0,3:2|0:0,0:0:0:0:
234,36,61310,2,0,L|277:31,1,38.5000011749268,2|0,3:2|0:0,0:0:0:0:
340,81,61839,1,2,3:2:0:0:
341,165,62192,1,8,0:0:0:0:
270,211,62545,1,0,3:0:0:0:
280,295,62898,6,0,P|324:311|373:303,1,77.0000023498536,2|0,3:1|0:0,0:0:0:0:
331,227,63604,2,0,P|295:212|257:212,1,77.0000023498536,8|0,3:2|0:0,0:0:0:0:
217,226,64133,1,0,0:0:0:0:
183,251,64310,2,0,L|136:214,2,38.5000011749268,2|0|2,3:2|0:0|0:0,0:0:0:0:
219,327,65016,2,0,P|169:335|140:328,1,77.0000023498536,8|0,0:0|0:0,0:0:0:0:
89,264,65722,5,2,1:0:0:0:
115,184,66075,2,0,L|156:181,2,38.5000011749268,0|0|8,1:0|0:0|0:0,0:0:0:0:
61,118,66780,2,0,L|20:115,2,38.5000011749268,0|0|8,1:0|0:0|1:2,0:0:0:0:
111,55,67486,1,2,1:0:0:0:
188,30,67839,1,8,1:0:0:0:
222,48,68016,1,0,3:0:0:0:
253,65,68192,2,0,L|294:62,1,38.5000011749268,2|0,1:0|0:0,0:0:0:0:
322,33,68545,6,0,P|364:22|418:35,1,77.0000023498536,6|0,1:1|0:0,0:0:0:0:
430,104,69251,2,0,P|435:145|456:178,1,77.0000023498536,8|0,1:2|0:0,0:0:0:0:
478,208,69780,2,0,L|474:262,1,38.5000011749268,2|0,3:2|0:0,0:0:0:0:
417,308,70310,1,2,3:2:0:0:
341,270,70663,1,8,0:0:0:0:
268,314,71016,1,0,3:0:0:0:
205,257,71369,6,0,P|170:243|126:243,1,77.0000023498536,2|0,3:2|0:0,0:0:0:0:
52,273,72075,2,0,P|15:252|0:222,1,77.0000023498536,8|0,3:2|0:0,0:0:0:0:
5,180,72604,2,0,L|15:133,1,38.5000011749268,2|0,3:2|0:0,0:0:0:0:
86,99,73133,1,2,3:2:0:0:
152,151,73486,1,8,0:0:0:0:
227,113,73839,1,0,3:0:0:0:
231,28,74192,6,0,P|278:14|314:17,1,77.0000023498536,2|0,3:2|0:0,0:0:0:0:
354,84,74898,2,0,P|401:98|437:95,1,77.0000023498536,10|2,3:2|0:0,0:0:0:0:
469,83,75428,1,0,0:0:0:0:
504,59,75604,2,0,L|510:14,2,38.5000011749268,2|0|2,3:2|0:0|0:0,0:0:0:0:
512,152,76310,2,0,L|513:232,1,77.0000023498536,8|0,0:0|0:0,0:0:0:0:
510,313,77016,6,0,P|471:303|425:312,1,77.0000023498536,2|0,1:0|0:0,0:0:0:0:
353,331,77722,1,8,3:2:0:0:
314,255,78075,2,0,L|324:192,2,38.5000011749268,2|0|2,3:2|0:0|1:0,0:0:0:0:
231,281,78780,1,2,3:2:0:0:
161,232,79133,1,8,0:0:0:0:
178,149,79486,1,2,3:2:0:0:
262,146,79839,6,0,P|302:135|329:114,1,77.0000023498536,2|0,1:2|0:0,0:0:0:0:
348,30,80545,2,0,P|406:12|448:23,1,77.0000023498536,8|0,3:2|0:0,0:0:0:0:
456,37,81075,2,0,L|462:78,1,38.5000011749268,2|0,3:2|0:0,0:0:0:0:
419,148,81604,2,0,L|414:193,1,38.5000011749268,2|0,1:2|0:0,0:0:0:0:
385,216,81957,2,0,L|389:258,2,38.5000011749268,8|0|2,1:0|0:0|1:2,0:0:0:0:
321,161,82663,6,0,B|222:109|171:209|58:123,1,251.999992309571,4|0,1:2|0:0,0:0:0:0:
28,74,84475,2,0,P|61:61|103:61,1,62.9999980773926
125,69,85019,1,0,0:0:0:0:
105,167,85563,1,0,0:0:0:0:
