osu file format v14

[General]
AudioFilename: audio.mp3
AudioLeadIn: 0
PreviewTime: 45957
Countdown: 0
SampleSet: Soft
StackLeniency: 0.7
Mode: 0
LetterboxInBreaks: 0
WidescreenStoryboard: 0

[Editor]
Bookmarks: 68545
DistanceSpacing: 1.1
BeatDivisor: 4
GridSize: 8
TimelineZoom: 1

[Metadata]
Title:Hikari no Michishirube (TV Size)
TitleUnicode:光の道標 (TV Size)
Artist:Kano
ArtistUnicode:鹿乃
Creator:aidanbh123
Version:Insane
Source:アズールレーン
Tags:ending ed theme azur azure lane the animation anime japanese female ed album light signpost 碧蓝航线 벽람항로 cut short illustrious unicorn warspite queen elizabeth
BeatmapID:2192902
BeatmapSetID:1049190

[Difficulty]
HPDrainRate:6
CircleSize:4
OverallDifficulty:7
ApproachRate:8.5
SliderMultiplier:1.8
SliderTickRate:1

[Events]
//Background and Video events
0,0,"azurlane3.jpg",0,0
Video,0,"ed.mp4"
//Break Periods
//Storyboard Layer 0 (Background)
//Storyboard Layer 1 (Fail)
//Storyboard Layer 2 (Pass)
//Storyboard Layer 3 (Foreground)
//Storyboard Layer 4 (Overlay)
//Storyboard Sound Samples

[TimingPoints]
781,705.882352941176,4,2,1,35,1,0
781,-133.333333333333,4,2,1,35,0,0
23369,-100,4,2,1,40,0,0
40310,-100,4,2,1,45,0,0
43486,-90.9090909090909,4,2,1,45,0,0
43839,-76.9230769230769,4,2,1,45,0,0
44192,-66.6666666666667,4,2,1,45,0,0
45957,-66.6666666666667,4,2,1,55,0,0
65722,-66.6666666666667,4,2,1,60,0,0
68545,-66.6666666666667,4,2,1,55,0,0
82663,725.075528700906,4,2,1,35,1,0
82663,-133.333333333333,4,2,1,35,0,0
84475,-133.333333333333,4,2,1,25,0,0
85563,-666.666666666658,4,2,1,15,0,0

[Colours]
Combo1 : 30,150,250
Combo2 : 222,222,222
Combo3 : 140,140,255

[HitObjects]
0,50,781,6,0,L|6:136,1,67.5000025749208,2|0,0:0|0:0,0:0:0:0:
101,184,1310,1,0,0:0:0:0:
110,174,1486,2,0,L|116:88,1,67.5000025749208,2|0,0:0|0:0,0:0:0:0:
254,47,2192,2,0,P|270:87|266:127,1,67.5000025749208,2|0,0:0|0:0,0:0:0:0:
193,180,2722,2,0,L|237:184,1,33.7500012874604
134,248,3251,1,0,0:0:0:0:
240,213,3604,6,0,P|284:223|316:241,1,67.5000025749208,2|0,0:0|0:0,0:0:0:0:
342,165,4310,2,0,P|369:200|382:235,1,67.5000025749208
455,114,5016,2,0,P|449:158|452:192,1,67.5000025749208,2|0,0:0|0:0,0:0:0:0:
388,199,5722,1,0,0:0:0:0:
478,219,6075,1,0,0:0:0:0:
357,229,6428,6,0,L|321:236,2,33.7500012874604,2|0|0,0:0|0:0|0:0,0:0:0:0:
285,331,7133,2,0,L|307:243,1,67.5000025749208,2|0,0:0|0:0,0:0:0:0:
366,382,7839,2,0,L|394:312,1,67.5000025749208,2|0,0:0|0:0,0:0:0:0:
316,254,8369,2,0,P|317:270|321:289,1,33.7500012874604
395,179,8898,1,0,0:0:0:0:
211,185,9251,6,0,P|255:153|285:146,1,67.5000025749208,2|0,0:0|0:0,0:0:0:0:
119,229,9957,2,0,P|118:174|129:146,1,67.5000025749208
219,299,10663,2,0,P|177:298|136:309,1,67.5000025749208,2|0,0:0|0:0,0:0:0:0:
73,209,11369,1,2,0:0:0:0:
68,236,11545,1,0,0:0:0:0:
80,266,11722,1,2,0:0:0:0:
170,212,12075,6,0,L|161:134,1,67.5000025749208,2|0,0:0|0:0,0:0:0:0:
233,77,12604,2,0,L|229:126,1,33.7500012874604
331,189,13133,1,2,0:0:0:0:
322,208,13310,1,0,0:0:0:0:
304,222,13486,2,0,L|300:138,1,67.5000025749208,2|0,0:0|0:0,0:0:0:0:
381,121,14016,2,0,L|376:161,1,33.7500012874604
447,70,14545,1,0,0:0:0:0:
302,82,14898,6,0,P|298:134|307:159,1,67.5000025749208,2|0,0:0|0:0,0:0:0:0:
466,139,15604,2,0,P|432:178|407:189,1,67.5000025749208,2|0,0:0|0:0,0:0:0:0:
389,8,16310,2,0,P|353:45|343:71,1,67.5000025749208,2|0,0:0|0:0,0:0:0:0:
458,84,16839,1,0,0:0:0:0:
400,111,17016,1,2,0:0:0:0:
424,114,17192,1,0,0:0:0:0:
446,104,17369,1,2,0:0:0:0:
400,111,17722,6,0,P|386:157|388:199,1,67.5000025749208,2|0,0:0|0:0,0:0:0:0:
431,274,18428,1,2,0:0:0:0:
412,259,18604,1,0,0:0:0:0:
388,254,18780,1,2,0:0:0:0:
364,256,18957,1,0,0:0:0:0:
344,268,19133,2,0,L|429:276,1,67.5000025749208,2|0,0:0|0:0,0:0:0:0:
288,375,19839,2,0,L|376:366,1,67.5000025749208,2|0,0:0|0:0,0:0:0:0:
203,233,20545,5,2,0:0:0:0:
221,328,20898,1,0,0:0:0:0:
318,226,21251,1,0,0:0:0:0:
292,364,21604,2,0,B|219:326|185:392|94:354,1,202.500007724762,2|0,0:0|0:0,0:0:0:0:
113,166,23369,6,0,P|129:184|138:211,1,45,2|0,3:2|0:0,0:0:0:0:
42,289,23722,1,0,0:0:0:0:
42,289,23898,2,0,L|39:188,1,90,0|0,3:0|0:0,0:0:0:0:
134,116,24428,1,0,0:0:0:0:
134,116,24604,2,0,L|137:217,1,90,0|0,3:0|0:0,0:0:0:0:
109,260,25133,1,2,0:0:0:0:
206,212,25486,1,0,3:0:0:0:
280,291,25839,1,0,0:0:0:0:
210,373,26192,6,0,P|204:340|205:316,1,45,2|0,3:2|0:0,0:0:0:0:
384,342,26545,1,0,0:0:0:0:
384,342,26722,2,0,P|333:334|278:344,1,90,0|0,3:0|0:0,0:0:0:0:
230,245,27251,1,0,0:0:0:0:
230,245,27428,2,0,P|281:253|336:243,1,90,0|0,3:0|0:0,0:0:0:0:
359,187,27957,1,2,0:0:0:0:
359,187,28133,1,0,0:0:0:0:
412,268,28310,1,2,3:1:0:0:
457,144,28663,1,0,0:0:0:0:
351,197,29016,6,0,L|284:202,1,45,2|0,3:2|0:0,0:0:0:0:
334,123,29369,1,0,0:0:0:0:
334,123,29545,2,0,P|290:126|247:105,1,90,0|0,3:0|0:0,0:0:0:0:
400,41,30075,1,0,0:0:0:0:
400,41,30251,2,0,L|407:137,1,90,0|0,3:0|0:0,0:0:0:0:
441,175,30781,1,2,0:0:0:0:
343,143,31134,1,0,3:0:0:0:
270,218,31487,1,0,0:0:0:0:
152,125,31839,5,2,3:2:0:0:
242,138,32192,1,0,0:0:0:0:
229,239,32545,1,0,3:0:0:0:
136,223,32898,1,0,0:0:0:0:
212,65,33251,5,0,3:0:0:0:
300,174,33604,1,2,0:0:0:0:
300,174,33780,1,0,0:0:0:0:
319,88,33957,1,2,0:1:0:0:
184,177,34310,1,0,0:0:0:0:
142,22,34663,6,0,P|156:53|156:72,1,45,2|0,3:2|0:0,0:0:0:0:
66,27,35016,1,0,0:0:0:0:
66,27,35192,2,0,L|59:119,1,90,0|0,3:0|0:0,0:0:0:0:
129,223,35722,1,0,0:0:0:0:
129,223,35898,2,0,P|75:188|36:193,1,90,0|0,3:0|0:0,0:0:0:0:
0,217,36428,1,2,0:0:0:0:
25,316,36781,1,0,3:0:0:0:
128,333,37133,1,0,0:0:0:0:
203,237,37486,6,0,P|217:255|223:278,1,45,2|0,3:2|0:0,0:0:0:0:
139,285,37839,1,0,0:0:0:0:
139,285,38016,2,0,L|148:175,1,90,0|0,3:0|0:0,0:0:0:0:
62,36,38545,1,0,0:0:0:0:
62,36,38722,2,0,L|71:146,1,90,0|0,3:0|0:0,0:0:0:0:
118,160,39251,1,2,0:0:0:0:
118,160,39428,1,0,0:0:0:0:
175,55,39604,1,2,3:1:0:0:
245,106,39957,1,0,0:0:0:0:
391,2,40310,6,0,P|366:73|411:154,1,135,4|0,3:2|0:0,0:0:0:0:
430,153,41016,2,0,L|467:166,2,30,2|0|0,3:2|0:0|0:2,0:0:0:0:
454,200,41369,2,0,L|500:202,2,30,2|0|0,3:2|0:0|0:0,0:0:0:0:
444,242,41722,5,2,0:0:0:0:
425,256,41839,1,0,0:0:0:0:
397,264,41957,1,0,0:0:0:0:
369,260,42075,1,2,0:0:0:0:
341,243,42192,1,0,0:0:0:0:
328,213,42310,1,0,0:0:0:0:
308,183,42428,5,2,0:0:0:0:
279,159,42545,1,0,0:0:0:0:
239,152,42663,1,0,0:0:0:0:
203,168,42780,1,2,0:0:0:0:
175,196,42898,1,0,0:0:0:0:
161,238,43016,1,2,0:0:0:0:
184,290,43133,5,0,3:0:0:0:
184,290,43486,2,0,P|166:255|161:230,1,49.5000015106202,0|0,1:0|0:0,0:0:0:0:
255,329,43839,2,0,P|214:325|181:311,1,58.4999973220826,0|0,1:0|0:0,0:0:0:0:
331,307,44192,2,0,P|287:339|253:344,1,67.5000025749208,0|0,1:0|0:0,0:0:0:0:
328,209,44545,5,0,1:0:0:0:
12,133,45957,6,0,P|121:157|162:151,1,135.000005149842,6|0,1:1|0:0,0:0:0:0:
291,114,46486,1,0,0:0:0:0:
311,18,46663,2,0,P|257:81|245:135,1,135.000005149842,8|0,3:2|0:0,0:0:0:0:
288,273,47192,1,2,0:0:0:0:
295,254,47369,2,0,L|301:181,1,67.5000025749208,0|0,3:0|0:0,0:0:0:0:
164,97,47722,2,0,L|170:170,1,67.5000025749208,2|0,3:2|0:0,0:0:0:0:
350,69,48075,1,8,0:0:0:0:
360,214,48428,2,0,P|355:257|348:287,1,67.5000025749208,0|0,3:0|0:0,0:0:0:0:
139,282,48780,6,0,P|225:257|303:263,1,135.000005149842,2|0,3:2|0:0,0:0:0:0:
437,291,49310,1,0,0:0:0:0:
393,384,49486,2,0,P|376:308|382:242,1,135.000005149842,8|0,3:2|0:0,0:0:0:0:
468,99,50016,1,0,0:0:0:0:
468,99,50192,1,2,3:2:0:0:
467,202,50369,1,0,0:0:0:0:
359,134,50545,1,2,3:2:0:0:
374,137,50898,2,0,P|377:175|378:212,1,67.5000025749208,8|0,0:0|0:0,0:0:0:0:
254,68,51251,2,0,P|258:29|258:-7,1,67.5000025749208,0|0,3:0|0:0,0:0:0:0:
295,181,51604,6,0,P|207:188|176:260,1,135.000005149842,2|0,3:1|0:0,0:0:0:0:
217,373,52133,1,0,0:0:0:0:
304,338,52310,2,0,P|218:313|140:319,1,135.000005149842,8|0,3:2|0:0,0:0:0:0:
45,364,52839,1,2,0:0:0:0:
48,358,53016,2,0,L|55:277,1,67.5000025749208,0|0,3:0|0:0,0:0:0:0:
152,158,53369,2,0,L|159:239,1,67.5000025749208,2|0,3:0|0:0,0:0:0:0:
26,94,53722,1,8,0:2:0:0:
172,166,54075,2,0,P|215:168|258:156,1,67.5000025749208,0|0,3:0|0:0,0:0:0:0:
322,24,54428,6,0,L|311:167,1,135.000005149842,2|0,3:0|0:0,0:0:0:0:
313,186,54957,1,0,0:0:0:0:
470,99,55133,2,0,L|430:234,1,135.000005149842,8|0,3:2|0:0,0:0:0:0:
481,314,55663,1,0,0:0:0:0:
481,314,55839,5,2,3:2:0:0:
381,301,56016,1,0,0:0:0:0:
303,365,56192,1,2,3:2:0:0:
239,208,56545,5,8,1:2:0:0:
338,200,56722,1,0,0:0:0:0:
377,294,56898,1,0,1:2:0:0:
299,358,57075,1,0,0:0:0:0:
213,304,57251,6,0,P|133:300|78:313,1,135.000005149842,4|0,3:2|0:0,0:0:0:0:
10,228,57780,1,0,0:0:0:0:
82,156,57957,2,0,P|112:235|96:299,1,135.000005149842,8|0,3:2|0:0,0:0:0:0:
0,384,58486,1,0,0:0:0:0:
11,376,58663,2,0,L|93:370,1,67.5000025749208,0|0,3:0|0:0,0:0:0:0:
252,305,59016,2,0,L|170:299,1,67.5000025749208,2|0,3:2|0:0,0:0:0:0:
61,205,59369,1,8,0:0:0:0:
69,220,59722,2,0,P|80:178|79:144,1,67.5000025749208,0|0,3:0|0:0,0:0:0:0:
23,20,60075,6,0,P|101:19|173:39,1,135.000005149842,2|0,3:2|0:0,0:0:0:0:
288,105,60604,1,0,0:0:0:0:
252,8,60780,2,0,P|237:97|264:150,1,135.000005149842,8|0,3:2|0:0,0:0:0:0:
417,69,61310,1,2,0:0:0:0:
417,69,61486,1,0,3:0:0:0:
324,13,61663,1,0,0:0:0:0:
336,131,61839,1,2,3:2:0:0:
336,131,62192,2,0,P|338:184|335:212,1,67.5000025749208,8|0,0:0|0:0,0:0:0:0:
417,69,62545,2,0,P|415:16|418:-12,1,67.5000025749208,0|0,3:0|0:0,0:0:0:0:
490,198,62898,6,0,P|411:178|348:182,1,135.000005149842,2|0,3:1|0:0,0:0:0:0:
236,252,63428,1,0,0:0:0:0:
258,340,63604,2,0,P|281:257|268:194,1,135.000005149842,8|0,3:2|0:0,0:0:0:0:
168,91,64133,1,0,0:0:0:0:
168,91,64310,1,2,3:2:0:0:
126,193,64486,1,0,0:0:0:0:
255,137,64663,2,0,P|293:132|325:132,1,67.5000025749208,2|0,3:2|0:0,0:0:0:0:
191,32,65016,2,0,P|156:26|121:27,1,67.5000025749208,8|0,0:0|0:0,0:0:0:0:
15,120,65369,5,0,3:0:0:0:
23,255,65545,1,0,0:0:0:0:
13,113,65722,2,0,L|6:29,1,67.5000025749208,2|0,1:0|0:0,0:0:0:0:
159,237,66075,5,0,1:0:0:0:
168,89,66251,1,0,0:0:0:0:
158,245,66428,2,0,L|151:329,1,67.5000025749208,2|0,1:0|0:0,0:0:0:0:
363,142,66780,5,2,1:0:0:0:
162,164,66957,1,0,1:0:0:0:
162,164,67045,1,0,1:0:0:0:
162,164,67133,1,8,1:0:0:0:
255,66,67310,1,0,0:0:0:0:
266,231,67486,1,2,1:0:0:0:
186,84,67663,5,0,1:0:0:0:
186,84,67751,1,0,1:0:0:0:
186,84,67839,1,8,1:0:0:0:
260,305,68016,1,0,0:0:0:0:
331,83,68192,1,2,1:0:0:0:
143,222,68369,1,0,0:0:0:0:
376,219,68545,6,0,P|420:260|441:333,1,135.000005149842,6|0,1:1|0:0,0:0:0:0:
284,282,69075,1,0,0:0:0:0:
363,144,69251,2,0,P|449:151|507:184,1,135.000005149842,8|0,1:2|0:0,0:0:0:0:
267,245,69780,1,2,0:0:0:0:
254,243,69957,2,0,L|156:236,1,67.5000025749208,0|0,3:0|0:0,0:0:0:0:
30,361,70310,2,0,L|128:354,1,67.5000025749208,2|0,3:2|0:0,0:0:0:0:
37,181,70663,1,8,0:0:0:0:
188,312,71016,2,0,P|193:266|185:233,1,67.5000025749208,0|0,3:0|0:0,0:0:0:0:
28,155,71369,6,0,P|108:172|187:152,1,135.000005149842,2|0,3:2|0:0,0:0:0:0:
326,73,71898,1,0,0:0:0:0:
237,3,72075,2,0,P|245:96|246:144,1,135.000005149842,8|0,3:2|0:0,0:0:0:0:
119,198,72604,1,2,0:0:0:0:
119,198,72780,1,0,3:0:0:0:
222,113,72957,1,0,0:0:0:0:
222,269,73133,1,2,3:2:0:0:
222,269,73486,2,0,P|219:306|221:346,1,67.5000025749208,8|0,0:0|0:0,0:0:0:0:
119,198,73839,2,0,P|122:161|120:121,1,67.5000025749208,0|0,3:0|0:0,0:0:0:0:
16,23,74192,6,0,P|105:13|192:51,1,135.000005149842,2|0,3:2|0:0,0:0:0:0:
197,200,74722,1,0,0:0:0:0:
144,117,74898,2,0,P|235:130|304:136,1,135.000005149842,10|2,3:2|0:0,0:0:0:0:
395,14,75428,1,0,0:0:0:0:
395,14,75604,2,0,P|403:58|405:87,1,67.5000025749208,2|0,3:2|0:0,0:0:0:0:
272,196,75957,2,0,B|274:208|270:172|278:128,1,67.5000025749208,2|0,3:2|0:0,0:0:0:0:
459,155,76310,2,0,P|383:164|354:237,1,135.000005149842,8|0,0:0|0:0,0:0:0:0:
461,333,76839,1,0,0:0:0:0:
428,222,77016,6,0,L|291:227,1,135.000005149842,2|0,1:0|0:0,0:0:0:0:
286,227,77545,1,0,0:0:0:0:
342,353,77722,2,0,L|193:324,1,135.000005149842,8|2,3:2|0:0,0:0:0:0:
103,384,78251,1,0,0:0:0:0:
103,384,78427,1,2,1:0:0:0:
193,323,78604,1,0,0:0:0:0:
162,218,78780,2,0,P|126:216|85:218,1,67.5000025749208,2|0,3:2|0:0,0:0:0:0:
220,115,79133,2,0,P|256:117|297:115,1,67.5000025749208,8|0,0:0|0:0,0:0:0:0:
127,0,79486,2,0,P|134:39|136:70,1,67.5000025749208,2|0,3:2|0:0,0:0:0:0:
30,194,79839,6,0,P|121:178|194:182,1,135.000005149842,2|0,1:2|0:0,0:0:0:0:
309,206,80369,1,0,0:0:0:0:
255,283,80545,2,0,P|251:187|288:131,1,135.000005149842,8|0,3:2|0:0,0:0:0:0:
423,102,81075,1,2,0:0:0:0:
423,102,81251,2,0,P|378:105|350:104,1,67.5000025749208,0|0,3:0|0:0,0:0:0:0:
450,26,81604,5,2,1:2:0:0:
450,182,81780,1,0,3:0:0:0:
357,55,81957,1,8,1:0:0:0:
505,104,82133,1,0,3:0:0:0:
357,151,82310,1,2,1:2:0:0:
423,102,82486,1,0,3:0:0:0:
450,182,82663,2,0,B|328:269|318:136|194:212,1,270.000010299683,4|0,1:2|0:0,0:0:0:0:
326,288,84475,6,0,P|277:260|246:260,1,67.5000025749208
241,261,85019,1,0,0:0:0:0:
287,367,85563,2,0,P|264:330|244:371,1,107.999996704102
