osu file format v14

[General]
AudioFilename: audio.mp3
AudioLeadIn: 0
PreviewTime: 45957
Countdown: 0
SampleSet: Soft
StackLeniency: 0.7
Mode: 0
LetterboxInBreaks: 0
WidescreenStoryboard: 1

[Editor]
Bookmarks: 68545
DistanceSpacing: 1.1
BeatDivisor: 4
GridSize: 8
TimelineZoom: 1

[Metadata]
Title:Hikari no Michishirube (TV Size)
TitleUnicode:光の道標 (TV Size)
Artist:Kano
ArtistUnicode:鹿乃
Creator:aidanbh123
Version:Hard
Source:アズールレーン
Tags:ending ed theme azur azure lane the animation anime japanese female ed album light signpost 碧蓝航线 벽람항로 cut short illustrious unicorn warspite queen elizabeth
BeatmapID:2202117
BeatmapSetID:1049190

[Difficulty]
HPDrainRate:5
CircleSize:3.5
OverallDifficulty:6
ApproachRate:7.5
SliderMultiplier:1.6
SliderTickRate:1

[Events]
//Background and Video events
0,0,"azurlane1.jpg",0,0
Video,0,"ed.mp4"
//Break Periods
//Storyboard Layer 0 (Background)
//Storyboard Layer 1 (Fail)
//Storyboard Layer 2 (Pass)
//Storyboard Layer 3 (Foreground)
//Storyboard Layer 4 (Overlay)
//Storyboard Sound Samples

[TimingPoints]
781,705.882352941176,4,2,0,35,1,0
781,-117.647058823529,4,2,0,35,0,0
21604,-133.333333333333,4,2,0,35,0,0
23369,-100,4,2,0,40,0,0
40310,-90.9090909090909,4,2,0,45,0,0
41369,-83.3333333333333,4,2,0,45,0,0
43486,-90.9090909090909,4,2,0,45,0,0
43839,-76.9230769230769,4,2,0,45,0,0
44192,-66.6666666666667,4,2,0,45,0,0
45957,-71.4285714285714,4,2,0,55,0,0
65722,-71.4285714285714,4,2,0,60,0,0
68545,-71.4285714285714,4,2,0,55,0,0
82663,725.075528700906,4,2,0,35,1,0
82663,-133.333333333333,4,2,0,35,0,0
84475,-133.333333333333,4,2,0,25,0,0
85563,-666.666666666658,4,2,0,15,0,0

[Colours]
Combo1 : 136,154,255
Combo2 : 222,222,222
Combo3 : 255,104,104
Combo4 : 255,244,183

[HitObjects]
8,15,75,5,0,0:0:0:0:
8,15,428,1,0,0:0:0:0:
8,15,781,6,0,P|51:48|80:50,1,68.0000012969971,2|0,0:0|0:0,0:0:0:0:
143,10,1310,2,0,L|120:133,1,102.000001945496
186,172,2192,2,0,P|143:205|114:207,1,68.0000012969971,2|0,0:0|0:0,0:0:0:0:
51,167,2721,2,0,L|62:224,1,34.0000006484985
0,105,3251,1,2,0:0:0:0:
140,126,3604,6,0,P|174:166|180:195,1,68.0000012969971,2|0,0:0|0:0,0:0:0:0:
75,252,4310,2,0,P|92:201|114:181,1,68.0000012969971,0|0,0:0|0:0,0:0:0:0:
224,260,5016,2,0,L|128:250,1,68.0000012969971,0|0,0:0|0:0,0:0:0:0:
204,176,5722,1,2,0:0:0:0:
309,198,6075,1,0,0:0:0:0:
373,123,6428,6,0,P|367:86|358:67,2,34.0000006484985,2|0|0,0:0|0:0|0:0,0:0:0:0:
302,187,7133,1,0,0:0:0:0:
372,210,7486,1,0,0:0:0:0:
319,260,7839,2,0,P|303:297|319:344,1,68.0000012969971,2|0,0:0|0:0,0:0:0:0:
382,383,8369,2,0,L|270:370,1,102.000001945496,0|2,0:0|0:0,0:0:0:0:
411,299,9251,6,0,P|412:249|389:210,1,68.0000012969971,2|0,0:0|0:0,0:0:0:0:
275,243,9957,2,0,P|317:268|363:268,1,68.0000012969971,0|0,0:0|0:0,0:0:0:0:
344,122,10663,2,0,L|338:190,1,68.0000012969971,0|0,0:0|0:0,0:0:0:0:
446,134,11369,2,0,L|452:177,2,34.0000006484985,2|0|0,0:0|0:0|0:0,0:0:0:0:
338,74,12075,6,0,P|284:85|256:78,1,68.0000012969971
214,17,12604,2,0,L|230:137,1,102.000001945496,0|2,0:0|0:0,0:0:0:0:
256,211,13310,1,0,0:0:0:0:
256,211,13486,2,0,P|222:198|178:204,1,68.0000012969971,2|0,0:0|0:0,0:0:0:0:
145,237,14016,2,0,P|91:215|71:154,1,102.000001945496,2|0,0:0|0:0,0:0:0:0:
185,157,14898,6,0,L|188:226,1,68.0000012969971,2|0,0:0|0:0,0:0:0:0:
116,278,15428,2,0,P|155:284|183:306,1,68.0000012969971,0|0,0:0|0:0,0:0:0:0:
243,339,15957,2,0,B|180:314|169:376|92:343,1,136.000002593994,2|0,0:0|0:0,0:0:0:0:
128,266,16839,1,0,0:0:0:0:
131,276,17016,2,0,P|134:290|137:318,2,34.0000006484985,2|0|0,0:0|0:0|0:0,0:0:0:0:
10,190,17722,6,0,P|62:205|104:192,1,68.0000012969971,2|0,0:0|0:0,0:0:0:0:
115,173,18251,2,0,P|167:158|209:171,1,68.0000012969971,0|0,0:0|0:0,0:0:0:0:
235,232,18780,1,2,0:0:0:0:
241,213,18957,1,0,0:0:0:0:
256,200,19133,2,0,P|300:184|332:192,1,68.0000012969971,2|0,0:0|0:0,0:0:0:0:
396,233,19839,1,2,0:0:0:0:
409,159,20192,1,0,0:0:0:0:
482,288,20545,5,2,0:0:0:0:
396,233,20898,1,0,0:0:0:0:
306,281,21251,1,0,0:0:0:0:
261,189,21604,2,0,P|186:203|232:262,1,180.000006866455,2|0,0:0|0:0,0:0:0:0:
261,379,23016,5,0,0:0:0:0:
261,379,23369,2,0,L|178:370,1,80,2|0,3:2|0:0,0:0:0:0:
82,381,23898,2,0,P|115:331|105:286,1,80,0|0,3:2|0:0,0:0:0:0:
46,239,24428,1,0,0:0:0:0:
46,239,24604,2,0,L|111:242,1,40,0|0,3:0|0:0,0:0:0:0:
128,177,25133,1,2,2:2:0:0:
209,182,25486,1,0,3:0:0:0:
238,254,25839,1,0,3:0:0:0:
371,261,26192,6,0,P|396:205|385:171,1,80,2|0,3:2|0:0,0:0:0:0:
357,94,26722,2,0,P|410:114|462:111,1,80,0|0,3:0|0:0,0:0:0:0:
439,0,27251,1,0,0:0:0:0:
439,0,27428,2,0,P|424:21|419:34,1,40,0|0,3:0|0:0,0:0:0:0:
451,146,27957,2,0,L|446:106,1,40,2|0,3:2|0:0,0:0:0:0:
387,193,28310,1,2,3:1:0:0:
453,218,28663,1,0,0:0:0:0:
410,325,29016,6,0,L|322:323,1,80,2|0,3:2|0:0,0:0:0:0:
269,382,29545,2,0,P|247:342|199:335,1,80,0|0,3:0|0:0,0:0:0:0:
135,381,30075,1,0,0:0:0:0:
135,381,30251,2,0,L|142:322,1,40,0|0,3:0|0:0,0:0:0:0:
77,259,30780,1,2,0:0:0:0:
142,312,31133,1,0,3:0:0:0:
219,283,31486,1,0,0:0:0:0:
189,126,31839,5,2,3:2:0:0:
179,162,32192,1,0,0:0:0:0:
209,173,32545,1,0,3:0:0:0:
220,140,32898,1,0,0:0:0:0:
81,186,33251,5,0,0:0:0:0:
98,91,33604,2,0,L|105:44,1,40,2|0,3:2|0:0,0:0:0:0:
11,129,33957,1,2,3:1:0:0:
0,37,34310,1,0,0:0:0:0:
115,111,34663,6,0,P|166:117|191:107,1,80,2|0,3:2|0:0,0:0:0:0:
183,26,35192,2,0,P|132:20|107:30,1,80,0|0,3:2|0:0,0:0:0:0:
48,138,35722,1,0,0:0:0:0:
48,138,35898,2,0,L|47:82,1,40,0|0,3:0|0:0,0:0:0:0:
124,176,36428,1,2,0:0:0:0:
196,124,36780,1,0,3:0:0:0:
265,172,37133,1,0,0:0:0:0:
190,291,37486,6,0,P|218:327|255:338,1,80,2|0,3:2|0:0,0:0:0:0:
325,322,38016,2,0,P|369:308|406:321,1,80,0|0,3:0|0:0,0:0:0:0:
475,382,38545,1,0,0:0:0:0:
475,382,38722,2,0,L|469:343,1,40,0|0,3:0|0:0,0:0:0:0:
501,237,39251,2,0,P|478:252|464:257,1,40,2|0,3:2|0:0,0:0:0:0:
493,143,39604,1,2,3:1:0:0:
406,141,39957,1,0,0:0:0:0:
226,287,40310,6,0,P|185:276|164:239,1,88.000002685547,4|0,3:2|0:0,0:0:0:0:
243,155,40839,2,0,L|156:168,1,88.000002685547,0|0,3:0|0:0,0:0:0:0:
68,119,41369,1,2,0:0:0:0:
68,119,41545,6,0,P|114:116|146:81,1,95.9999970703126,2|0,3:2|0:0,0:0:0:0:
47,0,42075,2,0,P|70:6|93:9,1,47.9999985351563,0|0,3:0|0:0,0:0:0:0:
235,0,42428,2,0,P|228:22|230:56,2,31.9999990234375,2|0|0,0:0|0:0|0:0,0:0:0:0:
156,66,42780,2,0,P|168:85|195:105,2,31.9999990234375,2|0|0,0:0|0:0|0:0,0:0:0:0:
262,114,43133,5,2,3:2:0:0:
262,114,43486,2,0,P|269:152|273:162,1,44.0000013427735,0|0,1:0|0:0,0:0:0:0:
179,184,43839,2,0,P|199:217|231:241,1,51.999997619629,0|0,1:0|0:0,0:0:0:0:
135,306,44192,2,0,P|169:324|195:329,1,60.0000022888184,0|0,1:0|0:0,0:0:0:0:
348,233,44545,5,0,1:0:0:0:
495,378,45957,6,0,L|382:358,1,111.999996582031,6|0,1:1|0:0,0:0:0:0:
214,378,46663,2,0,P|281:349|306:291,1,111.999996582031,8|0,0:0|0:0,0:0:0:0:
299,306,47192,1,2,0:0:0:0:
296,292,47369,1,0,3:0:0:0:
233,130,47722,2,0,P|227:166|234:198,1,55.9999982910157,2|0,3:2|0:0,0:0:0:0:
388,234,48075,2,0,P|359:210|328:200,1,55.9999982910157,8|0,0:0|0:0,0:0:0:0:
219,313,48428,2,0,P|253:300|277:278,1,55.9999982910157,0|0,3:0|0:0,0:0:0:0:
134,135,48780,6,0,L|144:264,1,111.999996582031,2|0,3:2|0:0,0:0:0:0:
19,344,49486,2,0,L|29:215,1,111.999996582031,8|0,3:2|0:0,0:0:0:0:
34,134,50016,1,0,0:0:0:0:
34,134,50192,2,0,P|17:105|0:91,2,55.9999982910157,2|0|2,3:2|0:0|0:0,0:0:0:0:
112,1,50898,2,0,P|96:39|96:66,1,55.9999982910157,8|0,0:0|0:0,0:0:0:0:
228,87,51251,2,0,P|203:54|179:40,1,55.9999982910157,0|0,3:0|0:0,0:0:0:0:
83,158,51604,6,0,P|155:150|210:161,1,111.999996582031,2|0,3:1|0:0,0:0:0:0:
340,54,52310,2,0,P|268:62|213:51,1,111.999996582031,8|0,3:2|0:0,0:0:0:0:
215,46,52839,1,2,0:0:0:0:
206,31,53016,1,0,3:0:0:0:
279,130,53369,2,0,P|285:166|278:198,1,55.9999982910157,2|0,3:2|0:0,0:0:0:0:
153,245,53722,2,0,L|227:230,1,55.9999982910157,8|0,0:0|0:0,0:0:0:0:
263,290,54075,2,0,L|332:299,1,55.9999982910157,0|0,3:0|0:0,0:0:0:0:
389,230,54428,6,0,P|449:248|466:295,1,111.999996582031,2|0,3:2|0:0,0:0:0:0:
341,365,54957,1,0,0:0:0:0:
324,374,55133,2,0,L|440:370,1,111.999996582031,8|0,3:2|0:0,0:0:0:0:
341,277,55663,1,0,0:0:0:0:
341,277,55839,2,0,P|313:281|287:293,1,55.9999982910157,2|0,3:2|0:0,0:0:0:0:
265,384,56192,1,2,3:2:0:0:
443,360,56545,5,8,1:2:0:0:
435,315,56722,1,0,0:0:0:0:
412,290,56898,1,0,3:2:0:0:
384,283,57075,1,0,0:0:0:0:
361,286,57251,6,0,P|294:269|269:202,1,111.999996582031,4|0,3:2|0:0,0:0:0:0:
365,74,57957,2,0,L|353:185,1,111.999996582031,8|0,3:2|0:0,0:0:0:0:
352,196,58486,1,0,0:0:0:0:
350,207,58663,1,0,3:0:0:0:
447,80,59016,2,0,P|440:44|419:18,1,55.9999982910157,2|0,3:2|0:0,0:0:0:0:
343,0,59369,1,8,0:0:0:0:
228,88,59722,2,0,P|197:92|170:87,1,55.9999982910157,0|0,3:0|0:0,0:0:0:0:
95,13,60075,6,0,P|109:83|96:134,1,111.999996582031,2|0,3:2|0:0,0:0:0:0:
22,186,60604,1,0,0:0:0:0:
16,192,60780,2,0,P|4:246|22:298,1,111.999996582031,8|0,3:2|0:0,0:0:0:0:
102,327,61310,1,2,0:0:0:0:
102,327,61486,2,0,L|161:331,2,55.9999982910157,0|0|2,3:0|0:0|0:0,0:0:0:0:
251,233,62192,2,0,P|257:269|250:301,1,55.9999982910157,8|0,0:0|0:0,0:0:0:0:
122,302,62545,2,0,P|150:279|181:269,1,55.9999982910157,0|0,3:0|0:0,0:0:0:0:
226,349,62898,6,0,P|286:357|336:335,1,111.999996582031,2|0,3:1|0:0,0:0:0:0:
449,172,63604,2,0,L|452:297,1,111.999996582031,8|0,3:2|0:0,0:0:0:0:
500,356,64133,1,0,0:0:0:0:
504,347,64310,2,0,P|507:304|501:281,1,55.9999982910157,2|0,3:2|0:0,0:0:0:0:
442,233,64663,2,0,P|439:190|445:167,1,55.9999982910157,2|0,3:2|0:0,0:0:0:0:
512,117,65016,1,8,0:0:0:0:
374,157,65369,2,0,L|312:143,1,55.9999982910157,0|0,3:0|0:0,0:0:0:0:
314,41,65722,6,0,P|335:102|307:160,1,111.999996582031,2|0,1:0|1:0,0:0:0:0:
306,157,66251,1,0,3:0:0:0:
222,143,66428,2,0,P|191:156|167:180,1,55.9999982910157,10|2,0:0|0:0,0:0:0:0:
174,321,66780,1,0,1:0:0:0:
169,338,66957,2,0,L|156:380,2,27.9999991455078,2|2|8,0:0|0:0|1:0,0:0:0:0:
115,232,67310,1,0,3:0:0:0:
176,203,67486,1,2,1:0:0:0:
242,239,67663,5,0,1:0:0:0:
242,239,67751,1,0,1:0:0:0:
242,239,67839,2,0,P|294:212|313:172,1,55.9999982910157,8|0,1:0|0:0,0:0:0:0:
224,64,68192,1,2,1:0:0:0:
142,78,68369,1,0,3:0:0:0:
132,167,68545,6,0,P|188:192|256:178,1,111.999996582031,6|0,1:1|0:0,0:0:0:0:
328,23,69251,2,0,P|383:18|433:42,1,111.999996582031,8|0,1:2|0:0,0:0:0:0:
438,58,69780,1,2,0:0:0:0:
438,74,69957,2,0,L|430:130,1,55.9999982910157,0|0,3:2|0:0,0:0:0:0:
512,197,70310,2,0,L|504:141,1,55.9999982910157,2|0,3:2|0:0,0:0:0:0:
511,51,70663,1,8,0:0:0:0:
347,78,71016,2,0,P|356:48|373:25,1,55.9999982910157,0|0,3:2|0:0,0:0:0:0:
471,0,71369,6,0,L|451:128,1,111.999996582031,2|0,3:2|0:0,0:0:0:0:
507,281,72075,2,0,P|452:220|407:211,1,111.999996582031,8|0,3:2|0:0,0:0:0:0:
408,211,72604,1,2,0:0:0:0:
391,211,72780,2,0,L|333:216,1,55.9999982910157,0|0,3:0|0:0,0:0:0:0:
241,291,73133,2,0,L|296:286,1,55.9999982910157,2|0,3:2|0:0,0:0:0:0:
280,173,73486,2,0,L|284:228,1,55.9999982910157,8|0,0:0|0:0,0:0:0:0:
361,324,73839,2,0,L|356:268,1,55.9999982910157,0|0,3:0|0:0,0:0:0:0:
282,349,74192,6,0,P|207:358|161:323,1,111.999996582031,2|0,3:2|0:0,0:0:0:0:
98,157,74898,2,0,L|76:289,1,111.999996582031,10|2,3:2|0:0,0:0:0:0:
76,284,75428,1,0,0:0:0:0:
73,300,75604,1,2,3:2:0:0:
52,143,75957,2,0,P|77:133|97:113,1,55.9999982910157,2|0,3:2|0:0,0:0:0:0:
171,42,76310,2,0,P|169:67|174:97,1,55.9999982910157,8|0,0:0|0:0,0:0:0:0:
194,200,76663,2,0,P|160:187|136:165,1,55.9999982910157,0|0,3:0|0:0,0:0:0:0:
278,130,77016,6,0,L|258:260,1,111.999996582031,2|0,1:0|0:0,0:0:0:0:
443,306,77722,2,0,L|423:176,1,111.999996582031,8|2,3:2|0:0,0:0:0:0:
298,199,78251,1,0,0:0:0:0:
298,199,78428,2,0,P|320:215|347:224,1,55.9999982910157,2|0,1:0|0:0,0:0:0:0:
390,109,78780,2,0,P|364:120|343:139,1,55.9999982910157,2|0,3:2|0:0,0:0:0:0:
422,241,79133,2,0,L|427:178,1,55.9999982910157,8|0,0:0|0:0,0:0:0:0:
335,242,79486,2,0,L|340:305,1,55.9999982910157,2|0,3:2|0:0,0:0:0:0:
414,359,79839,6,0,P|346:329|289:337,1,111.999996582031,2|0,1:2|0:0,0:0:0:0:
226,381,80369,1,0,0:0:0:0:
217,382,80545,2,0,P|161:380|112:353,1,111.999996582031,8|0,3:2|0:0,0:0:0:0:
186,269,81075,1,2,0:0:0:0:
186,269,81251,2,0,L|190:327,1,55.9999982910157,0|0,3:0|0:0,0:0:0:0:
96,265,81604,1,2,1:2:0:0:
106,210,81780,1,0,3:0:0:0:
144,176,81957,1,8,1:0:0:0:
188,169,82133,1,0,3:0:0:0:
225,179,82310,2,0,L|292:184,1,55.9999982910157,2|0,1:2|0:0,0:0:0:0:
199,79,82663,6,0,P|129:140|176:269,1,240.000009155274,4|0,1:2|0:0,0:0:0:0:
289,136,84475,2,0,P|248:150|229:169,1,60.0000022888184
225,179,85019,1,0,0:0:0:0:
322,284,85563,5,0,0:0:0:0:
