osu file format v14

[General]
AudioFilename: audio.mp3
AudioLeadIn: 0
PreviewTime: 61108
Countdown: 0
SampleSet: Soft
StackLeniency: 0.7
Mode: 3
LetterboxInBreaks: 0
SpecialStyle: 0
WidescreenStoryboard: 1

[Editor]
DistanceSpacing: 0.7
BeatDivisor: 16
GridSize: 8
TimelineZoom: 0.8

[Metadata]
Title:Hikari no Michishirube (TV Size)
TitleUnicode:光の道標 (TV Size)
Artist:Kano
ArtistUnicode:鹿乃
Creator:LLENN-
Version:Normal
Source:アズールレーン
Tags:Ending ed Theme Azur Lane The Animation dudehacker Anime Japanese 碧蓝航线 벽람항로 cut short Drum-Hitnormal
BeatmapID:2316329
BeatmapSetID:1108353

[Difficulty]
HPDrainRate:7
CircleSize:4
OverallDifficulty:7.5
ApproachRate:5
SliderMultiplier:1.4
SliderTickRate:1

[Events]
//Background and Video events
0,0,"BG2.jpg",0,0
//Break Periods
//Storyboard Layer 0 (Background)
//Storyboard Layer 1 (Fail)
//Storyboard Layer 2 (Pass)
//Storyboard Layer 3 (Foreground)
//Storyboard Layer 4 (Overlay)
//Storyboard Sound Samples

[TimingPoints]
2022,705.882352941176,4,2,1,70,1,0
16285,705.882352941176,4,2,1,70,1,0
61461,-100,4,2,1,70,0,1
98171,722.89156626506,4,2,1,70,1,0
98171,-98.0392156862745,4,2,1,70,0,0

[HitObjects]
64,192,2021,5,0,0:0:0:0:
320,192,2374,1,0,0:0:0:0:
192,192,2727,1,0,0:0:0:0:
448,192,3080,1,0,0:0:0:0:
320,192,3433,1,0,0:0:0:0:
64,192,3786,1,0,0:0:0:0:
192,192,4139,1,0,0:0:0:0:
320,192,4492,1,0,0:0:0:0:
448,192,4845,1,0,0:0:0:0:
320,192,5198,1,0,0:0:0:0:
192,192,5551,1,0,0:0:0:0:
64,192,5904,1,0,0:0:0:0:
320,192,6257,1,0,0:0:0:0:
448,192,6610,1,0,0:0:0:0:
64,192,6963,1,0,0:0:0:0:
192,192,7316,1,0,0:0:0:0:
448,192,7669,128,0,8021:0:0:0:0:
64,192,8021,128,0,8374:0:0:0:0:
192,192,8374,128,0,8727:0:0:0:0:
320,192,8727,128,0,9433:0:0:0:0:
448,192,9433,1,0,0:0:0:0:
64,192,9786,1,0,0:0:0:0:
192,192,9963,1,0,0:0:0:0:
320,192,10139,1,0,0:0:0:0:
448,192,10492,1,0,0:0:0:0:
64,192,10845,128,0,11551:0:0:0:0:
192,192,11551,128,0,13536:0:0:0:0:
448,192,13536,1,0,0:0:0:0:
192,192,15610,1,0,0:0:0:0:
320,192,15963,1,0,0:0:0:0:
64,192,16285,128,0,16990:0:0:0:0:
448,192,16285,1,0,0:0:0:0:
320,192,16990,1,0,0:0:0:0:
448,192,17343,1,0,0:0:0:0:
64,192,17696,128,0,18402:0:0:0:0:
192,192,17696,1,0,0:0:0:0:
320,192,18402,1,0,0:0:0:0:
192,192,18755,1,0,0:0:0:0:
448,192,19108,128,0,19814:0:0:0:0:
64,192,19108,1,0,0:0:0:0:
320,192,19814,1,0,0:0:0:0:
448,192,20520,128,0,21226:0:0:0:0:
192,192,20520,1,0,0:0:0:0:
320,192,21226,1,0,0:0:0:0:
64,192,21579,1,0,0:0:0:0:
192,192,21932,128,0,22637:0:0:0:0:
448,192,21932,1,0,0:0:0:0:
320,192,22637,1,0,0:0:0:0:
192,192,23343,128,0,24049:0:0:0:0:
64,192,23343,1,0,0:0:0:0:
448,192,24049,1,0,0:0:0:0:
320,192,24755,128,0,25461:0:0:0:0:
192,192,24755,1,0,0:0:0:0:
64,192,25461,1,0,0:0:0:0:
320,192,26167,128,0,26873:0:0:0:0:
448,192,26167,1,0,0:0:0:0:
64,192,26873,1,0,0:0:0:0:
192,192,27226,1,0,0:0:0:0:
448,192,27579,128,0,28284:0:0:0:0:
64,192,27579,1,0,0:0:0:0:
192,192,28284,1,0,0:0:0:0:
320,192,28637,1,0,0:0:0:0:
64,192,28990,128,0,29696:0:0:0:0:
192,192,28990,1,0,0:0:0:0:
448,192,29696,1,0,0:0:0:0:
192,192,30402,128,0,31108:0:0:0:0:
320,192,30402,1,0,0:0:0:0:
448,192,31108,1,0,0:0:0:0:
64,192,31814,128,0,32520:0:0:0:0:
192,192,31814,1,0,0:0:0:0:
448,192,32520,1,0,0:0:0:0:
192,192,32873,1,0,0:0:0:0:
320,192,33226,128,0,33932:0:0:0:0:
64,192,33226,1,0,0:0:0:0:
192,192,33932,1,0,0:0:0:0:
320,192,34284,1,0,0:0:0:0:
448,192,34637,128,0,35343:0:0:0:0:
64,192,34637,1,0,0:0:0:0:
192,192,35343,1,0,0:0:0:0:
64,192,35696,1,0,0:0:0:0:
320,192,36049,128,0,36402:0:0:0:0:
192,192,36049,1,0,0:0:0:0:
448,192,36402,128,0,36755:0:0:0:0:
192,192,36755,1,0,0:0:0:0:
64,192,37108,128,0,38873:0:0:0:0:
320,192,37108,1,0,0:0:0:0:
448,192,38873,1,0,0:0:0:0:
192,192,39226,1,0,0:0:0:0:
320,192,39579,1,0,0:0:0:0:
64,192,39932,1,0,0:0:0:0:
448,192,40284,1,0,0:0:0:0:
320,192,40637,1,0,0:0:0:0:
192,192,40990,1,0,0:0:0:0:
64,192,41343,1,0,0:0:0:0:
192,192,41696,1,0,0:0:0:0:
448,192,42049,1,0,0:0:0:0:
64,192,42402,1,0,0:0:0:0:
320,192,42755,1,0,0:0:0:0:
64,192,43108,1,0,0:0:0:0:
192,192,43461,1,0,0:0:0:0:
320,192,43637,1,0,0:0:0:0:
448,192,43814,1,0,0:0:0:0:
192,192,44167,1,0,0:0:0:0:
320,192,44520,1,0,0:0:0:0:
64,192,44873,1,0,0:0:0:0:
448,192,45226,1,0,0:0:0:0:
192,192,45579,1,0,0:0:0:0:
448,192,45932,1,0,0:0:0:0:
320,192,46284,1,0,0:0:0:0:
192,192,46637,1,0,0:0:0:0:
64,192,46990,1,0,0:0:0:0:
192,192,47343,1,0,0:0:0:0:
448,192,47696,1,0,0:0:0:0:
64,192,48049,1,0,0:0:0:0:
320,192,48402,1,0,0:0:0:0:
448,192,48755,1,0,0:0:0:0:
320,192,49108,1,0,0:0:0:0:
192,192,49284,1,0,0:0:0:0:
64,192,49461,1,0,0:0:0:0:
320,192,49814,1,0,0:0:0:0:
192,192,50167,1,0,0:0:0:0:
448,192,50520,1,0,0:0:0:0:
64,192,50873,1,0,0:0:0:0:
320,192,51226,1,0,0:0:0:0:
64,192,51579,1,0,0:0:0:0:
192,192,51932,1,0,0:0:0:0:
320,192,52284,1,0,0:0:0:0:
448,192,52637,1,0,0:0:0:0:
320,192,52990,1,0,0:0:0:0:
64,192,53343,1,0,0:0:0:0:
448,192,53696,1,0,0:0:0:0:
192,192,54049,1,0,0:0:0:0:
448,192,54402,1,0,0:0:0:0:
320,192,54755,1,0,0:0:0:0:
192,192,54932,1,0,0:0:0:0:
64,192,55108,1,0,0:0:0:0:
192,192,55461,1,0,0:0:0:0:
320,192,55814,1,4,0:0:0:0:
448,192,55814,128,2,56520:0:0:0:0:
64,192,56520,1,0,0:0:0:0:
192,192,56755,1,0,0:0:0:0:
320,192,56990,1,0,0:0:0:0:
448,192,57226,1,0,0:0:0:0:
320,192,57461,1,0,0:0:0:0:
192,192,57696,1,0,0:0:0:0:
64,192,57932,1,0,0:0:0:0:
192,192,58167,1,0,0:0:0:0:
320,192,58402,1,0,0:0:0:0:
448,192,58637,1,0,0:0:0:0:
64,192,58990,1,0,0:0:0:0:
192,192,58990,1,0,0:0:0:0:
64,192,59343,1,0,0:0:0:0:
192,192,59343,1,0,0:0:0:0:
320,192,59696,1,0,0:0:0:0:
448,192,59696,1,0,0:0:0:0:
320,192,60049,1,0,0:0:0:0:
448,192,60049,1,0,0:0:0:0:
64,192,61461,1,4,0:0:0:0:
192,192,61461,1,2,0:0:0:0:
448,192,61814,128,0,62167:0:0:0:0:
192,192,62167,1,8,0:0:0:0:
320,192,62167,1,0,0:0:0:0:
64,192,62520,1,0,0:0:0:0:
448,192,62696,1,2,0:0:0:0:
320,192,62873,1,2,0:0:0:0:
64,192,63226,128,2,63579:0:0:0:0:
320,192,63579,1,8,0:0:0:0:
448,192,63579,1,0,0:0:0:0:
64,192,63932,1,0,0:0:0:0:
320,192,64284,1,2,0:0:0:0:
192,192,64637,128,0,64990:0:0:0:0:
320,192,64990,1,8,0:0:0:0:
448,192,64990,1,0,0:0:0:0:
192,192,65343,1,0,0:0:0:0:
64,192,65520,1,2,0:0:0:0:
320,192,65696,1,2,0:0:0:0:
448,192,66049,128,2,66402:0:0:0:0:
64,192,66402,1,8,0:0:0:0:
192,192,66402,1,0,0:0:0:0:
320,192,66755,1,0,0:0:0:0:
448,192,67108,1,2,0:0:0:0:
64,192,67461,128,0,67814:0:0:0:0:
192,192,67814,1,8,0:0:0:0:
320,192,67814,1,0,0:0:0:0:
64,192,68167,1,0,0:0:0:0:
448,192,68343,1,2,0:0:0:0:
320,192,68520,1,2,0:0:0:0:
192,192,68873,128,2,69226:0:0:0:0:
320,192,69226,1,8,0:0:0:0:
448,192,69226,1,0,0:0:0:0:
192,192,69579,1,0,0:0:0:0:
64,192,69932,1,2,0:0:0:0:
448,192,70284,128,0,70637:0:0:0:0:
192,192,70637,1,8,0:0:0:0:
320,192,70637,1,0,0:0:0:0:
64,192,70990,1,0,0:0:0:0:
192,192,71167,1,2,0:0:0:0:
320,192,71343,1,2,0:0:0:0:
64,192,71696,128,2,72049:0:0:0:0:
192,192,72049,1,8,0:0:0:0:
448,192,72049,1,0,0:0:0:0:
320,192,72402,1,0,0:0:0:0:
64,192,72755,1,2,0:0:0:0:
192,192,72755,1,4,0:0:0:0:
320,192,73108,128,0,73461:0:0:0:0:
192,192,73461,1,8,0:0:0:0:
448,192,73461,1,0,0:0:0:0:
320,192,73814,1,0,0:0:0:0:
192,192,73990,1,2,0:0:0:0:
64,192,74167,1,2,0:0:0:0:
192,192,74520,128,2,74873:0:0:0:0:
64,192,74873,1,8,0:0:0:0:
320,192,74873,1,0,0:0:0:0:
448,192,75226,1,0,0:0:0:0:
64,192,75579,1,2,0:0:0:0:
192,192,75932,1,0,0:0:0:0:
320,192,76108,1,2,0:0:0:0:
64,192,76284,1,8,0:0:0:0:
448,192,76284,1,0,0:0:0:0:
320,192,76637,1,0,0:0:0:0:
192,192,76814,1,2,0:0:0:0:
64,192,76990,1,2,0:0:0:0:
320,192,77343,128,2,77696:0:0:0:0:
64,192,77696,1,8,0:0:0:0:
192,192,77696,1,0,0:0:0:0:
320,192,78049,1,0,0:0:0:0:
448,192,78226,1,0,0:0:0:0:
64,192,78402,1,2,0:0:0:0:
192,192,78402,1,4,0:0:0:0:
320,192,78755,128,0,79108:0:0:0:0:
64,192,79108,1,8,0:0:0:0:
448,192,79108,1,0,0:0:0:0:
192,192,79461,1,0,0:0:0:0:
320,192,79637,1,2,0:0:0:0:
448,192,79814,1,2,0:0:0:0:
64,192,80167,128,2,80520:0:0:0:0:
320,192,80520,1,8,0:0:0:0:
448,192,80520,1,0,0:0:0:0:
64,192,80873,1,0,0:0:0:0:
192,192,81226,1,2,0:0:0:0:
448,192,81226,128,4,81579:0:0:0:0:
64,192,81579,128,0,81932:0:0:0:0:
192,192,81932,128,4,82284:0:0:0:0:
448,192,81932,1,8,0:0:0:0:
320,192,82284,128,0,82637:0:0:0:0:
448,192,82637,128,2,82990:0:0:0:0:
64,192,82990,128,0,83343:0:0:0:0:
192,192,83343,128,8,83696:0:0:0:0:
448,192,83343,1,0,0:0:0:0:
320,192,83696,128,0,84049:0:0:0:0:
64,192,84049,1,2,0:0:0:0:
192,192,84049,1,4,0:0:0:0:
448,192,84402,128,0,84755:0:0:0:0:
192,192,84755,1,8,0:0:0:0:
320,192,84755,1,4,0:0:0:0:
64,192,85108,1,0,0:0:0:0:
448,192,85284,1,2,0:0:0:0:
320,192,85461,1,2,0:0:0:0:
192,192,85814,128,2,86167:0:0:0:0:
64,192,86167,1,8,0:0:0:0:
448,192,86167,1,0,0:0:0:0:
192,192,86520,1,0,0:0:0:0:
448,192,86873,1,2,0:0:0:0:
320,192,87226,128,0,87579:0:0:0:0:
64,192,87579,1,8,0:0:0:0:
192,192,87579,1,0,0:0:0:0:
448,192,87932,1,0,0:0:0:0:
320,192,88108,1,2,0:0:0:0:
192,192,88284,1,2,0:0:0:0:
64,192,88637,128,2,88990:0:0:0:0:
320,192,88990,1,8,0:0:0:0:
448,192,88990,1,0,0:0:0:0:
192,192,89343,1,0,0:0:0:0:
64,192,89696,1,2,0:0:0:0:
448,192,90049,128,0,90402:0:0:0:0:
192,192,90402,1,8,0:0:0:0:
320,192,90402,1,0,0:0:0:0:
448,192,90755,1,0,0:0:0:0:
64,192,90932,1,2,0:0:0:0:
192,192,91108,1,2,0:0:0:0:
320,192,91461,128,2,91814:0:0:0:0:
64,192,91814,1,8,0:0:0:0:
192,192,91814,1,0,0:0:0:0:
320,192,92167,1,0,0:0:0:0:
192,192,92520,1,2,0:0:0:0:
448,192,92520,1,4,0:0:0:0:
64,192,92873,128,0,93226:0:0:0:0:
192,192,93226,1,8,0:0:0:0:
320,192,93226,1,0,0:0:0:0:
64,192,93579,1,0,0:0:0:0:
448,192,93755,1,2,0:0:0:0:
192,192,93932,1,2,0:0:0:0:
448,192,94284,128,2,94637:0:0:0:0:
64,192,94637,1,8,0:0:0:0:
320,192,94637,1,0,0:0:0:0:
192,192,94990,1,0,0:0:0:0:
320,192,95343,1,2,0:0:0:0:
448,192,95343,1,4,0:0:0:0:
192,192,95696,128,0,96049:0:0:0:0:
64,192,96049,1,8,0:0:0:0:
320,192,96049,1,0,0:0:0:0:
192,192,96402,1,0,0:0:0:0:
64,192,96579,1,2,0:0:0:0:
448,192,96755,1,2,0:0:0:0:
192,192,97108,1,8,0:0:0:0:
64,192,97284,1,8,0:0:0:0:
320,192,97461,1,8,0:0:0:0:
448,192,97461,1,0,0:0:0:0:
192,192,97637,1,8,0:0:0:0:
64,192,97814,1,2,0:0:0:0:
320,192,98167,1,2,0:0:0:0:
448,192,98167,128,0,99616:0:0:0:0:
192,192,99978,1,0,0:0:0:0:
448,192,100339,1,0,0:0:0:0:
320,192,100565,128,0,101062:0:0:0:0:
64,192,101062,128,0,103592:0:0:0:0:
