osu file format v14

[General]
AudioFilename: audio.mp3
AudioLeadIn: 0
PreviewTime: 61108
Countdown: 0
SampleSet: Soft
StackLeniency: 0.7
Mode: 3
LetterboxInBreaks: 0
SpecialStyle: 0
WidescreenStoryboard: 0

[Editor]
DistanceSpacing: 0.7
BeatDivisor: 4
GridSize: 8
TimelineZoom: 0.8

[Metadata]
Title:Hikari no Michishirube (TV Size)
TitleUnicode:光の道標 (TV Size)
Artist:Kano
ArtistUnicode:鹿乃
Creator:LLENN-
Version:Easy
Source:アズールレーン
Tags:Ending ed Theme Azur Lane The Animation dudehacker Anime Japanese 碧蓝航线 벽람항로 cut short Drum-Hitnormal
BeatmapID:2316328
BeatmapSetID:1108353

[Difficulty]
HPDrainRate:6.5
CircleSize:4
OverallDifficulty:7
ApproachRate:5
SliderMultiplier:1.4
SliderTickRate:1

[Events]
//Background and Video events
0,0,"BG2.jpg",0,0
//Break Periods
//Storyboard Layer 0 (Background)
//Storyboard Layer 1 (Fail)
//Storyboard Layer 2 (Pass)
//Storyboard Layer 3 (Foreground)
//Storyboard Layer 4 (Overlay)
//Storyboard Sound Samples

[TimingPoints]
2022,705.882352941176,4,2,1,70,1,0
16285,705.882352941176,4,2,1,70,1,0
61461,-100,4,2,1,70,0,1
98171,722.89156626506,4,2,1,70,1,0
98171,-98.0392156862745,4,2,1,70,0,0

[HitObjects]
64,192,2021,128,0,3433:0:0:0:0:
448,192,2727,1,0,0:0:0:0:
192,192,3433,128,0,4845:0:0:0:0:
448,192,4139,1,0,0:0:0:0:
320,192,4845,128,0,6257:0:0:0:0:
64,192,5551,1,0,0:0:0:0:
448,192,6257,128,0,7669:0:0:0:0:
64,192,6963,1,0,0:0:0:0:
320,192,7669,1,0,0:0:0:0:
64,192,8021,1,0,0:0:0:0:
448,192,8374,1,0,0:0:0:0:
192,192,8727,128,0,9433:0:0:0:0:
320,192,9433,1,0,0:0:0:0:
64,192,9786,128,0,10139:0:0:0:0:
448,192,10139,1,0,0:0:0:0:
192,192,10492,1,0,0:0:0:0:
320,192,10845,1,0,0:0:0:0:
448,192,11551,128,0,13536:0:0:0:0:
192,192,13536,1,0,0:0:0:0:
320,192,15610,1,0,0:0:0:0:
192,192,15963,1,0,0:0:0:0:
64,192,16285,1,0,0:0:0:0:
192,192,16990,1,0,0:0:0:0:
320,192,17343,1,0,0:0:0:0:
448,192,17696,1,0,0:0:0:0:
320,192,18402,1,0,0:0:0:0:
192,192,18755,1,0,0:0:0:0:
64,192,19108,1,0,0:0:0:0:
192,192,19814,1,0,0:0:0:0:
320,192,20520,1,0,0:0:0:0:
448,192,21226,1,0,0:0:0:0:
64,192,21579,1,0,0:0:0:0:
192,192,21932,1,0,0:0:0:0:
320,192,22637,1,0,0:0:0:0:
448,192,23343,1,0,0:0:0:0:
64,192,24049,1,0,0:0:0:0:
320,192,24755,1,0,0:0:0:0:
448,192,25461,1,0,0:0:0:0:
192,192,26167,1,0,0:0:0:0:
64,192,26873,1,0,0:0:0:0:
192,192,27226,1,0,0:0:0:0:
448,192,27579,1,0,0:0:0:0:
320,192,28284,1,0,0:0:0:0:
192,192,28637,1,0,0:0:0:0:
64,192,28990,1,0,0:0:0:0:
448,192,29696,1,0,0:0:0:0:
64,192,30402,1,0,0:0:0:0:
192,192,31108,1,0,0:0:0:0:
320,192,31814,1,0,0:0:0:0:
448,192,32520,1,0,0:0:0:0:
320,192,32873,1,0,0:0:0:0:
192,192,33226,1,0,0:0:0:0:
64,192,33932,1,0,0:0:0:0:
192,192,34284,1,0,0:0:0:0:
320,192,34637,1,0,0:0:0:0:
448,192,35343,1,0,0:0:0:0:
192,192,35696,1,0,0:0:0:0:
64,192,36049,128,0,36402:0:0:0:0:
448,192,36402,128,0,36755:0:0:0:0:
192,192,36755,1,0,0:0:0:0:
320,192,37108,128,0,38873:0:0:0:0:
64,192,38873,1,0,0:0:0:0:
192,192,39579,1,0,0:0:0:0:
320,192,40284,1,0,0:0:0:0:
448,192,40990,1,0,0:0:0:0:
64,192,41696,1,0,0:0:0:0:
448,192,42402,1,0,0:0:0:0:
192,192,43108,1,0,0:0:0:0:
320,192,43461,1,0,0:0:0:0:
64,192,43814,1,0,0:0:0:0:
448,192,44520,1,0,0:0:0:0:
64,192,45226,1,0,0:0:0:0:
192,192,45932,1,0,0:0:0:0:
448,192,46637,1,0,0:0:0:0:
192,192,47343,1,0,0:0:0:0:
64,192,48049,128,0,48755:0:0:0:0:
192,192,48755,128,0,49461:0:0:0:0:
320,192,49461,128,0,50167:0:0:0:0:
448,192,50167,1,0,0:0:0:0:
64,192,50873,1,0,0:0:0:0:
192,192,51579,1,0,0:0:0:0:
448,192,52284,1,0,0:0:0:0:
64,192,52990,1,0,0:0:0:0:
320,192,53696,1,0,0:0:0:0:
192,192,54402,1,0,0:0:0:0:
448,192,54755,1,0,0:0:0:0:
64,192,55108,1,0,0:0:0:0:
320,192,55814,1,4,0:0:0:0:
448,192,55814,128,2,56520:0:0:0:0:
64,192,56520,128,0,56873:0:0:0:0:
192,192,56873,128,0,57226:0:0:0:0:
320,192,57226,128,0,57579:0:0:0:0:
448,192,57579,128,0,57932:0:0:0:0:
64,192,57932,128,0,58284:0:0:0:0:
192,192,58284,128,0,58637:0:0:0:0:
448,192,58637,1,0,0:0:0:0:
64,192,58990,1,0,0:0:0:0:
448,192,59343,1,0,0:0:0:0:
64,192,59696,1,0,0:0:0:0:
448,192,60049,1,0,0:0:0:0:
64,192,61461,1,4,0:0:0:0:
192,192,61461,1,2,0:0:0:0:
448,192,62167,1,8,0:0:0:0:
192,192,62696,1,2,0:0:0:0:
320,192,62873,1,2,0:0:0:0:
64,192,63226,1,2,0:0:0:0:
448,192,63579,1,8,0:0:0:0:
192,192,64284,1,2,0:0:0:0:
64,192,64990,1,8,0:0:0:0:
320,192,65520,1,2,0:0:0:0:
192,192,65696,1,2,0:0:0:0:
448,192,66049,1,2,0:0:0:0:
64,192,66402,1,8,0:0:0:0:
448,192,67108,1,2,0:0:0:0:
64,192,67814,1,8,0:0:0:0:
320,192,68343,1,2,0:0:0:0:
448,192,68520,1,2,0:0:0:0:
64,192,68873,1,2,0:0:0:0:
192,192,69226,1,8,0:0:0:0:
320,192,69932,1,2,0:0:0:0:
64,192,70637,1,8,0:0:0:0:
320,192,71167,1,2,0:0:0:0:
192,192,71343,1,2,0:0:0:0:
448,192,71696,1,2,0:0:0:0:
64,192,72049,1,8,0:0:0:0:
192,192,72755,1,2,0:0:0:0:
320,192,72755,1,4,0:0:0:0:
448,192,73461,1,8,0:0:0:0:
192,192,73990,1,2,0:0:0:0:
320,192,74167,1,2,0:0:0:0:
64,192,74520,1,2,0:0:0:0:
448,192,74873,1,8,0:0:0:0:
320,192,75579,1,2,0:0:0:0:
64,192,76108,1,2,0:0:0:0:
192,192,76284,1,8,0:0:0:0:
448,192,76814,1,2,0:0:0:0:
320,192,76990,1,2,0:0:0:0:
64,192,77343,1,2,0:0:0:0:
192,192,77696,1,8,0:0:0:0:
64,192,78402,1,2,0:0:0:0:
448,192,78402,1,4,0:0:0:0:
192,192,79108,1,8,0:0:0:0:
320,192,79637,1,2,0:0:0:0:
192,192,79814,1,2,0:0:0:0:
448,192,80167,1,2,0:0:0:0:
64,192,80520,1,8,0:0:0:0:
320,192,81226,1,2,0:0:0:0:
448,192,81226,128,4,81932:0:0:0:0:
64,192,81932,128,4,82637:0:0:0:0:
192,192,81932,1,8,0:0:0:0:
320,192,82637,128,2,83343:0:0:0:0:
192,192,83343,128,8,84049:0:0:0:0:
320,192,84049,1,2,0:0:0:0:
448,192,84049,1,4,0:0:0:0:
64,192,84755,1,8,0:0:0:0:
320,192,84755,1,4,0:0:0:0:
192,192,85284,1,2,0:0:0:0:
448,192,85461,1,2,0:0:0:0:
192,192,85814,1,2,0:0:0:0:
64,192,86167,1,8,0:0:0:0:
320,192,86873,1,2,0:0:0:0:
448,192,87579,1,8,0:0:0:0:
192,192,88108,1,2,0:0:0:0:
320,192,88284,1,2,0:0:0:0:
448,192,88637,1,2,0:0:0:0:
64,192,88990,1,8,0:0:0:0:
192,192,89696,1,2,0:0:0:0:
448,192,90402,1,8,0:0:0:0:
192,192,90932,1,2,0:0:0:0:
64,192,91108,1,2,0:0:0:0:
448,192,91461,1,2,0:0:0:0:
320,192,91814,1,8,0:0:0:0:
64,192,92520,1,2,0:0:0:0:
320,192,92520,1,4,0:0:0:0:
448,192,93226,1,8,0:0:0:0:
192,192,93755,1,2,0:0:0:0:
320,192,93932,1,2,0:0:0:0:
64,192,94284,1,2,0:0:0:0:
448,192,94637,1,8,0:0:0:0:
192,192,95343,1,2,0:0:0:0:
320,192,95343,1,4,0:0:0:0:
64,192,96049,1,8,0:0:0:0:
320,192,96579,1,2,0:0:0:0:
192,192,96755,1,2,0:0:0:0:
448,192,97108,1,8,0:0:0:0:
64,192,97461,128,8,98171:0:0:0:0:
320,192,98171,1,4,0:0:0:0:
448,192,98171,128,0,99616:0:0:0:0:
192,192,99978,1,0,0:0:0:0:
64,192,100339,128,0,101062:0:0:0:0:
448,192,101062,128,0,103592:0:0:0:0:
