osu file format v14

[General]
AudioFilename: audio.mp3
AudioLeadIn: 0
PreviewTime: 63323
Countdown: 0
SampleSet: Soft
StackLeniency: 0.7
Mode: 0
LetterboxInBreaks: 0
WidescreenStoryboard: 0

[Editor]
Bookmarks: 100542
DistanceSpacing: 1.1
BeatDivisor: 4
GridSize: 32
TimelineZoom: 2.1

[Metadata]
Title:Haruzion
TitleUnicode:Haruzion
Artist:Kano
ArtistUnicode:鹿乃
Creator:YukiZura-
Version:Together
Source:
Tags:アルストロメリア Alstroemeria Irya japanese
BeatmapID:1829663
BeatmapSetID:875533

[Difficulty]
HPDrainRate:5.2
CircleSize:4
OverallDifficulty:8
ApproachRate:8.5
SliderMultiplier:1.9
SliderTickRate:1

[Events]
//Background and Video events
0,0,"ok.jpg",0,0
//Break Periods
//Storyboard Layer 0 (Background)
//Storyboard Layer 1 (Fail)
//Storyboard Layer 2 (Pass)
//Storyboard Layer 3 (Foreground)
//Storyboard Sound Samples

[TimingPoints]
449,375,4,2,1,40,1,0
449,-200,4,2,1,40,0,0
3449,-200,4,2,1,40,0,0
9824,-200,4,2,1,5,0,0
12074,-200,4,2,1,40,0,0
13949,-142.857142857143,4,2,1,60,0,0
18449,-142.857142857143,4,2,1,53,0,0
18824,-142.857142857143,4,2,1,45,0,0
19199,-142.857142857143,4,2,1,40,0,0
19574,-142.857142857143,4,2,1,60,0,0
19949,-125,4,2,1,50,0,0
22949,-111.111111111111,4,2,1,40,0,0
23136,-111.111111111111,4,2,1,30,0,0
23324,-100,4,2,1,50,0,0
23699,-90.9090909090909,4,2,1,60,0,0
23886,-90.9090909090909,4,2,1,50,0,0
24074,-83.3333333333333,4,2,1,70,0,0
24449,-76.9230769230769,4,2,1,80,0,0
24636,-76.9230769230769,4,2,1,70,0,0
24824,-71.4285714285714,4,2,1,90,0,0
25199,-66.6666666666667,4,2,1,90,0,0
25949,-166.666666666667,4,2,1,40,0,0
37855,-166.666666666667,4,2,1,5,0,0
37949,-166.666666666667,4,2,1,40,0,0
49949,-125,4,2,1,45,0,0
52855,-125,4,2,1,5,0,0
52949,-125,4,2,1,50,0,0
63449,-200,4,2,1,50,0,0
64949,-100,4,2,1,80,0,1
88949,-200,4,2,1,40,0,0
97771,375,4,2,1,40,1,0
97958,-200,4,2,1,40,0,0
98334,-200,4,2,1,5,0,0

[Colours]
Combo1 : 255,255,4
Combo2 : 255,21,21
Combo3 : 255,141,28
Combo4 : 255,28,255

[HitObjects]
67,91,449,5,2,0:0:0:0:
100,298,3449,5,2,0:0:0:0:
196,91,5324,5,2,0:0:0:0:
132,212,5699,1,2,0:0:0:0:
337,51,6449,5,2,0:0:0:0:
432,187,7761,1,2,0:0:0:0:
351,354,9261,5,2,0:0:0:0:
351,354,9355,1,2,0:0:0:0:
351,354,9449,6,0,B|290:298|201:342|201:342|118:372|-3:324|-20:162|107:81|235:101|258:216,1,665,2|0,0:0|0:0,0:0:0:0:
351,354,12449,5,2,0:0:0:0:
372,271,12824,1,2,0:0:0:0:
393,188,13199,1,2,0:0:0:0:
412,104,13574,1,2,0:0:0:0:
351,354,13949,6,0,P|276:332|136:344,1,199.499993911743,14|0,0:0|0:0,0:0:0:0:
35,268,14699,2,0,P|79:254|106:234,1,66.4999979705811,2|0,0:0|0:0,0:0:0:0:
145,140,15074,1,2,0:0:0:0:
27,162,15261,1,2,0:0:0:0:
246,244,15449,6,0,L|238:152,1,66.4999979705811,2|0,0:0|0:0,0:0:0:0:
357,70,15824,2,0,L|351:136,1,66.4999979705811,2|0,0:0|0:0,0:0:0:0:
236,247,16199,2,0,L|228:155,1,66.4999979705811,2|0,0:0|0:0,0:0:0:0:
367,70,16574,2,0,L|361:136,1,66.4999979705811,2|0,0:0|0:0,0:0:0:0:
178,65,16949,6,0,P|114:37|23:38,1,132.999995941162,10|0,0:0|0:0,0:0:0:0:
0,184,17511,1,2,0:0:0:0:
16,190,17636,2,0,L|41:250,1,44.3333319803874,0|0,3:2|3:2,0:0:0:0:
95,341,17886,1,0,3:2:0:0:
203,373,18074,1,2,3:2:0:0:
303,322,18261,1,0,3:2:0:0:
333,218,18449,5,4,3:3:0:0:
273,140,18636,1,4,3:3:0:0:
279,53,18824,1,6,3:3:0:0:
350,17,19011,1,4,3:3:0:0:
421,33,19199,1,6,3:3:0:0:
442,81,19386,1,4,3:3:0:0:
333,217,19574,2,0,P|289:220|214:237,1,99.7499969558717,10|0,0:0|0:0,0:0:0:0:
101,263,19949,6,0,P|182:260|325:310,1,228,14|0,0:0|0:0,0:0:0:0:
397,381,20699,1,2,0:0:0:0:
412,296,21074,1,2,0:0:0:0:
188,384,21449,5,2,0:0:0:0:
123,248,21636,1,0,3:2:0:0:
123,248,21730,1,0,3:2:0:0:
123,248,21824,1,0,3:2:0:0:
62,335,22011,1,0,3:2:0:0:
219,142,22199,5,6,0:3:0:0:
28,255,22386,1,6,0:3:0:0:
292,86,22949,6,0,P|348:75|388:78,1,85.4999973907472,8|0,3:2|0:0,0:0:0:0:
276,216,23324,2,0,P|220:227|171:223,1,95,0|0,3:2|0:0,0:0:0:0:
289,63,23699,6,0,P|345:52|395:57,1,104.500003189087,8|0,3:2|0:0,0:0:0:0:
276,235,24074,2,0,P|220:246|161:242,1,113.999996520996,8|0,3:2|0:0,0:0:0:0:
289,46,24449,6,0,P|345:35|419:48,1,123.499994346619,8|0,3:2|0:0,0:0:0:0:
275,251,24824,2,0,P|219:262|139:253,1,132.999995941162,8|2,3:2|0:0,0:0:0:0:
291,33,25199,5,10,0:0:0:0:
272,267,25386,1,8,0:0:0:0:
147,25,25574,1,8,0:0:0:0:
457,210,25761,1,8,0:0:0:0:
395,141,25949,6,0,P|340:150|276:154,1,113.999996520996,2|2,3:2|0:0,0:0:0:0:
156,101,26699,1,2,0:0:0:0:
156,101,26886,2,0,L|165:166,1,56.9999982604981,2|0,0:0|0:0,0:0:0:0:
93,231,27261,1,2,0:0:0:0:
93,231,27448,6,0,L|84:296,1,56.9999982604981,2|0,0:0|0:0,0:0:0:0:
134,367,27824,1,2,3:2:0:0:
214,294,28011,2,0,P|255:283|290:286,1,56.9999982604981,2|0,0:0|0:0,0:0:0:0:
345,348,28386,1,2,0:0:0:0:
431,316,28574,2,0,L|444:244,1,56.9999982604981,2|2,0:0|0:0,0:0:0:0:
364,193,28949,6,0,L|356:249,1,56.9999982604981,0|0,3:2|0:0,0:0:0:0:
381,118,29324,1,2,0:0:0:0:
381,118,29699,1,2,0:0:0:0:
329,49,29886,1,2,0:0:0:0:
270,117,30074,1,2,0:0:0:0:
214,55,30261,1,2,0:0:0:0:
142,148,30449,6,0,L|151:223,2,56.9999982604981,2|0|0,0:0|0:0|3:2,0:0:0:0:
53,112,31011,2,0,L|44:187,1,56.9999982604981,2|0,0:0|0:0,0:0:0:0:
77,261,31386,1,2,0:0:0:0:
77,261,31574,2,0,L|86:336,1,56.9999982604981,2|2,0:0|0:0,0:0:0:0:
176,346,31949,6,0,L|182:289,1,56.9999982604981,0|0,3:2|0:0,0:0:0:0:
193,207,32324,1,0,0:0:0:0:
309,305,32699,2,0,L|365:294,1,56.9999982604981,2|0,0:0|0:0,0:0:0:0:
465,216,33074,2,0,L|398:202,1,56.9999982604981,2|2,0:0|0:0,0:0:0:0:
284,129,33449,6,0,L|340:118,1,56.9999982604981,2|0,0:0|0:0,0:0:0:0:
459,48,33824,2,0,L|403:36,1,56.9999982604981,2|0,3:2|0:0,0:0:0:0:
340,118,34199,2,0,L|284:129,1,56.9999982604981,2|0,0:0|0:0,0:0:0:0:
195,76,34574,2,0,L|139:64,1,56.9999982604981,2|0,0:0|0:0,0:0:0:0:
56,160,34949,6,0,P|141:220|180:346,1,227.999993041992,2|0,3:2|0:0,0:0:0:0:
307,251,36261,1,2,0:0:0:0:
307,251,36449,6,0,L|312:307,1,56.9999982604981,2|2,0:0|0:0,0:0:0:0:
410,336,36824,2,0,L|417:268,1,56.9999982604981,0|0,3:2|0:0,0:0:0:0:
455,196,37199,2,0,L|448:128,1,56.9999982604981,2|0,0:0|0:0,0:0:0:0:
378,62,37574,2,0,P|344:80|285:85,1,85.4999973907472,2|0,0:0|0:0,0:0:0:0:
272,73,37949,6,0,P|238:55|158:50,1,113.999996520996,2|0,3:2|0:0,0:0:0:0:
71,108,38511,1,0,0:0:0:0:
32,209,38699,2,0,P|88:207|140:184,1,113.999996520996,0|0,0:0|0:0,0:0:0:0:
248,166,39261,1,2,0:0:0:0:
198,267,39449,6,0,P|192:317|196:365,2,85.4999973907472,2|0|0,0:0|0:0|0:0,0:0:0:0:
248,166,40199,2,0,P|285:168|315:175,1,56.9999982604981,2|0,0:0|0:0,0:0:0:0:
412,205,40574,2,0,P|406:177|406:149,1,56.9999982604981,2|0,0:0|0:0,0:0:0:0:
386,50,40949,6,0,P|343:60|252:67,1,113.999996520996,2|0,3:2|0:0,0:0:0:0:
106,151,41699,2,0,P|162:155|218:168,1,113.999996520996,2|0,0:0|0:0,0:0:0:0:
397,236,42449,2,0,P|354:246|263:253,1,113.999996520996,2|0,0:0|3:2,0:0:0:0:
111,331,43199,2,0,P|167:335|223:348,1,113.999996520996,2|0,0:0|0:0,0:0:0:0:
329,146,43949,6,0,P|359:194|402:239,2,113.999996520996,2|0|0,3:2|0:0|0:0,0:0:0:0:
247,50,44886,1,2,0:0:0:0:
219,173,45074,1,2,0:0:0:0:
94,123,45261,1,2,0:0:0:0:
116,339,45449,5,2,0:0:0:0:
116,339,45824,2,0,P|153:330|190:330,1,56.9999982604981,2|0,3:2|0:0,0:0:0:0:
270,356,46199,2,0,P|297:363|325:366,1,56.9999982604981,2|0,0:0|0:0,0:0:0:0:
417,326,46574,2,0,P|454:317|491:317,1,56.9999982604981,2|0,0:0|0:0,0:0:0:0:
353,188,46949,6,0,P|368:251|320:175,1,284.999991302491,2|2,3:2|3:2,0:0:0:0:
400,81,48261,2,0,L|428:76,2,18.999999420166,2|0|0,0:0|0:0|0:0,0:0:0:0:
367,65,48449,6,0,B|250:13|190:126|80:54,1,284.999991302491,2|0,0:0|0:0,0:0:0:0:
41,166,49949,6,0,P|60:211|64:253,1,76,0|0,3:2|0:0,0:0:0:0:
163,332,50324,2,0,P|169:294|185:260,1,76,2|0,0:0|0:0,0:0:0:0:
143,184,50699,1,2,0:0:0:0:
77,321,50886,1,0,0:0:0:0:
264,209,51074,2,0,L|351:217,1,76,2|0,0:0|0:0,0:0:0:0:
424,319,51449,6,0,L|348:325,1,76,2|0,3:2|0:0,0:0:0:0:
266,193,51824,2,0,L|353:201,1,76,2|0,0:0|0:0,0:0:0:0:
427,334,52199,2,0,L|351:340,1,76,2|0,0:0|0:0,0:0:0:0:
228,110,52574,2,0,L|374:122,1,114,2|0,0:0|0:0,0:0:0:0:
381,126,52949,5,0,3:2:0:0:
340,353,53324,1,2,0:0:0:0:
270,290,53511,2,0,P|230:291|186:300,1,76,2|0,0:0|0:0,0:0:0:0:
113,359,53886,2,0,P|73:358|29:349,1,76,2|0,0:0|0:0,0:0:0:0:
90,266,54261,6,0,P|96:228|97:190,1,76,2|0,0:0|3:2,0:0:0:0:
16,95,54636,1,2,0:0:0:0:
93,169,54824,1,2,0:0:0:0:
172,73,55011,2,0,P|211:60|263:53,1,76,2|0,0:0|0:0,0:0:0:0:
328,120,55386,2,0,P|396:151|481:130,1,152,2|0,0:0|0:0,0:0:0:0:
453,249,55949,6,0,P|443:295|442:338,1,76,2|0,3:2|0:0,0:0:0:0:
366,381,56324,1,0,0:0:0:0:
304,258,56511,1,0,0:0:0:0:
205,358,56699,2,0,P|141:382|39:376,1,152,2|0,0:0|0:0,0:0:0:0:
74,145,57261,1,2,0:0:0:0:
74,145,57449,6,0,P|79:206|117:291,1,152,2|0,3:2|0:0,0:0:0:0:
198,189,58199,2,0,P|208:142|224:113,1,76,2|0,0:0|0:0,0:0:0:0:
307,272,58574,2,0,P|323:306|329:343,1,76,2|0,0:0|0:0,0:0:0:0:
399,132,58949,6,0,P|478:137|484:198,1,152,2|8,3:2|0:0,0:0:0:0:
387,226,59511,1,2,0:0:0:0:
228,101,59699,2,0,P|176:92|74:115,1,152,8|0,0:0|0:0,0:0:0:0:
72,251,60261,1,2,0:0:0:0:
72,251,60449,6,0,P|144:270|220:261,1,152,10|0,0:0|0:0,0:0:0:0:
297,190,61011,1,0,3:2:0:0:
304,207,61105,1,0,3:2:0:0:
310,224,61199,5,4,3:3:0:0:
220,67,61386,1,4,3:3:0:0:
72,251,61574,1,8,3:2:0:0:
437,129,61761,1,8,3:2:0:0:
437,129,63449,5,2,0:0:0:0:
426,213,63824,1,2,0:0:0:0:
414,297,64199,1,2,0:0:0:0:
400,381,64574,1,2,0:0:0:0:
437,129,64949,6,0,P|334:132|244:106,1,190,14|0,0:0|0:0,0:0:0:0:
50,41,65511,1,0,3:2:0:0:
150,185,65699,2,0,P|163:235|168:306,1,95,8|0,0:0|0:0,0:0:0:0:
174,72,66074,1,2,0:0:0:0:
70,253,66261,1,2,3:2:0:0:
266,162,66449,6,0,P|313:143|368:137,1,95,2|0,0:0|3:2,0:0:0:0:
192,374,66824,2,0,P|145:367|101:348,1,95,2|0,3:2|0:0,0:0:0:0:
336,231,67199,2,0,P|382:250|425:285,1,95,10|0,0:0|3:2,0:0:0:0:
167,277,67574,1,2,0:0:0:0:
291,141,67761,1,8,0:0:0:0:
192,374,67949,6,0,P|94:340|79:238,1,190,2|0,3:2|0:0,0:0:0:0:
26,95,68511,1,2,3:2:0:0:
207,167,68699,2,0,P|247:170|310:159,1,95,10|0,0:0|0:0,0:0:0:0:
122,59,69074,2,0,P|75:51|27:53,1,95,2|0,0:0|3:2,0:0:0:0:
207,167,69449,5,0,0:0:0:0:
259,66,69636,1,0,0:0:0:0:
389,225,69824,2,0,L|376:337,1,95,2|0,3:2|0:0,0:0:0:0:
202,278,70199,2,0,L|191:183,1,95,10|0,0:0|3:2,0:0:0:0:
275,364,70574,1,2,0:0:0:0:
92,263,70761,1,8,0:0:0:0:
262,83,70949,6,0,P|334:49|458:59,1,190,6|0,3:2|0:0,0:0:0:0:
505,170,71511,1,0,3:2:0:0:
382,316,71699,2,0,P|325:319|266:327,1,95,8|0,0:0|0:0,0:0:0:0:
114,281,72074,1,2,0:0:0:0:
277,187,72261,1,2,3:2:0:0:
71,366,72449,6,0,L|91:263,1,95,2|0,0:0|3:2,0:0:0:0:
170,134,72824,2,0,L|150:31,1,95,0|0,3:2|0:0,0:0:0:0:
401,221,73199,2,0,L|382:314,1,95,10|0,0:0|3:2,0:0:0:0:
360,108,73574,1,0,0:0:0:0:
500,281,73761,1,8,0:0:0:0:
264,203,73949,6,0,P|223:205|155:232,2,95,2|8|0,3:2|0:0|0:0,0:0:0:0:
361,227,74511,1,0,3:2:0:0:
97,289,74699,2,0,P|77:236|76:168,1,95,8|0,0:0|0:0,0:0:0:0:
175,44,75074,2,0,P|169:91|152:135,1,95,8|0,0:0|0:0,0:0:0:0:
327,83,75449,6,0,P|377:52|429:44,1,95,2|8,0:0|0:0,0:0:0:0:
479,249,75824,1,10,0:0:0:0:
410,139,76011,1,10,0:0:0:0:
366,315,76199,5,0,3:2:0:0:
388,227,76386,1,0,3:2:0:0:
290,263,76574,1,6,3:3:0:0:
312,175,76761,1,6,3:3:0:0:
204,306,76949,6,0,B|134:296|134:296|7:344,1,190,14|0,0:0|0:0,0:0:0:0:
145,377,77511,1,0,3:2:0:0:
46,232,77699,2,0,P|10:164|3:42,1,190,8|0,0:0|0:0,0:0:0:0:
119,117,78261,1,0,3:2:0:0:
196,32,78449,6,0,P|243:14|311:17,1,95,2|0,0:0|3:2,0:0:0:0:
368,89,78824,1,0,3:2:0:0:
368,89,79011,2,0,P|415:107|483:104,2,95,2|8|0,0:0|0:0|3:2,0:0:0:0:
197,233,79574,1,2,0:0:0:0:
263,99,79761,1,10,0:0:0:0:
462,257,79949,6,0,L|455:370,1,95,10|0,0:0|3:2,0:0:0:0:
490,140,80324,1,0,3:2:0:0:
359,255,80511,1,12,0:0:0:0:
253,68,80699,2,0,P|195:50|132:51,1,95,2|0,0:0|0:0,0:0:0:0:
364,158,81074,2,0,P|411:153|455:138,1,95,10|0,3:2|3:2,0:0:0:0:
194,152,81449,5,2,3:2:0:0:
194,152,81636,2,0,P|232:242|225:342,1,190,14|0,0:0|0:0,0:0:0:0:
77,229,82199,1,10,0:0:0:0:
218,355,82386,1,10,0:0:0:0:
187,129,82574,1,2,3:2:0:0:
141,301,82761,1,2,3:2:0:0:
272,74,82949,6,0,P|407:42|494:164,1,285,14|0,0:0|3:2,0:0:0:0:
249,255,83699,1,10,0:0:0:0:
365,146,83886,1,2,0:0:0:0:
475,326,84074,2,0,P|422:316|352:317,1,95,2|0,0:0|3:2,0:0:0:0:
198,365,84449,6,0,P|148:378|104:376,1,95,10|0,0:0|3:2,0:0:0:0:
129,179,84824,2,0,P|175:164|222:167,1,95,0|0,3:2|0:0,0:0:0:0:
73,270,85199,1,10,0:0:0:0:
195,56,85386,2,0,P|288:78|340:187,1,190,2|8,3:2|0:0,0:0:0:0:
453,248,85949,6,0,P|457:183|476:140,1,95,6|0,3:2|0:0,0:0:0:0:
372,334,86324,2,0,P|325:352|265:350,1,95,0|0,0:0|0:0,0:0:0:0:
153,267,86699,2,0,P|63:256|5:332,1,190,8|0,0:0|0:0,0:0:0:0:
253,263,87261,1,0,0:0:0:0:
73,126,87449,5,10,0:0:0:0:
101,338,87636,1,2,3:2:0:0:
261,102,87824,2,0,P|310:74|445:73,1,190,10|0,0:0|3:2,0:0:0:0:
372,334,88386,5,8,0:0:0:0:
73,126,88574,1,8,0:0:0:0:
153,182,88949,5,2,3:2:0:0:
111,354,91949,5,2,3:2:0:0:
379,267,93824,5,2,3:2:0:0:
256,316,94199,1,2,0:0:0:0:
351,86,94949,5,2,3:2:0:0:
402,250,96261,1,2,0:0:0:0:
105,107,97771,5,2,0:0:0:0:
105,107,97864,1,2,0:0:0:0:
105,107,97958,2,0,B|192:158|292:100|292:100|366:60|199:126|210:253|210:253|355:288|397:139,1,665,2|0,3:2|0:0,0:0:0:0:
