osu file format v14

[General]
AudioFilename: audio.mp3
AudioLeadIn: 0
PreviewTime: 63323
Countdown: 0
SampleSet: Soft
StackLeniency: 0.7
Mode: 0
LetterboxInBreaks: 0
WidescreenStoryboard: 1

[Editor]
DistanceSpacing: 1
BeatDivisor: 4
GridSize: 8
TimelineZoom: 2.1

[Metadata]
Title:Haruzion
TitleUnicode:Haruzion
Artist:Kano
ArtistUnicode:鹿乃
Creator:YukiZura-
Version:Irya's Normal
Source:
Tags:アルストロメリア Alstroemeria Irya japanese
BeatmapID:1838470
BeatmapSetID:875533

[Difficulty]
HPDrainRate:3.5
CircleSize:3.2
OverallDifficulty:4
ApproachRate:5
SliderMultiplier:1.1
SliderTickRate:1

[Events]
//Background and Video events
0,0,"ok.jpg",0,0
//Break Periods
//Storyboard Layer 0 (Background)
//Storyboard Layer 1 (Fail)
//Storyboard Layer 2 (Pass)
//Storyboard Layer 3 (Foreground)
//Storyboard Sound Samples

[TimingPoints]
449,375,4,2,1,40,1,0
9449,-100,4,2,1,35,0,0
10199,-100,4,2,1,40,0,0
10949,-100,4,2,1,45,0,0
11699,-100,4,2,1,50,0,0
12074,-100,4,2,1,55,0,0
13949,-100,4,2,1,60,0,0
19949,-100,4,2,1,50,0,0
22949,-100,4,2,1,30,0,0
23324,-100,4,2,1,40,0,0
23699,-100,4,2,1,50,0,0
24074,-100,4,2,1,60,0,0
24449,-100,4,2,1,70,0,0
24824,-100,4,2,1,80,0,0
25199,-100,4,2,1,80,0,0
25574,-100,4,2,1,80,0,0
25949,-100,4,2,1,40,0,0
40949,-100,4,2,1,40,0,0
49949,-100,4,2,1,45,0,0
52949,-100,4,2,1,50,0,0
64949,-100,4,2,1,80,0,1
88949,-100,4,2,1,40,0,0
97771,375,4,2,1,40,1,0

[Colours]
Combo1 : 209,167,202
Combo2 : 183,19,183
Combo3 : 241,157,31
Combo4 : 98,89,176

[HitObjects]
256,192,9449,12,0,12074,0:0:0:0:
0,121,13949,6,0,L|127:114,1,110,14|0,0:0|0:0,0:0:0:0:
205,61,14699,1,2,0:0:0:0:
303,110,15074,1,2,0:0:0:0:
362,202,15449,2,0,P|310:217|252:207,1,110,2|2,0:0|0:0,0:0:0:0:
303,110,16199,2,0,P|354:94|412:104,1,110,2|2,0:0|0:0,0:0:0:0:
362,202,16949,6,0,L|368:329,1,110,10|0,0:0|0:0,0:0:0:0:
324,345,17511,1,2,0:0:0:0:
228,296,17886,1,0,3:2:0:0:
228,296,18074,2,0,P|174:287|121:303,1,110,2|4,3:2|3:3,0:0:0:0:
74,329,18636,1,4,3:3:0:0:
74,329,18824,2,0,L|67:219,1,110,6|6,3:3|3:3,0:0:0:0:
60,109,19574,1,10,0:0:0:0:
149,44,19949,6,0,B|214:63|266:51|250:35|314:16|370:39,1,220,14|2,0:0|0:0,0:0:0:0:
433,122,21074,1,2,0:0:0:0:
479,221,21449,2,0,P|425:229|373:213,1,110,2|0,0:0|3:2,0:0:0:0:
302,129,22199,1,6,0:3:0:0:
302,129,22386,1,6,0:3:0:0:
137,138,22949,5,8,3:2:0:0:
27,143,23324,1,0,3:2:0:0:
87,235,23699,1,8,3:2:0:0:
196,227,24074,1,8,3:2:0:0:
306,223,24449,1,8,3:2:0:0:
255,320,24824,1,8,3:2:0:0:
196,227,25199,2,0,L|192:172,1,55,10|8,0:0|0:0,0:0:0:0:
229,131,25574,2,0,L|225:76,1,55,8|8,0:0|0:0,0:0:0:0:
221,21,25949,5,2,3:2:0:0:
328,42,26324,1,2,0:0:0:0:
436,23,26699,2,0,L|442:132,1,110,2|0,0:0|0:0,0:0:0:0:
447,242,27449,2,0,P|393:255|340:244,1,110,2|2,0:0|3:2,0:0:0:0:
290,222,28011,2,0,P|235:216|184:237,1,110,2|2,0:0|0:0,0:0:0:0:
143,273,28574,1,2,0:0:0:0:
33,274,28949,6,0,P|12:223|18:169,1,110,0|2,3:2|0:0,0:0:0:0:
73,71,29699,2,0,L|69:16,2,55,2|2|2,0:0|0:0|0:0,0:0:0:0:
183,69,30449,2,0,L|292:63,1,110,2|0,0:0|3:2,0:0:0:0:
342,87,31011,2,0,L|451:81,1,110,2|2,0:0|0:0,0:0:0:0:
507,77,31574,1,2,0:0:0:0:
484,184,31949,6,0,P|431:199|378:189,1,110,0|0,3:2|0:0,0:0:0:0:
275,150,32699,1,2,0:0:0:0:
173,191,33074,1,2,0:0:0:0:
81,252,33449,2,0,P|65:199|75:146,1,110,2|2,0:0|3:2,0:0:0:0:
173,191,34199,2,0,P|188:243|178:296,1,110,2|2,0:0|0:0,0:0:0:0:
87,358,34949,6,0,L|319:345,1,220,2|0,3:2|0:0,0:0:0:0:
471,340,36261,1,2,0:0:0:0:
471,340,36449,2,0,L|477:231,1,110,2|0,0:0|0:0,0:0:0:0:
382,172,37199,1,2,0:0:0:0:
278,210,37574,1,2,0:0:0:0:
183,266,37949,6,0,B|164:201|176:149|192:164|211:101|188:45,1,220,2|0,3:2|0:0,0:0:0:0:
25,56,39261,1,2,0:0:0:0:
25,56,39449,2,0,B|5:106|24:170|40:154|52:206|33:271,1,220,2|2,0:0|0:0,0:0:0:0:
111,348,40574,1,2,0:0:0:0:
183,266,40949,6,0,P|235:251|289:261,1,110,2|0,3:2|0:0,0:0:0:0:
345,355,41699,2,0,P|292:369|238:359,1,110,2|0,0:0|0:0,0:0:0:0:
289,261,42449,2,0,L|398:255,1,110,2|0,0:0|3:2,0:0:0:0:
453,159,43199,2,0,L|344:165,1,110,2|0,0:0|0:0,0:0:0:0:
233,170,43949,6,0,P|80:158|229:64,1,440,2|2,3:2|0:0,0:0:0:0:
233,170,45824,2,0,L|239:279,2,110,2|2|2,3:2|0:0|0:0,0:0:0:0:
228,62,46949,2,0,P|369:109|233:170,1,385,2|0,3:2|0:0,0:0:0:0:
186,140,48449,2,0,P|30:203|192:248,1,440,2|0,0:0|3:2,0:0:0:0:
186,140,50324,6,0,L|295:134,1,110,2|2,0:0|0:0,0:0:0:0:
393,82,51074,1,2,0:0:0:0:
494,124,51449,2,0,P|509:176|499:230,1,110,2|2,3:2|0:0,0:0:0:0:
470,277,52011,1,0,0:0:0:0:
470,277,52199,2,0,L|361:283,1,110,2|2,0:0|0:0,0:0:0:0:
249,288,52949,5,0,3:2:0:0:
152,340,53324,1,2,0:0:0:0:
152,340,53511,2,0,P|98:350|45:335,1,110,2|2,0:0|0:0,0:0:0:0:
1,234,54261,1,2,0:0:0:0:
62,142,54636,2,0,L|117:138,2,55,2|2|2,0:0|0:0|0:0,0:0:0:0:
54,31,55386,2,0,L|163:25,1,110,2|0,0:0|0:0,0:0:0:0:
210,54,55949,6,0,P|262:68|316:58,1,110,2|0,3:2|0:0,0:0:0:0:
419,20,56699,1,2,0:0:0:0:
484,171,57261,1,2,0:0:0:0:
484,171,57449,2,0,L|375:177,1,110,2|0,3:2|0:0,0:0:0:0:
264,183,58199,1,2,0:0:0:0:
326,273,58574,1,2,0:0:0:0:
374,177,58949,6,0,B|323:156|259:175|275:191|223:203|158:184,1,220,2|8,3:2|0:0,0:0:0:0:
62,131,60074,1,0,0:0:0:0:
55,240,60449,2,0,L|49:349,1,110,10|0,0:0|0:0,0:0:0:0:
159,346,61199,2,0,L|214:342,1,55,4|4,3:3|3:3,0:0:0:0:
264,321,61574,2,0,L|319:317,1,55,8|8,3:2|3:2,0:0:0:0:
32,248,64949,6,0,L|141:241,1,110,14|0,0:0|0:0,0:0:0:0:
241,289,65699,1,8,0:0:0:0:
350,285,66074,2,0,L|405:282,1,55,2|2,0:0|3:2,0:0:0:0:
459,278,66449,2,0,P|475:225|465:172,1,110,2|2,0:0|3:2,0:0:0:0:
398,84,67199,2,0,L|343:87,1,55,10|0,0:0|3:2,0:0:0:0:
293,62,67574,2,0,L|238:65,1,55,2|8,0:0|0:0,0:0:0:0:
183,68,67949,6,0,L|73:74,1,110,2|0,3:2|0:0,0:0:0:0:
75,184,68699,1,10,0:0:0:0:
134,276,69074,2,0,P|81:290|27:281,1,110,2|0,0:0|0:0,0:0:0:0:
75,184,69824,1,2,3:2:0:0:
184,184,70199,2,0,L|239:181,1,55,10|0,0:0|3:2,0:0:0:0:
289,206,70574,2,0,L|344:203,1,55,2|8,0:0|0:0,0:0:0:0:
399,202,70949,6,0,P|408:255|392:307,1,110,6|0,3:2|0:0,0:0:0:0:
291,337,71699,1,8,0:0:0:0:
189,294,72074,1,2,0:0:0:0:
184,184,72449,2,0,L|177:74,1,110,2|0,0:0|3:2,0:0:0:0:
284,97,73199,2,0,P|337:105|390:91,1,110,10|0,0:0|0:0,0:0:0:0:
494,53,73949,6,0,L|497:108,1,55,2|8,3:2|0:0,0:0:0:0:
472,158,74324,2,0,L|475:213,1,55,0|0,0:0|3:2,0:0:0:0:
474,268,74699,1,8,0:0:0:0:
373,313,75074,1,8,0:0:0:0:
272,358,75449,1,2,0:0:0:0:
162,361,75824,2,0,L|159:306,1,55,10|10,0:0|0:0,0:0:0:0:
112,275,76199,2,0,L|109:220,1,55,0|0,3:2|3:2,0:0:0:0:
67,183,76574,2,0,L|64:128,1,55,6|6,3:3|3:3,0:0:0:0:
64,72,76949,6,0,P|116:57|170:65,1,110,14|0,0:0|0:0,0:0:0:0:
273,100,77699,2,0,P|327:108|380:94,1,110,8|0,0:0|0:0,0:0:0:0:
475,46,78449,2,0,L|469:156,1,110,2|0,0:0|3:2,0:0:0:0:
496,262,79199,1,8,0:0:0:0:
442,357,79574,2,0,L|387:354,1,55,2|10,0:0|0:0,0:0:0:0:
357,307,79949,6,0,L|247:313,1,110,10|0,0:0|3:2,0:0:0:0:
192,315,80511,1,12,0:0:0:0:
26,320,81074,1,10,3:2:0:0:
43,213,81449,1,2,3:2:0:0:
43,213,81636,6,0,L|153:207,1,110,14|0,0:0|0:0,0:0:0:0:
205,189,82199,2,0,L|260:186,1,55,10|10,0:0|0:0,0:0:0:0:
308,159,82574,2,0,L|363:156,1,55,2|2,3:2|3:2,0:0:0:0:
417,152,82949,6,0,P|425:98|409:46,1,110,14|0,0:0|0:0,0:0:0:0:
308,3,83699,2,0,L|253:6,1,55,10|2,0:0|0:0,0:0:0:0:
205,33,84074,2,0,L|150:36,1,55,2|0,0:0|3:2,0:0:0:0:
95,40,84449,2,0,L|101:150,1,110,10|0,0:0|3:2,0:0:0:0:
55,249,85199,2,0,P|109:257|161:241,1,110,10|0,0:0|0:0,0:0:0:0:
209,215,85761,1,8,0:0:0:0:
209,215,85949,6,0,P|261:198|315:206,1,110,6|0,3:2|0:0,0:0:0:0:
411,259,86699,2,0,L|405:149,1,110,8|0,0:0|0:0,0:0:0:0:
353,51,87449,2,0,L|298:54,1,55,10|2,0:0|3:2,0:0:0:0:
249,80,87824,2,0,P|196:96|142:88,1,110,10|0,0:0|3:2,0:0:0:0:
92,66,88386,1,8,0:0:0:0:
92,66,88574,2,0,L|98:176,1,110,8|2,0:0|3:2,0:0:0:0:
