osu file format v14

[General]
AudioFilename: audio.mp3
AudioLeadIn: 0
PreviewTime: 63323
Countdown: 0
SampleSet: Soft
StackLeniency: 0.7
Mode: 0
LetterboxInBreaks: 0
WidescreenStoryboard: 1

[Editor]
Bookmarks: 100542
DistanceSpacing: 1.6
BeatDivisor: 4
GridSize: 32
TimelineZoom: 2.1

[Metadata]
Title:Haruzion
TitleUnicode:Haruzion
Artist:Kano
ArtistUnicode:鹿乃
Creator:YukiZura-
Version:Hard
Source:
Tags:アルストロメリア Alstroemeria Irya japanese
BeatmapID:1837415
BeatmapSetID:875533

[Difficulty]
HPDrainRate:5
CircleSize:3.8
OverallDifficulty:6
ApproachRate:7.5
SliderMultiplier:1.5
SliderTickRate:1

[Events]
//Background and Video events
0,0,"ok.jpg",0,0
//Break Periods
//Storyboard Layer 0 (Background)
//Storyboard Layer 1 (Fail)
//Storyboard Layer 2 (Pass)
//Storyboard Layer 3 (Foreground)
//Storyboard Sound Samples

[TimingPoints]
449,375,4,2,1,40,1,0
449,-200,4,2,1,40,0,0
3449,-200,4,2,1,40,0,0
9824,-200,4,2,1,5,0,0
12074,-200,4,2,1,40,0,0
13949,-142.857142857143,4,2,1,60,0,0
19855,-142.857142857143,4,2,1,60,0,0
19949,-125,4,2,1,50,0,0
22949,-111.111111111111,4,2,1,30,0,0
23136,-111.111111111111,4,2,1,30,0,0
23324,-100,4,2,1,40,0,0
23699,-90.9090909090909,4,2,1,50,0,0
23886,-90.9090909090909,4,2,1,50,0,0
24074,-83.3333333333333,4,2,1,60,0,0
24449,-76.9230769230769,4,2,1,70,0,0
24636,-76.9230769230769,4,2,1,70,0,0
24824,-71.4285714285714,4,2,1,80,0,0
25199,-66.6666666666667,4,2,1,80,0,0
25574,-62.5,4,2,1,80,0,0
25949,-166.666666666667,4,2,1,40,0,0
40855,-166.666666666667,4,2,1,40,0,0
40949,-166.666666666667,4,2,1,40,0,0
49949,-125,4,2,1,45,0,0
52855,-125,4,2,1,5,0,0
52949,-125,4,2,1,50,0,0
63449,-200,4,2,1,50,0,0
64949,-100,4,2,1,80,0,1
88949,-200,4,2,1,40,0,0
97771,375,4,2,1,40,1,0
98324,-200,4,2,1,5,0,0

[Colours]
Combo1 : 255,255,4
Combo2 : 255,21,21
Combo3 : 255,141,28
Combo4 : 255,28,255

[HitObjects]
77,183,449,5,2,0:0:0:0:
77,183,3449,5,2,0:0:0:0:
141,110,5324,5,2,0:0:0:0:
216,164,5699,1,2,0:0:0:0:
334,77,6449,5,2,0:0:0:0:
334,77,7761,1,2,0:0:0:0:
448,180,9261,5,2,0:0:0:0:
448,180,9355,1,2,0:0:0:0:
448,180,9449,1,2,0:0:0:0:
256,192,9511,12,0,12074,0:0:0:0:
429,292,12449,5,2,0:0:0:0:
378,347,12824,1,2,0:0:0:0:
350,277,13199,1,2,0:0:0:0:
299,332,13574,1,2,0:0:0:0:
202,212,13949,6,0,P|121:210|50:244,1,157.499995193482,14|0,0:0|0:0,0:0:0:0:
36,159,14699,2,0,P|77:142|102:137,1,52.4999983978272,2|0,0:0|0:0,0:0:0:0:
138,74,15074,1,2,0:0:0:0:
138,74,15261,1,2,0:0:0:0:
212,126,15449,6,0,P|253:142|274:157,1,52.4999983978272,2|0,0:0|0:0,0:0:0:0:
328,98,15824,2,0,P|345:139|350:163,1,52.4999983978272,2|0,0:0|0:0,0:0:0:0:
430,155,16199,2,0,P|413:196|398:217,1,52.4999983978272,2|0,0:0|0:0,0:0:0:0:
465,265,16574,2,0,P|424:282|399:287,1,52.4999983978272,2|0,0:0|0:0,0:0:0:0:
339,248,16949,6,0,P|287:235|229:245,1,104.999996795654,10|0,0:0|0:0,0:0:0:0:
180,305,17511,2,0,L|174:349,2,34.9999989318848,2|0|0,3:2|3:2|3:2,3:2:0:0:
152,284,17886,2,0,P|127:294|102:300,2,52.4999983978272,0|2|0,3:2|3:2|3:2,0:0:0:0:
103,215,18449,6,0,P|78:211|52:204,1,52.4999983978272,4|4,3:3|3:3,0:0:0:0:
102,131,18824,2,0,P|75:108|52:81,2,52.4999983978272,6|4|6,3:3|3:3|3:3,0:0:0:0:
186,177,19386,1,4,3:3:0:0:
271,94,19574,2,0,P|308:87|367:89,1,78.7499975967408,10|0,0:0|0:0,0:0:0:0:
394,99,19949,6,0,P|375:167|448:331,1,240,14|2,0:0|0:0,0:0:0:0:
434,319,21074,1,2,0:0:0:0:
329,354,21449,5,2,0:0:0:0:
262,285,21636,1,0,3:2:0:0:
262,285,21730,1,0,3:2:0:0:
262,285,21824,2,0,P|257:235|246:205,1,60,0|0,3:2|3:2,0:0:0:0:
178,166,22199,1,6,0:3:0:0:
84,235,22386,1,6,0:3:0:0:
84,235,22949,6,0,L|74:148,1,67.4999979400635,8|0,3:2|0:0,0:0:0:0:
132,88,23324,2,0,L|141:-8,1,75,0|0,3:2|0:0,0:0:0:0:
255,15,23699,6,0,P|238:61|239:106,1,82.5000025177003,8|0,3:2|0:0,0:0:0:0:
303,171,24074,2,0,P|320:217|320:268,1,89.9999972534181,8|0,3:2|0:0,0:0:0:0:
217,228,24449,6,0,P|161:211|105:220,1,97.4999955368044,8|0,3:2|0:0,0:0:0:0:
46,338,24824,2,0,L|152:317,1,104.999996795654,8|2,3:2|0:0,0:0:0:0:
253,319,25199,6,0,L|365:340,1,112.500004291535,10|8,0:0|0:0,0:0:0:0:
465,349,25574,1,8,0:0:0:0:
401,261,25761,1,8,0:0:0:0:
450,185,25949,6,0,L|457:77,1,89.9999972534181,2|2,3:2|0:0,0:0:0:0:
306,41,26699,1,2,0:0:0:0:
306,41,26886,2,0,P|269:52|251:56,1,44.999998626709,2|0,0:0|0:0,0:0:0:0:
188,103,27261,1,2,0:0:0:0:
188,103,27448,6,0,P|151:92|133:88,1,44.999998626709,2|0,0:0|0:0,0:0:0:0:
54,85,27824,1,2,3:2:0:0:
54,85,28011,2,0,P|66:115|76:193,1,89.9999972534181,2|2,0:0|0:0,0:0:0:0:
58,260,28574,1,2,0:0:0:0:
129,314,28761,6,0,P|197:317|276:296,1,134.999995880127,2|2,0:0|0:0,0:0:0:0:
379,164,29699,2,0,L|387:105,2,44.999998626709,2|2|2,0:0|0:0|0:0,0:0:0:0:
355,250,30261,1,2,0:0:0:0:
289,187,30449,6,0,P|257:175|194:170,1,89.9999972534181,2|0,0:0|3:2,0:0:0:0:
113,152,31011,2,0,P|81:164|18:169,1,89.9999972534181,2|2,0:0|0:0,0:0:0:0:
16,263,31574,1,2,0:0:0:0:
16,263,31761,6,0,L|170:269,1,134.999995880127,2|0,0:0|0:0,0:0:0:0:
313,345,32699,2,0,P|324:316|330:287,1,44.999998626709,2|0,0:0|0:0,0:0:0:0:
414,278,33074,2,0,P|401:249|385:224,1,44.999998626709,2|2,0:0|0:0,0:0:0:0:
447,165,33449,6,0,P|417:154|388:148,1,44.999998626709,2|0,0:0|0:0,0:0:0:0:
394,61,33824,2,0,P|365:73|340:89,1,44.999998626709,2|0,3:2|0:0,0:0:0:0:
276,33,34199,2,0,P|265:62|259:91,1,44.999998626709,2|0,0:0|0:0,0:0:0:0:
183,120,34574,2,0,P|177:98|168:77,1,44.999998626709,2|0,0:0|0:0,0:0:0:0:
55,69,34949,6,0,P|86:133|82:254,1,179.999994506836,2|0,3:2|0:0,0:0:0:0:
24,372,36261,1,2,0:0:0:0:
99,322,36449,6,0,P|136:309|233:300,1,134.999995880127,2|0,0:0|0:0,0:0:0:0:
311,340,37199,2,0,P|344:349|363:350,1,44.999998626709,2|0,0:0|0:0,0:0:0:0:
427,296,37574,2,0,P|460:287|479:286,1,44.999998626709,2|0,0:0|0:0,0:0:0:0:
501,201,37949,6,0,B|421:176|407:226|323:203,1,179.999994506836,2|0,3:2|0:0,0:0:0:0:
94,61,39261,1,2,0:0:0:0:
155,127,39449,2,0,L|146:306,1,179.999994506836,2|2,0:0|0:0,0:0:0:0:
232,337,40574,2,0,P|263:329|306:324,1,67.4999979400635,2|0,0:0|0:0,0:0:0:0:
342,331,40949,6,0,P|328:270|330:231,1,89.9999972534181,2|0,3:2|0:0,0:0:0:0:
413,132,41699,2,0,P|427:71|425:32,1,89.9999972534181,2|0,0:0|0:0,0:0:0:0:
267,52,42449,2,0,P|253:113|255:152,1,89.9999972534181,2|0,0:0|3:2,0:0:0:0:
328,242,43199,2,0,P|342:303|340:342,1,89.9999972534181,2|0,0:0|0:0,0:0:0:0:
202,288,43949,6,0,P|121:183|-4:286,1,314.999990386963,2|2,3:2|0:0,0:0:0:0:
99,284,45449,1,2,0:0:0:0:
20,125,45824,6,0,P|48:111|78:107,1,44.999998626709,2|0,3:2|0:0,0:0:0:0:
159,110,46199,2,0,P|188:119|212:138,1,44.999998626709,2|0,0:0|0:0,0:0:0:0:
269,193,46574,2,0,P|283:221|287:251,1,44.999998626709,2|0,0:0|0:0,0:0:0:0:
358,357,46949,6,0,P|314:263|391:122,1,269.999991760254,2|0,3:2|0:0,0:0:0:0:
315,55,48261,1,0,0:0:0:0:
315,55,48449,6,0,B|167:22|213:123|45:77,1,269.999991760254,2|0,0:0|0:0,0:0:0:0:
262,150,49949,6,0,P|274:193|276:231,1,60,0|0,3:2|0:0,0:0:0:0:
345,274,50324,2,0,P|335:302|331:332,1,60,2|0,0:0|0:0,0:0:0:0:
241,296,50699,2,0,L|166:291,1,60,2|0,0:0|0:0,0:0:0:0:
96,337,51074,2,0,L|21:342,1,60,2|0,0:0|0:0,0:0:0:0:
71,251,51449,6,0,P|89:190|87:117,1,120,2|2,3:2|0:0,0:0:0:0:
164,73,52011,1,0,0:0:0:0:
164,73,52199,2,0,P|206:84|239:87,1,60,2|0,0:0|0:0,0:0:0:0:
313,55,52574,2,0,P|358:40|410:36,1,90,2|0,0:0|0:0,0:0:0:0:
444,54,52949,6,0,L|439:127,1,60,0|0,3:2|0:0,0:0:0:0:
362,171,53324,1,2,0:0:0:0:
362,171,53511,2,0,L|367:244,1,60,2|0,0:0|0:0,0:0:0:0:
428,303,53886,2,0,L|423:362,1,60,2|0,0:0|0:0,0:0:0:0:
331,334,54261,6,0,P|298:325|254:326,1,60,2|0,0:0|3:2,0:0:0:0:
184,362,54636,1,2,0:0:0:0:
175,266,54824,1,2,0:0:0:0:
99,325,55011,2,0,L|19:334,1,60,2|0,0:0|0:0,0:0:0:0:
52,236,55386,2,0,P|106:244|187:241,1,120,2|0,0:0|0:0,0:0:0:0:
255,147,55949,6,0,P|309:139|390:142,1,120,2|0,3:2|0:0,0:0:0:0:
458,187,56511,1,0,0:0:0:0:
375,236,56699,2,0,P|353:287|349:375,1,120,2|0,0:0|0:0,0:0:0:0:
254,378,57261,1,2,0:0:0:0:
254,378,57449,6,0,P|248:318|225:263,1,120,2|0,3:2|0:0,0:0:0:0:
62,161,58199,2,0,L|121:166,1,60,2|0,0:0|0:0,0:0:0:0:
206,121,58574,2,0,L|265:115,1,60,2|0,0:0|0:0,0:0:0:0:
349,162,58949,6,0,P|388:169|468:170,1,120,2|8,3:2|0:0,0:0:0:0:
424,84,59511,1,2,0:0:0:0:
468,169,59699,2,0,L|480:303,1,120,8|0,0:0|0:0,0:0:0:0:
441,376,60261,1,2,0:0:0:0:
381,300,60449,6,0,P|331:271|245:278,1,120,10|0,0:0|0:0,0:0:0:0:
199,333,61011,1,0,3:2:0:0:
199,333,61105,1,0,3:2:0:0:
199,333,61199,1,4,3:3:0:0:
119,255,61386,1,4,3:3:0:0:
51,353,61574,1,8,3:2:0:0:
10,214,61761,1,8,3:2:0:0:
66,79,63449,5,2,0:0:0:0:
103,144,63824,1,2,0:0:0:0:
145,82,64199,1,2,0:0:0:0:
182,147,64574,1,2,0:0:0:0:
302,64,64949,6,0,P|352:49|397:48,1,75,14|0,0:0|0:0,0:0:0:0:
470,67,65324,1,0,0:0:0:0:
417,149,65511,1,0,3:2:0:0:
480,223,65699,2,0,L|473:315,1,75,8|0,0:0|0:0,0:0:0:0:
407,369,66074,1,2,0:0:0:0:
375,276,66261,1,2,3:2:0:0:
319,356,66449,6,0,B|237:391|245:325|149:366,1,150,2|2,0:0|3:2,0:0:0:0:
75,360,67011,1,0,0:0:0:0:
117,272,67199,2,0,L|108:186,1,75,10|0,0:0|3:2,0:0:0:0:
50,119,67574,2,0,L|59:33,1,75,2|8,0:0|0:0,0:0:0:0:
149,77,67949,6,0,P|204:107|298:103,1,150,2|0,3:2|0:0,0:0:0:0:
392,45,68511,1,2,3:2:0:0:
440,130,68699,2,0,L|431:287,1,150,10|2,0:0|0:0,0:0:0:0:
368,354,69261,1,0,3:2:0:0:
315,276,69449,2,0,P|251:263|216:271,1,75
164,323,69824,6,0,P|100:336|65:328,1,75,2|0,3:2|0:0,0:0:0:0:
123,242,70199,2,0,L|126:154,1,75,10|0,0:0|3:2,0:0:0:0:
65,89,70574,2,0,L|62:14,1,75,2|8,0:0|0:0,0:0:0:0:
193,95,70949,6,0,B|268:125|276:60|366:98,1,150,6|0,3:2|0:0,0:0:0:0:
426,131,71511,1,0,3:2:0:0:
313,172,71699,2,0,L|308:261,1,75,8|0,0:0|0:0,0:0:0:0:
226,299,72074,2,0,L|231:388,1,75,2|0,0:0|3:2,0:0:0:0:
321,338,72449,6,0,P|393:308|465:309,1,150,2|0,0:0|3:2,0:0:0:0:
491,214,73011,1,0,0:0:0:0:
491,214,73199,2,0,P|472:156|472:127,1,75,10|0,0:0|3:2,0:0:0:0:
375,122,73574,2,0,P|369:159|355:193,1,75,0|8,0:0|0:0,0:0:0:0:
278,132,73949,6,0,P|212:109|113:116,1,150,2|0,3:2|0:0,0:0:0:0:
48,159,74511,1,0,3:2:0:0:
96,278,74699,2,0,L|89:365,1,75,8|0,0:0|0:0,0:0:0:0:
195,370,75074,2,0,L|188:295,1,75,8|0,0:0|0:0,0:0:0:0:
267,238,75449,5,2,0:0:0:0:
321,312,75636,1,8,0:0:0:0:
402,272,75824,2,0,P|435:255|488:247,2,75,10|10|0,0:0|0:0|3:2,0:0:0:0:
321,312,76386,1,0,3:2:0:0:
267,238,76574,1,6,3:3:0:0:
309,150,76761,1,6,3:3:0:0:
233,87,76949,6,0,P|160:99|60:92,1,150,14|0,0:0|0:0,0:0:0:0:
2,43,77511,1,0,3:2:0:0:
37,173,77699,2,0,L|46:332,1,150,8|0,0:0|0:0,0:0:0:0:
123,382,78261,1,0,3:2:0:0:
186,285,78449,6,0,P|242:269|343:275,1,150,2|0,0:0|3:2,0:0:0:0:
417,180,79011,2,0,P|342:185|270:167,1,150,2|0,0:0|3:2,0:0:0:0:
199,119,79574,1,2,0:0:0:0:
128,185,79761,1,10,0:0:0:0:
129,52,79949,6,0,P|79:44|47:45,2,75,10|0|0,0:0|3:2|3:2,0:0:0:0:
199,119,80511,2,0,P|265:126|355:98,1,150,12|0,0:0|0:0,0:0:0:0:
418,38,81074,1,10,3:2:0:0:
483,110,81261,1,0,3:2:0:0:
484,207,81449,5,2,3:2:0:0:
406,280,81636,2,0,B|360:302|360:302|261:289,1,150,14|0,0:0|0:0,0:0:0:0:
194,360,82199,2,0,L|273:371,2,75,10|10|2,0:0|0:0|3:2,0:0:0:0:
148,273,82761,1,2,3:2:0:0:
97,356,82949,6,0,P|102:292|81:181,1,150,14|0,0:0|0:0,0:0:0:0:
60,114,83511,1,0,3:2:0:0:
182,155,83699,2,0,L|278:135,1,75,10|2,0:0|0:0,0:0:0:0:
334,82,84074,2,0,L|407:97,1,75,2|0,0:0|3:2,0:0:0:0:
458,180,84449,6,0,P|437:230|436:332,1,150,10|0,0:0|3:2,0:0:0:0:
256,365,85199,1,10,0:0:0:0:
199,286,85386,2,0,P|146:267|19:272,1,150,2|8,3:2|0:0,0:0:0:0:
42,166,85949,6,0,P|84:163|133:140,1,75,6|0,3:2|0:0,0:0:0:0:
185,84,86324,2,0,P|222:85|257:98,1,75
349,160,86699,2,0,P|391:99|466:105,1,150,8|0,0:0|0:0,0:0:0:0:
506,187,87261,1,0,0:0:0:0:
441,283,87449,6,0,L|450:365,1,75,10|2,0:0|3:2,0:0:0:0:
351,287,87824,2,0,B|292:253|292:253|199:269,1,150,10|0,0:0|3:2,0:0:0:0:
156,348,88386,1,8,0:0:0:0:
62,276,88574,1,8,0:0:0:0:
125,97,88949,5,2,3:2:0:0:
187,337,91949,5,2,3:2:0:0:
133,253,93824,5,2,3:2:0:0:
187,178,94199,1,2,0:0:0:0:
34,89,94949,5,2,3:2:0:0:
34,89,96261,1,2,0:0:0:0:
37,183,97771,5,2,0:0:0:0:
37,183,97864,1,2,0:0:0:0:
37,183,97958,1,2,3:2:0:0:
256,192,98021,12,0,100583,0:0:0:0:
