osu file format v14

[General]
AudioFilename: audio.mp3
AudioLeadIn: 0
PreviewTime: 47185
Countdown: 0
SampleSet: Soft
StackLeniency: 0.7
Mode: 0
LetterboxInBreaks: 0
WidescreenStoryboard: 1

[Editor]
DistanceSpacing: 2.4
BeatDivisor: 4
GridSize: 16
TimelineZoom: 1

[Metadata]
Title:Haru ni Ochite (TV Size)
TitleUnicode:春に落ちて (TV Size)
Artist:Kano
ArtistUnicode:鹿乃
Creator:KennethBBG
Version:Normal
Source:実験品家族 -クリーチャーズ・ファミリー・デイズ-
Tags:Aurorance Narcissu japanese jp j pop j-pop jpop single original female vocalist anime ed ending jikken-hin kazoku creatures family days keeno Shi yan Pin Jia ting 實驗品家庭
BeatmapID:3667995
BeatmapSetID:1786977

[Difficulty]
HPDrainRate:3
CircleSize:3.5
OverallDifficulty:4
ApproachRate:5
SliderMultiplier:2.1
SliderTickRate:1

[Events]
//Background and Video events
0,0,"BG.jpg",0,0
Video,0,"Video.mp4"
//Break Periods
//Storyboard Layer 0 (Background)
//Storyboard Layer 1 (Fail)
//Storyboard Layer 2 (Pass)
//Storyboard Layer 3 (Foreground)
//Storyboard Layer 4 (Overlay)
//Storyboard Sound Samples

[TimingPoints]
123,750,4,2,1,50,1,0
12123,-111.111111111111,4,2,1,50,0,0
43248,-111.111111111111,4,2,1,40,0,0
47185,-111.111111111111,4,2,1,50,0,0
47560,-111.111111111111,4,2,1,70,0,0
48123,-90.9090909090909,4,2,1,75,0,1
72123,-100,4,2,1,60,0,0
78123,-100,4,2,1,47,0,0
81123,-100,4,2,1,40,0,0
84123,-100,4,2,1,30,0,0

[Colours]
Combo1 : 102,53,9
Combo2 : 242,128,131
Combo3 : 153,107,66
Combo4 : 221,40,40

[HitObjects]
202,56,12123,5,0,3:2:0:0:
37,14,12873,2,0,B|18:58|18:58|46:202,1,188.999994232178,2|0,0:0|0:0,0:0:0:0:
116,242,13998,1,0,3:1:0:0:
100,325,14373,1,8,1:2:0:0:
259,383,15123,6,0,P|306:375|363:370,1,94.499997116089,2|2,3:2|0:0,0:0:0:0:
431,337,15873,1,2,0:0:0:0:
460,257,16248,2,0,L|482:55,1,188.999994232178,2|0,3:2|3:2,0:0:0:0:
397,87,17373,2,0,L|383:202,2,94.499997116089,0|0|10,1:2|1:2|0:1,0:0:0:0:
239,23,18873,6,0,L|127:36,1,94.499997116089,2|2,0:0|0:0,0:0:0:0:
71,76,19623,2,0,P|45:109|60:181,1,94.499997116089,0|0,0:0|3:2,0:0:0:0:
85,186,20185,1,2,0:0:0:0:
85,187,20373,2,0,P|92:238|81:283,1,94.499997116089,10|2,1:2|0:0,0:0:0:0:
164,305,21123,6,0,P|203:294|268:295,1,94.499997116089,2|2,3:2|0:0,0:0:0:0:
325,239,21873,1,2,0:0:0:0:
409,245,22248,2,0,P|473:263|489:389,1,188.999994232178,2|0,0:0|3:2,0:0:0:0:
414,364,23373,2,0,L|293:358,2,94.499997116089,0|0|10,1:2|1:2|0:1,0:0:0:0:
409,193,24873,6,0,B|359:181|359:181|297:198,1,94.499997116089,2|2,0:0|0:0,0:0:0:0:
242,232,25623,2,0,P|196:213|173:137,1,94.499997116089,0|0,0:0|3:2,0:0:0:0:
184,91,26373,2,0,P|223:60|300:78,1,94.499997116089,10|2,1:2|0:0,0:0:0:0:
301,94,26936,1,2,0:0:0:0:
301,94,27123,6,0,P|308:34|310:-12,2,94.499997116089,2|2|2,3:2|0:0|0:0,0:0:0:0:
319,178,28248,2,0,P|324:249|334:305,1,94.499997116089,2|0,0:0|0:0,0:0:0:0:
395,323,28998,1,0,3:2:0:0:
477,302,29373,2,0,L|470:231,1,47.2499985580445,0|0,1:2|1:2,0:0:0:0:
465,127,30123,1,10,0:1:0:0:
333,235,30874,6,0,B|225:216|253:294|122:264,1,188.999994232178,2|0,0:0|0:0,0:0:0:0:
111,194,31998,1,0,3:2:0:0:
37,237,32373,2,0,L|45:340,1,94.499997116089,8|2,1:2|0:0,0:0:0:0:
118,371,33123,6,0,P|170:372|211:342,1,94.499997116089,2|2,3:2|0:0,0:0:0:0:
252,279,33873,1,2,0:0:0:0:
334,300,34249,2,0,L|354:91,1,188.999994232178,2|10,0:0|3:1,0:0:0:0:
367,29,35373,2,0,L|418:25,2,47.2499985580445,2|2|2,0:0|0:0|0:0,0:0:0:0:
285,51,36123,6,0,L|270:170,1,94.499997116089,2|2,3:2|0:0,0:0:0:0:
191,168,36873,2,0,L|206:49,1,94.499997116089,2|0,0:0|0:0,0:0:0:0:
185,41,37435,1,0,3:2:0:0:
185,41,37623,2,0,P|138:51|88:40,1,94.499997116089,2|0,3:2|3:2,0:0:0:0:
26,92,38373,1,10,1:2:0:0:
45,174,38748,1,2,3:2:0:0:
127,195,39123,6,0,L|111:304,2,94.499997116089,2|0|2,3:2|0:0|0:0,0:0:0:0:
200,147,40248,2,0,P|252:145|278:128,1,47.2499985580445,0|2,1:2|3:2,0:0:0:0:
275,115,40623,2,0,L|385:131,1,94.499997116089,2|2,0:0|0:0,0:0:0:0:
414,132,41185,1,2,0:0:0:0:
414,132,41373,2,0,P|407:170|410:197,1,47.2499985580445,8|2,1:2|0:0,0:0:0:0:
420,219,41748,1,2,0:0:0:0:
348,265,42123,6,0,B|302:278|302:278|237:260,2,94.499997116089,2|0|2,3:2|0:0|0:0,0:0:0:0:
305,197,43248,1,2,1:2:0:0:
305,197,43435,2,0,L|292:82,1,94.499997116089,2|2,0:0|0:0,0:0:0:0:
290,60,43998,2,0,P|241:47|193:66,1,94.499997116089,2|0,0:0|1:2,0:0:0:0:
153,131,44748,1,2,0:0:0:0:
150,216,45123,6,0,P|157:271|171:324,1,94.499997116089,2|2,0:0|0:0,0:0:0:0:
215,378,45873,1,2,0:0:0:0:
278,320,46248,1,2,0:0:0:0:
0,107,48123,6,0,B|62:97|49:132|120:117,1,115.50000352478,6|2,0:0|0:0,0:0:0:0:
168,117,48685,1,2,0:0:0:0:
168,117,48873,2,0,P|158:190|202:247,1,115.50000352478,8|0,1:2|0:0,0:0:0:0:
202,269,49435,2,0,L|274:261,1,57.7500017623902,2|0,3:2|0:0,0:0:0:0:
291,166,49998,1,2,3:2:0:0:
291,166,50185,2,0,L|372:177,1,57.7500017623902,2|8,0:0|1:2,0:0:0:0:
400,170,50560,2,0,P|422:176|456:215,1,57.7500017623902,2|0,0:0|0:0,0:0:0:0:
478,247,50935,1,2,0:0:0:0:
478,247,51123,6,0,P|467:309|460:365,2,115.50000352478,0|0|8,3:2|0:0|1:2,0:0:0:0:
461,144,52248,2,0,P|451:86|431:18,1,115.50000352478,2|2,0:0|0:0,0:0:0:0:
383,30,52810,2,0,P|353:40|315:37,1,57.7500017623902,8|2,0:0|3:2,0:0:0:0:
227,7,53373,1,10,1:2:0:0:
144,70,53748,1,2,0:0:0:0:
58,10,54123,5,4,3:2:0:0:
9,102,54498,2,0,P|13:166|11:186,1,57.7500017623902,2|2,0:0|0:0,0:0:0:0:
53,192,54873,2,0,P|44:254|39:313,1,115.50000352478,10|0,1:2|0:0,0:0:0:0:
131,366,55623,1,0,0:0:0:0:
131,366,55810,2,0,P|168:363|195:366,2,57.7500017623902,2|2|0,0:0|3:2|0:0,0:0:0:0:
138,314,56373,2,0,L|155:198,1,115.50000352478,10|2,1:2|0:0,0:0:0:0:
196,167,56935,1,2,0:0:0:0:
196,167,57123,6,0,P|181:112|178:49,2,115.50000352478,0|2|8,3:2|0:0|1:2,0:0:0:0:
298,147,58248,2,0,P|344:144|376:137,1,57.7500017623902,2|2,0:0|3:2,0:0:0:0:
395,108,58623,2,0,L|404:224,1,115.50000352478,2|2,0:0|3:2,0:0:0:0:
408,275,59185,2,0,P|374:269|337:273,1,57.7500017623902,2|8,0:0|1:2,0:0:0:0:
305,295,59560,1,2,3:2:0:0:
224,359,59935,1,2,3:2:0:0:
224,359,60123,6,0,P|174:374|111:357,1,115.50000352478,6|2,0:0|0:0,0:0:0:0:
71,339,60685,1,2,0:0:0:0:
71,339,60873,2,0,P|83:292|87:207,1,115.50000352478,8|0,1:2|0:0,0:0:0:0:
132,199,61435,2,0,B|172:186|204:195,1,57.7500017623902,2|2,3:2|3:2,0:0:0:0:
295,215,61998,1,2,3:2:0:0:
295,215,62185,2,0,L|284:134,1,57.7500017623902,2|8,0:0|1:2,0:0:0:0:
285,105,62560,2,0,L|296:24,1,57.7500017623902,2|0,0:0|0:0,0:0:0:0:
340,24,62935,1,2,0:0:0:0:
340,24,63123,6,0,P|396:23|455:51,2,115.50000352478,0|0|8,3:2|0:0|1:2,0:0:0:0:
236,31,64248,2,0,P|204:27|159:27,1,57.7500017623902,2|2,0:0|3:2,0:0:0:0:
131,48,64623,2,0,P|101:55|71:56,1,57.7500017623902,2|8,3:2|0:0,0:0:0:0:
22,55,64998,1,2,3:2:0:0:
65,149,65373,1,10,1:2:0:0:
9,236,65748,1,2,0:0:0:0:
64,323,66123,5,4,3:2:0:0:
165,301,66498,2,0,P|229:305|249:303,1,57.7500017623902,2|0,0:0|0:0,0:0:0:0:
255,345,66873,2,0,P|317:336|376:331,1,115.50000352478,8|0,1:2|0:0,0:0:0:0:
471,311,67623,1,0,0:0:0:0:
465,207,67998,2,0,P|401:203|381:205,1,57.7500017623902,2|2,3:2|0:0,0:0:0:0:
374,162,68373,2,0,P|312:171|253:176,1,115.50000352478,10|2,1:2|0:0,0:0:0:0:
214,197,68935,1,2,0:0:0:0:
214,197,69123,6,0,B|229:150|229:150|211:79,1,115.50000352478,6|2,1:2|0:0,0:0:0:0:
197,35,69685,2,0,P|116:26|104:30,1,57.7500017623902,2|8,0:0|1:2,0:0:0:0:
107,61,70060,2,0,L|114:139,2,57.7500017623902,2|2|2,0:0|0:0|3:2,0:0:0:0:
63,33,70623,1,2,0:0:0:0:
16,126,70998,2,0,L|28:207,1,57.7500017623902,2|2,3:2|0:0,0:0:0:0:
40,232,71373,2,0,P|93:212|149:226,1,115.50000352478,8|0,1:2|3:2,0:0:0:0:
195,258,71935,1,0,0:0:0:0:
195,258,72123,6,0,L|175:380,2,105,4|0|8,0:0|0:0|1:2,0:0:0:0:
282,221,73248,1,2,0:0:0:0:
366,263,73623,2,0,L|386:385,2,105,2|0|8,3:2|3:2|1:2,0:0:0:0:
433,196,74748,2,0,L|443:124,1,52.5,2|0,0:0|0:0,0:0:0:0:
447,97,75123,6,0,B|391:86|398:122|330:105,1,105,2|0,3:2|0:0,0:0:0:0:
253,82,75873,2,0,P|216:132|227:192,1,105,8|0,1:2|0:0,0:0:0:0:
283,240,76623,2,0,L|278:310,1,52.5,2|2,3:2|0:0,0:0:0:0:
277,339,76998,1,2,3:2:0:0:
191,378,77373,1,8,1:2:0:0:
109,330,77748,2,0,L|117:269,1,52.5,2|0,0:0|0:0,0:0:0:0:
131,232,78123,6,0,P|69:216|26:230,1,105,2|2,3:2|0:0,0:0:0:0:
0,138,78873,2,0,L|12:9,1,105,10|2,1:2|0:0,0:0:0:0:
104,51,79623,2,0,L|112:-24,2,52.5,2|8|2,0:0|0:0|3:2,0:0:0:0:
176,111,80373,2,0,B|273:95|244:165|351:140,1,157.5,2|0,0:0|0:0,0:0:0:0:
360,113,81123,5,2,0:0:0:0:
256,192,81310,12,0,84123,0:0:0:0:
