osu file format v14

[General]
AudioFilename: audio.mp3
AudioLeadIn: 0
PreviewTime: 47185
Countdown: 0
SampleSet: Soft
StackLeniency: 0.7
Mode: 0
LetterboxInBreaks: 0
WidescreenStoryboard: 1

[Editor]
Bookmarks: 12123,60873
DistanceSpacing: 2.2
BeatDivisor: 4
GridSize: 16
TimelineZoom: 1.2

[Metadata]
Title:Haru ni Ochite (TV Size)
TitleUnicode:春に落ちて (TV Size)
Artist:Kano
ArtistUnicode:鹿乃
Creator:KennethBBG
Version:Aurorance's Easy
Source:実験品家族 -クリーチャーズ・ファミリー・デイズ-
Tags:Aurorance Narcissu japanese jp j pop j-pop jpop single original female vocalist anime ed ending jikken-hin kazoku creatures family days keeno Shi yan Pin Jia ting 實驗品家庭
BeatmapID:3667994
BeatmapSetID:1786977

[Difficulty]
HPDrainRate:2
CircleSize:3
OverallDifficulty:2
ApproachRate:4
SliderMultiplier:1.6
SliderTickRate:1

[Events]
//Background and Video events
0,0,"BG.jpg",0,0
Video,0,"Video.mp4"
//Break Periods
//Storyboard Layer 0 (Background)
//Storyboard Layer 1 (Fail)
//Storyboard Layer 2 (Pass)
//Storyboard Layer 3 (Foreground)
//Storyboard Layer 4 (Overlay)
//Storyboard Sound Samples

[TimingPoints]
123,750,4,2,1,50,1,0
123,-100,4,2,1,50,0,0
43248,-100,4,2,1,40,0,0
47185,-100,4,2,1,50,0,0
47560,-100,4,2,1,70,0,0
48123,-90.9090909090909,4,2,1,75,0,1
72123,-100,4,2,1,60,0,0
78123,-100,4,2,1,47,0,0
81123,-100,4,2,1,40,0,0
84123,-100,4,2,1,30,0,0

[Colours]
Combo1 : 102,53,9
Combo2 : 242,128,131
Combo3 : 153,107,66
Combo4 : 221,40,40

[HitObjects]
0,133,12123,5,0,3:2:0:0:
144,64,12873,2,0,P|158:109|133:225,1,160,2|0,0:0|0:0,0:0:0:0:
91,282,13998,1,0,3:1:0:0:
150,334,14373,1,8,1:2:0:0:
307,299,15123,2,0,P|367:314|457:326,2,120,2|2|2,3:2|3:2|3:2,0:0:0:0:
172,212,16998,1,0,3:2:0:0:
204,138,17373,2,0,P|248:130|284:119,2,80,0|0|10,1:2|1:2|0:1,0:0:0:0:
44,144,18873,6,0,P|35:201|5:303,1,160,2|0,0:0|0:0,0:0:0:0:
62,356,19998,1,0,3:2:0:0:
138,332,20373,1,10,1:2:0:0:
133,172,21123,2,0,P|124:111|107:37,2,120,2|2|2,3:2|3:2|0:0,0:0:0:0:
223,303,22998,1,0,3:2:0:0:
294,339,23373,2,0,P|334:333|383:315,2,80,0|0|10,1:2|1:2|0:1,0:0:0:0:
133,361,24873,6,0,P|113:275|90:204,1,160,2|0,0:0|0:0,0:0:0:0:
86,126,25998,1,0,3:2:0:0:
157,90,26373,2,0,P|205:82|235:72,1,80,10|2,1:2|0:0,0:0:0:0:
307,106,27123,2,0,P|291:183|271:251,2,120,2|2|2,3:2|3:2|0:0,0:0:0:0:
446,27,28998,1,0,3:2:0:0:
511,72,29373,2,0,P|503:134|481:240,1,160,0|10,1:2|0:1,0:0:0:0:
350,318,30873,6,0,P|303:311|260:298,1,80,2|2,0:0|0:0,0:0:0:0:
193,284,31623,2,0,P|176:314|163:359,2,80,0|0|8,0:0|3:2|1:2,0:0:0:0:
180,204,32748,1,2,0:0:0:0:
237,148,33123,2,0,P|293:162|369:169,2,120,2|2|2,3:2|3:2|0:0,0:0:0:0:
104,58,34998,1,10,3:1:0:0:
36,100,35373,2,0,P|25:145|11:181,1,80,2|2,0:0|0:0,0:0:0:0:
57,242,36123,6,0,P|104:232|159:224,1,80,2|2,3:2|0:0,0:0:0:0:
214,216,36873,1,2,0:0:0:0:
291,355,37623,2,0,B|376:357|359:308|446:311,1,160,2|10,3:2|1:2,0:0:0:0:
495,252,38748,1,2,3:2:0:0:
457,181,39123,6,0,P|460:124|473:66,1,80,2|0,3:2|0:0,0:0:0:0:
386,82,39873,2,0,P|380:121|378:164,1,80,2|0,0:0|1:2,0:0:0:0:
323,220,40623,1,2,0:0:0:0:
254,179,40998,1,2,0:0:0:0:
195,233,41373,2,0,P|150:245|112:245,2,80,8|2|2,1:2|0:0|3:2,0:0:0:0:
320,28,43248,5,2,1:2:0:0:
368,91,43623,2,0,L|463:82,2,80,0|2|0,0:0|0:0|1:2,0:0:0:0:
318,153,44748,1,2,0:0:0:0:
240,134,45123,6,0,L|130:122,1,80,2|2,0:0|0:0,0:0:0:0:
140,203,45873,2,0,L|250:215,1,80,2|2,0:0|0:0,0:0:0:0:
440,342,48123,6,0,L|451:236,1,88.000002685547,6|2,0:0|0:0,0:0:0:0:
368,218,48873,2,0,L|358:305,1,88.000002685547,8|0,1:2|0:0,0:0:0:0:
287,356,49623,1,0,0:0:0:0:
223,294,49998,1,2,3:2:0:0:
153,345,50373,2,0,P|107:327|57:320,1,88.000002685547,8|0,1:2|0:0,0:0:0:0:
10,254,51123,6,0,P|46:189|66:83,1,176.000005371094,0|8,3:2|1:2,0:0:0:0:
103,10,52248,1,2,0:0:0:0:
189,26,52623,1,2,0:0:0:0:
208,111,52998,1,2,3:2:0:0:
294,127,53373,2,0,P|326:95|324:48,1,88.000002685547,10|2,1:2|0:0,0:0:0:0:
495,4,54498,5,2,0:0:0:0:
495,92,54873,2,0,P|475:177|420:244,1,176.000005371094,10|0,1:2|0:0,0:0:0:0:
355,303,55998,1,2,3:2:0:0:
270,283,56373,2,0,P|227:294|176:293,1,88.000002685547,10|2,1:2|0:0,0:0:0:0:
97,313,57123,5,0,3:2:0:0:
52,236,57498,1,2,0:0:0:0:
108,168,57873,2,0,P|122:128|133:76,1,88.000002685547,8|2,1:2|0:0,0:0:0:0:
183,11,58623,1,2,0:0:0:0:
260,51,58998,1,2,3:2:0:0:
238,136,59373,1,8,1:2:0:0:
315,176,59748,1,0,3:2:0:0:
284,259,60123,6,0,P|279:316|296:355,1,88.000002685547,6|2,0:0|0:0,0:0:0:0:
368,383,60873,2,0,P|373:326|356:287,1,88.000002685547,8|0,1:2|0:0,0:0:0:0:
357,210,61623,1,2,3:2:0:0:
279,168,61998,1,2,3:2:0:0:
291,80,62373,2,0,P|244:49|186:33,1,88.000002685547,8|0,1:2|0:0,0:0:0:0:
127,53,63123,6,0,P|102:150|90:243,1,176.000005371094,0|8,3:2|1:2,0:0:0:0:
130,303,64248,1,2,0:0:0:0:
217,296,64623,1,2,3:2:0:0:
256,375,64998,1,2,3:2:0:0:
340,349,65373,2,0,P|387:361|435:365,1,88.000002685547,10|2,1:2|0:0,0:0:0:0:
437,189,66498,5,2,0:0:0:0:
353,221,66873,2,0,P|340:152|315:49,1,176.000005371094,8|0,1:2|0:0,0:0:0:0:
234,13,67998,1,2,3:2:0:0:
151,42,68373,2,0,P|110:28|55:22,1,88.000002685547,10|2,1:2|0:0,0:0:0:0:
1,82,69123,5,6,1:2:0:0:
24,166,69498,1,2,0:0:0:0:
107,139,69873,2,0,P|162:128|209:125,1,88.000002685547,8|2,1:2|0:0,0:0:0:0:
272,169,70623,1,2,0:0:0:0:
355,196,70998,1,2,3:2:0:0:
407,125,71373,1,8,1:2:0:0:
355,53,71748,1,0,3:2:0:0:
272,81,72123,5,4,0:0:0:0:
204,226,72873,1,8,1:2:0:0:
249,292,73248,1,2,0:0:0:0:
201,356,73623,2,0,B|129:364|132:306|41:318,1,160,2|8,3:2|1:2,0:0:0:0:
0,253,74748,1,2,0:0:0:0:
51,191,75123,6,0,P|63:147|71:93,1,80,2|0,3:2|0:0,0:0:0:0:
147,130,75873,2,0,P|139:169|129:207,1,80,8|0,1:2|0:0,0:0:0:0:
171,275,76623,1,2,3:2:0:0:
249,257,76998,1,2,3:2:0:0:
291,325,77373,2,0,P|342:326|396:342,1,80,8|2,1:2|0:0,0:0:0:0:
447,353,78123,6,0,P|459:311|478:271,1,80,2|2,3:2|0:0,0:0:0:0:
455,199,78873,1,10,1:2:0:0:
396,144,79248,2,0,P|408:104|414:65,2,80,2|2|2,0:0|0:0|3:2,0:0:0:0:
326,183,80373,1,2,0:0:0:0:
256,192,81123,12,0,84123,0:0:0:0:
