osu file format v14

[General]
AudioFilename: audio.mp3
AudioLeadIn: 0
PreviewTime: 49363
Countdown: 0
SampleSet: Soft
StackLeniency: 0.7
Mode: 0
LetterboxInBreaks: 0
WidescreenStoryboard: 1

[Editor]
Bookmarks: 83371
DistanceSpacing: 0.8
BeatDivisor: 4
GridSize: 16
TimelineZoom: 1

[Metadata]
Title:HOPE (TV Size)
TitleUnicode:HOPE (TV Size)
Artist:Kano
ArtistUnicode:鹿乃
Creator:KaedeharaKazuha
Version:gokugohan12468's Normal
Source:狐狸之声
Tags:Addy2607 gokugohan12468 KittyAdventure Hu Li Zhi Cheng Kitsune no Koe Voice of Fox ending ed outro theme song chinese donghua manhua japanese pop jpop j-pop anime female vocals utaite VTuber Virtual Youtuber まほろ mahoro
BeatmapID:3304554
BeatmapSetID:1615840

[Difficulty]
HPDrainRate:4
CircleSize:3
OverallDifficulty:4
ApproachRate:5
SliderMultiplier:1.3
SliderTickRate:1

[Events]
//Background and Video events
Video,0,"ED.mp4"
0,0,"92311276_p0_master1200.png",0,0
//Break Periods
//Storyboard Layer 0 (Background)
//Storyboard Layer 1 (Fail)
//Storyboard Layer 2 (Pass)
//Storyboard Layer 3 (Foreground)
//Storyboard Layer 4 (Overlay)
//Storyboard Sound Samples

[TimingPoints]
613,517.241379310345,4,2,1,50,1,0
613,-100,4,2,1,50,0,0
8888,-100,4,2,1,60,0,0
17164,-100,4,2,1,50,0,0
33716,-100,4,2,1,60,0,0
47940,-100,4,2,1,70,0,0
50268,-100,4,2,2,80,0,1
62681,-100,4,2,2,90,0,1
66819,-100,4,2,2,80,0,1
83371,555.555555555556,4,2,1,60,1,0
83371,-100,4,2,1,60,0,0
84482,625,4,2,1,70,1,0
85732,625,4,2,1,50,1,0

[Colours]
Combo1 : 214,213,209
Combo2 : 255,13,13
Combo3 : 242,222,151
Combo4 : 255,90,62

[HitObjects]
57,113,613,6,0,P|102:70|164:82,1,130,2|2,3:2|0:0,0:0:0:0:
262,48,1647,2,0,P|323:36|369:79,1,130,8|2,0:0|0:0,0:0:0:0:
446,148,2681,1,0,3:0:0:0:
439,251,3199,1,2,0:0:0:0:
350,304,3716,2,0,L|220:291,1,130,8|2,0:0|0:0,0:0:0:0:
128,339,4750,6,0,B|68:363|68:363|17:321,1,130,2|2,3:2|0:3,0:0:0:0:
87,244,5785,2,0,B|103:172|69:197|88:115,1,130,8|2,0:0|0:0,0:0:0:0:
165,46,6819,1,0,3:0:0:0:
231,126,7337,1,2,0:0:0:0:
312,61,7854,2,0,P|373:49|422:89,1,130,10|2,0:0|0:0,0:0:0:0:
479,176,8888,6,0,L|467:305,1,130,6|2,3:2|0:0,0:0:0:0:
430,342,9664,1,2,0:0:0:0:
379,354,9923,2,0,P|346:355|316:342,1,65,8|2,0:0|0:0,0:0:0:0:
290,298,10440,1,2,0:0:0:0:
252,201,10957,6,0,P|192:177|133:200,1,130,0|2,3:0|0:0,0:0:0:0:
97,237,11733,1,2,3:2:0:0:
44,237,11992,1,8,0:0:0:0:
3,141,12509,1,2,0:0:0:0:
70,61,13026,6,0,B|117:67|117:67|143:52|143:52|195:59,1,130,2|2,3:2|0:3,0:0:0:0:
241,34,13802,2,0,L|248:163,1,130,2|2,0:0|0:3,0:0:0:0:
294,187,14578,2,0,P|326:186|355:172,1,65,2|2,0:0|0:0,0:0:0:0:
403,152,15095,2,0,L|395:281,1,130,2|2,3:2|0:0,0:0:0:0:
311,343,16130,2,0,B|263:344|263:344|239:327|239:327|186:330,1,130,8|2,0:0|0:3,0:0:0:0:
87,362,17164,6,0,L|94:232,1,130,0|2,3:0|0:0,0:0:0:0:
38,143,18199,1,10,0:0:0:0:
7,100,18457,2,0,P|23:40|83:27,1,130,2|2,0:0|0:0,0:0:0:0:
118,67,19233,6,0,L|247:55,1,130,0|2,3:0|0:0,0:0:0:0:
298,44,20009,1,2,3:2:0:0:
336,78,20268,2,0,P|361:136|339:195,1,130,8|2,0:0|0:3,0:0:0:0:
328,299,21302,6,0,P|386:274|445:296,1,130,0|2,3:0|0:0,0:0:0:0:
496,284,22078,1,2,0:0:0:0:
504,232,22337,2,0,L|493:102,1,130,10|2,0:0|0:0,0:0:0:0:
399,49,23371,6,0,B|328:39|343:75|271:66,1,130,0|2,3:0|0:3,0:0:0:0:
224,46,24147,1,2,0:0:0:0:
175,65,24406,1,8,0:0:0:0:
77,29,24923,1,2,0:3:0:0:
18,115,25440,6,0,L|25:244,1,130,0|2,3:0|0:0,0:0:0:0:
30,296,26216,1,2,0:3:0:0:
38,347,26475,2,0,P|95:319|157:334,1,130,10|2,0:0|0:0,0:0:0:0:
258,310,27509,5,0,3:0:0:0:
305,331,27768,2,0,P|336:326|363:308,1,65,2|2,0:0|0:0,0:0:0:0:
385,260,28285,1,2,3:2:0:0:
402,211,28544,2,0,L|395:82,1,130,8|2,0:0|0:3,0:0:0:0:
304,30,29578,6,0,B|230:18|246:58|177:48,1,130,2|2,3:2|0:0,0:0:0:0:
129,29,30354,2,0,P|97:35|75:58,1,65,2|8,0:0|0:0,0:0:0:0:
83,109,30871,1,2,0:0:0:0:
35,201,31388,1,2,0:0:0:0:
66,241,31647,6,0,L|61:305,2,65,0|2|2,3:0|0:0|0:0,0:0:0:0:
109,211,32423,1,2,3:2:0:0:
154,235,32681,2,0,B|228:223|212:263|281:253,1,130,8|2,0:0|0:3,0:0:0:0:
364,192,33716,6,0,B|386:132|386:132|364:69,1,130,2|2,3:2|0:0,0:0:0:0:
268,28,34750,1,10,0:0:0:0:
228,62,35009,2,0,L|163:65,1,65,2|0,0:0|0:0,0:0:0:0:
115,43,35526,1,2,0:0:0:0:
77,79,35785,6,0,B|55:139|55:139|77:202,1,130,0|2,3:0|0:3,0:0:0:0:
53,302,36819,2,0,L|182:294,1,130,8|2,0:0|0:3,0:0:0:0:
227,321,37595,1,2,0:0:0:0:
275,339,37854,6,0,P|325:302|326:239,1,130,2|2,3:2|0:0,0:0:0:0:
265,156,38888,2,0,L|268:91,1,65,10|2,0:0|0:0,0:0:0:0:
232,54,39406,2,0,L|167:57,1,65,2|2,0:0|0:0,0:0:0:0:
120,34,39923,6,0,P|59:46|43:106,1,130,0|2,3:0|0:0,0:0:0:0:
66,151,40699,1,2,3:2:0:0:
115,165,40957,1,8,0:0:0:0:
107,268,41475,1,2,0:3:0:0:
184,337,41992,6,0,P|216:340|247:332,1,65,2|2,3:2|0:0,0:0:0:0:
295,312,42509,2,0,P|326:304|358:307,1,65,2|2,0:0|0:0,0:0:0:0:
402,337,43026,1,10,0:0:0:0:
451,321,43285,1,2,0:0:0:0:
497,227,43802,1,2,0:0:0:0:
473,180,44061,6,0,L|482:50,1,130,0|2,3:0|0:3,0:0:0:0:
435,26,44837,1,2,3:2:0:0:
388,49,45095,2,0,P|325:36|268:65,1,130,10|0,0:0|0:0,0:0:0:0:
164,62,46130,6,0,L|173:192,1,130,2|2,3:2|0:3,0:0:0:0:
134,226,46906,1,2,0:3:0:0:
82,219,47164,2,0,P|28:185|23:123,1,130,8|2,0:0|0:0,0:0:0:0:
58,84,47940,5,2,0:0:0:0:
164,61,48457,1,2,3:2:0:0:
207,90,48716,2,0,L|211:154,2,65,2|2|8,3:2|3:2|0:0,0:0:0:0:
256,72,49492,6,0,L|260:8,2,65
298,101,50268,6,0,L|427:90,1,130,6|2,3:2|0:0,0:0:0:0:
467,122,51044,1,2,3:2:0:0:
483,171,51302,2,0,P|481:203|465:230,1,65,8|2,0:0|0:0,0:0:0:0:
415,248,51819,1,2,0:0:0:0:
338,318,52337,6,0,P|280:292|264:231,1,130,0|2,3:0|0:3,0:0:0:0:
224,197,53113,1,2,3:2:0:0:
173,183,53371,2,0,L|43:194,1,130,8|2,0:0|0:0,0:0:0:0:
69,91,54406,6,0,L|199:80,1,130,2|2,3:2|0:0,0:0:0:0:
237,45,55181,1,0,3:0:0:0:
282,69,55440,2,0,L|346:74,1,65,8|2,0:0|0:0,0:0:0:0:
388,42,55957,1,2,0:0:0:0:
491,28,56475,6,0,L|480:157,1,130,0|2,3:0|0:3,0:0:0:0:
440,191,57250,1,2,3:2:0:0:
391,172,57509,2,0,B|320:162|335:198|263:189,1,130,8|2,0:0|0:0,0:0:0:0:
180,251,58544,5,4,3:2:0:0:
131,268,58802,2,0,P|104:252|87:225,1,65,2|2,0:0|0:0,0:0:0:0:
34,221,59319,2,0,P|15:160|39:101,1,130,2|2,3:2|0:0,0:0:0:0:
89,112,60095,2,0,P|109:87|139:76,1,65,2|2,0:0|0:0,0:0:0:0:
180,43,60613,6,0,P|222:89|285:90,1,130,0|2,3:0|0:3,0:0:0:0:
337,80,61388,2,0,L|334:144,1,65,2|8,3:2|0:0,0:0:0:0:
373,178,61906,1,2,0:0:0:0:
413,274,62423,1,2,0:0:0:0:
374,308,62681,6,0,P|318:276|255:284,1,130,6|10,3:2|0:0,0:0:0:0:
211,312,63457,2,0,P|224:249|201:189,1,130,6|2,3:2|3:2,0:0:0:0:
157,160,64233,1,8,0:0:0:0:
106,171,64492,6,0,L|112:41,1,130,6|0,3:2|3:0,0:0:0:0:
156,14,65268,1,8,0:0:0:0:
245,66,65785,2,0,L|309:61,1,65,8|2,0:0|3:2,0:0:0:0:
348,25,66302,1,8,0:0:0:0:
423,96,66819,6,0,B|445:158|445:158|419:216,1,130,6|2,3:2|0:0,0:0:0:0:
374,243,67595,2,0,L|309:239,1,65,2|8,3:2|0:0,0:0:0:0:
260,220,68113,2,0,L|272:349,1,130,2|2,0:0|0:0,0:0:0:0:
223,368,68888,6,0,P|162:352|136:295,1,130,0|2,3:0|0:3,0:0:0:0:
168,195,69923,1,8,0:0:0:0:
149,146,70181,2,0,L|84:154,1,65,2|2,0:0|0:0,0:0:0:0:
42,185,70699,1,2,0:0:0:0:
2,150,70957,6,0,B|-20:92|-20:92|11:31,1,130,0|0,3:0|0:0,0:0:0:0:
62,21,71733,1,0,3:0:0:0:
106,47,71992,2,0,B|177:37|162:73|234:64,1,130,8|2,0:0|0:0,0:0:0:0:
327,107,73026,5,0,3:0:0:0:
371,134,73285,2,0,L|376:198,1,65,2|2,0:0|0:0,0:0:0:0:
406,240,73802,1,2,3:2:0:0:
389,289,74061,2,0,P|338:326|274:320,1,130,8|2,0:0|0:0,0:0:0:0:
237,223,75095,6,0,L|107:236,1,130,6|2,3:2|0:3,0:0:0:0:
64,206,75871,1,0,3:0:0:0:
57,154,76130,1,8,0:0:0:0:
101,60,76647,1,2,0:3:0:0:
204,61,77164,6,0,L|334:74,1,130,0|2,3:0|0:3,0:0:0:0:
381,53,77940,1,0,3:0:0:0:
426,77,78199,2,0,B|448:139|448:139|422:197,1,130,8|2,0:0|0:3,0:0:0:0:
472,291,79233,5,0,3:0:0:0:
428,319,79492,2,0,L|363:313,1,65,2|2,0:0|0:0,0:0:0:0:
317,337,80009,1,2,3:2:0:0:
266,325,80268,2,0,L|201:330,1,65,10|2,0:0|0:0,0:0:0:0:
155,306,80785,1,2,0:0:0:0:
59,348,81302,6,0,P|16:303|27:242,1,130,2|0,3:2|0:0,0:0:0:0:
67,208,82078,1,0,3:0:0:0:
109,177,82337,2,0,L|98:47,1,130,8|0,0:0|0:0,0:0:0:0:
141,18,83113,1,2,0:0:0:0:
185,49,83371,5,2,0:0:0:0:
256,192,83509,12,2,85732,0:0:0:0:
