osu file format v14

[General]
AudioFilename: audio.mp3
AudioLeadIn: 0
PreviewTime: 58787
Countdown: 0
SampleSet: Soft
StackLeniency: 0
Mode: 0
LetterboxInBreaks: 0
WidescreenStoryboard: 0

[Editor]
Bookmarks: 560,9287,18014,22378,31105,39832,48560,57287,59469,68196,76923,85650,94378,103105,111832,118378,120560,129287,138014,146741,155469,164196,172923,181650,190378,198560
DistanceSpacing: 3
BeatDivisor: 6
GridSize: 32
TimelineZoom: 2.6

[Metadata]
Title:Gaikotsu Gakudan to Lilia
TitleUnicode:骸骨楽団とリリア
Artist:Kano
ArtistUnicode:鹿乃
Creator:23456789
Version:Lilia
Source:
Tags:pennek silent_rock three hatsune miku tohma acoustic arrange pop japanese
BeatmapID:2233313
BeatmapSetID:1066631

[Difficulty]
HPDrainRate:5
CircleSize:4
OverallDifficulty:7
ApproachRate:9
SliderMultiplier:2.2
SliderTickRate:1

[Events]
//Background and Video events
0,0,"kano_23456789.png",0,0
//Break Periods
2,18214,19323
2,20668,21778
2,85850,89141
//Storyboard Layer 0 (Background)
//Storyboard Layer 1 (Fail)
//Storyboard Layer 2 (Pass)
//Storyboard Layer 3 (Foreground)
//Storyboard Layer 4 (Overlay)
//Storyboard Sound Samples

[TimingPoints]
560,272.727272727273,4,2,3,50,1,0
560,-200,4,2,3,50,0,0
1105,-250,4,2,3,50,0,0
1650,-333.333333333333,4,2,3,50,0,0
2741,-200,4,2,3,50,0,0
3286,-250,4,2,3,50,0,0
3831,-333.333333333333,4,2,3,50,0,0
4923,-200,4,2,3,50,0,0
5468,-250,4,2,3,50,0,0
6013,-333.333333333333,4,2,3,50,0,0
7105,-200,4,2,3,50,0,0
7650,-250,4,2,3,50,0,0
8195,-333.333333333333,4,2,3,50,0,0
9014,-200,4,2,3,50,0,0
9287,-133.333333333333,4,2,3,70,0,0
18014,-133.333333333333,4,2,3,60,0,0
18287,-133.333333333333,4,2,4,60,0,0
22378,-200,4,2,4,60,0,0
26378,-200,4,2,3,60,0,0
27014,-200,4,2,2,60,0,0
27741,-200,4,2,3,60,0,0
28105,-200,4,2,2,60,0,0
28923,-133.333333333333,4,2,2,60,0,0
29923,-133.333333333333,4,2,3,60,0,0
30196,-133.333333333333,4,2,2,60,0,0
30560,-133.333333333333,4,2,3,60,0,0
31105,-200,4,2,3,60,0,0
31378,-200,4,2,4,60,0,0
34923,-200,4,2,2,60,0,0
37650,-133.333333333333,4,2,2,60,0,0
37923,-133.333333333333,4,2,3,60,0,0
39832,-200,4,2,3,50,0,0
57469,-200,4,2,3,55,0,0
57741,-200,4,2,3,60,0,0
58014,-200,4,2,3,65,0,0
58287,-200,4,2,3,70,0,0
59469,-133.333333333333,4,2,3,70,0,1
66014,-200,4,2,3,60,0,1
67105,-133.333333333333,4,2,3,60,0,1
67650,-200,4,2,3,60,0,1
68196,-133.333333333333,4,2,3,70,0,1
74741,-133.333333333333,4,2,3,60,0,1
75014,-133.333333333333,4,2,4,60,0,1
76650,-200,4,2,4,60,0,0
76923,-133.333333333333,4,2,4,70,0,0
77196,-133.333333333333,4,2,3,70,0,0
85650,-200,4,2,3,60,0,0
85923,-200,4,2,4,60,0,0
89469,-200,4,2,3,60,0,0
90287,-200,4,2,2,60,0,0
91014,-200,4,2,3,60,0,0
91287,-200,4,2,2,60,0,0
92196,-133.333333333333,4,2,2,60,0,0
93196,-133.333333333333,4,2,3,60,0,0
93560,-133.333333333333,4,2,2,60,0,0
94378,-200,4,2,2,60,0,0
94650,-200,4,2,4,60,0,0
98196,-200,4,2,2,60,0,0
99741,-200,4,2,3,60,0,0
100014,-200,4,2,2,60,0,0
100923,-133.333333333333,4,2,2,60,0,0
101196,-133.333333333333,4,2,3,60,0,0
103105,-200,4,2,3,50,0,0
118560,-200,4,2,3,55,0,0
118832,-200,4,2,3,60,0,0
119105,-200,4,2,3,65,0,0
119378,-200,4,2,3,70,0,0
120560,-133.333333333333,4,2,3,70,0,1
127105,-200,4,2,3,60,0,1
128196,-133.333333333333,4,2,3,60,0,1
128741,-200,4,2,3,60,0,1
129287,-133.333333333333,4,2,3,70,0,1
135832,-133.333333333333,4,2,3,60,0,1
136105,-133.333333333333,4,2,4,60,0,1
138014,-200,4,2,4,60,0,0
138832,-200,4,2,3,60,0,0
154923,-200,4,2,3,55,0,0
155469,-200,4,2,3,50,0,0
159832,-200,4,2,3,55,0,0
160923,-200,4,2,3,60,0,0
162014,-200,4,2,3,65,0,0
163105,-200,4,2,3,70,0,0
164196,-133.333333333333,4,2,3,70,0,1
170741,-200,4,2,3,60,0,1
171832,-133.333333333333,4,2,3,60,0,1
172378,-200,4,2,3,60,0,1
172923,-133.333333333333,4,2,3,70,0,1
179469,-200,4,2,3,60,0,1
180014,-200,4,2,3,50,0,1
180560,-166.666666666667,4,2,3,55,0,1
181105,-142.857142857143,4,2,3,60,0,1
181650,-133.333333333333,4,2,3,70,0,1
198560,-133.333333333333,4,2,3,70,0,0

[Colours]
Combo1 : 240,225,117
Combo2 : 117,240,117
Combo3 : 117,194,240
Combo4 : 240,117,117

[HitObjects]
96,320,560,6,0,L|213:307,1,110,2|2,1:2|0:0,0:0:0:0:
104,306,1105,2,0,L|197:295,1,88,2|2,1:2|0:0,0:0:0:0:
112,292,1650,2,0,L|184:284,1,65.9999979858399,2|2,1:2|0:0,0:0:0:0:
168,210,2105,1,0,1:0:0:0:
168,210,2378,2,0,L|96:218,1,65.9999979858399,0|2,1:0|0:0,0:0:0:0:
240,238,2741,6,0,L|253:121,1,110,2|2,1:2|0:0,0:0:0:0:
254,230,3287,2,0,L|265:137,1,88,2|2,1:2|0:0,0:0:0:0:
268,222,3832,2,0,L|276:150,1,65.9999979858399,2|2,1:2|0:0,0:0:0:0:
350,166,4287,1,0,1:0:0:0:
350,166,4560,2,0,L|342:238,1,65.9999979858399,0|2,1:0|0:0,0:0:0:0:
402,275,4923,6,0,P|358:303|303:292,1,110,2|2,1:2|0:0,0:0:0:0:
377,314,5469,2,0,P|325:321|286:297,1,88,2|2,1:2|0:0,0:0:0:0:
346,341,6014,2,0,P|313:336|286:317,1,65.9999979858399,2|2,1:2|0:0,0:0:0:0:
280,242,6469,1,0,1:0:0:0:
280,242,6741,2,0,P|313:247|340:266,1,65.9999979858399,0|2,1:0|0:0,0:0:0:0:
217,288,7105,6,0,L|100:303,1,110,2|2,1:2|0:0,0:0:0:0:
205,276,7650,2,0,L|112:287,1,88,2|2,1:2|0:0,0:0:0:0:
194,264,8196,2,0,L|122:273,1,65.9999979858399,2|2,1:2|0:0,0:0:0:0:
120,198,8650,1,0,1:0:0:0:
112,187,8741,1,8,0:0:0:0:
112,187,9014,2,0,L|68:166,2,36.6666666666667,0|0|0,0:0|0:0|0:0,0:0:0:0:
120,198,9287,6,0,P|177:174|197:132,1,110.000004196167,6|0,1:2|0:0,0:0:0:0:
186,60,9560,1,10,1:2:0:0:
255,199,9741,1,2,0:0:0:0:
265,209,9832,2,0,P|318:195|378:236,1,110.000004196167,2|0,1:2|0:0,0:0:0:0:
413,160,10105,2,0,L|467:152,1,55.0000020980836,10|0,0:0|0:0,0:0:0:0:
492,66,10287,5,2,0:0:0:0:
484,78,10378,2,0,L|360:94,1,110.000004196167,2|2,1:2|0:0,0:0:0:0:
310,54,10650,1,10,0:0:0:0:
189,60,10832,2,0,L|298:45,1,110.000004196167,0|0,1:0|0:0,0:0:0:0:
307,131,11105,1,0,1:0:0:0:
302,144,11196,1,10,0:0:0:0:
416,256,11469,6,0,P|408:317|434:355,1,110.000004196167,2|0,1:2|0:0,0:0:0:0:
479,295,11741,1,10,0:0:0:0:
325,327,11923,1,2,0:0:0:0:
317,337,12014,2,0,P|255:329|217:355,1,110.000004196167,0|0,1:0|0:0,0:0:0:0:
152,315,12287,2,0,L|143:247,1,55.0000020980836,10|0,0:0|0:0,0:0:0:0:
75,363,12469,5,2,0:0:0:0:
83,352,12560,2,0,L|69:237,1,110.000004196167,0|2,1:0|0:0,0:0:0:0:
87,168,12832,1,10,0:0:0:0:
198,167,13014,2,0,P|140:190|96:174,1,110.000004196167,0|0,1:0|0:0,0:0:0:0:
69,95,13287,1,0,1:0:0:0:
66,82,13378,2,0,L|55:19,2,55.0000020980836,10|0|0,0:0|0:0|0:0,0:0:0:0:
142,112,13650,6,0,P|199:88|243:104,1,110.000004196167,6|0,1:2|0:0,0:0:0:0:
275,172,13923,1,10,0:0:0:0:
146,268,14105,1,2,0:0:0:0:
155,258,14196,2,0,P|163:196|198:166,1,110.000004196167,2|0,1:2|0:0,0:0:0:0:
275,172,14469,2,0,L|349:162,1,55.0000020980836,10|0,0:0|0:0,0:0:0:0:
374,105,14650,5,2,0:0:0:0:
384,115,14741,2,0,L|371:245,1,110.000004196167,0|2,1:0|0:0,0:0:0:0:
327,284,15014,1,10,0:0:0:0:
405,343,15196,2,0,P|370:301|317:293,1,110.000004196167,0|0,1:0|0:0,0:0:0:0:
333,367,15469,1,0,1:0:0:0:
335,380,15560,1,10,0:0:0:0:
64,352,15832,6,0,P|95:307|89:254,1,110.000004196167,2|0,1:2|0:0,0:0:0:0:
33,205,16105,1,10,0:0:0:0:
108,61,16287,1,2,0:0:0:0:
116,72,16378,2,0,L|105:181,1,110.000004196167,2|0,1:2|0:0,0:0:0:0:
163,232,16650,2,0,L|224:224,1,55.0000020980836,10|0,0:0|0:0,0:0:0:0:
269,280,16832,5,2,0:0:0:0:
278,270,16923,2,0,P|272:216|303:172,1,110.000004196167,0|2,1:0|0:0,0:0:0:0:
377,166,17196,1,10,0:0:0:0:
413,61,17378,2,0,P|419:115|388:159,1,110.000004196167,0|0,1:0|0:0,0:0:0:0:
345,235,17650,1,0,1:0:0:0:
360,238,17741,2,0,L|417:246,2,55.0000020980836,10|0|0,0:0|0:0|0:0,0:0:0:0:
346,96,18014,5,0,1:0:0:0:
96,256,19923,6,0,L|87:192,2,55.0000020980836,8|0|0,0:0|0:0|0:0,0:0:0:0:
64,326,20196,2,0,P|142:317|172:244,1,165.000006294251,0|8,1:0|0:0,0:0:0:0:
96,64,22378,6,0,P|130:81|175:75,1,73.3333333333333,6|0,1:2|0:0,0:0:0:0:
220,33,22650,1,10,0:0:0:0:
288,142,22923,2,0,P|254:125|209:131,1,73.3333333333333,2|0,1:2|0:0,0:0:0:0:
170,180,23196,1,10,0:0:0:0:
49,138,23378,6,0,L|62:250,1,110,0|0,1:0|1:0,0:0:0:0:
70,320,23741,1,10,0:0:0:0:
218,372,24014,2,0,P|263:368|232:335,1,110,2|10,1:2|0:0,0:0:0:0:
341,368,24469,5,0,0:0:0:0:
351,366,24560,2,0,P|345:325|319:288,1,73.3333333333333,2|0,1:2|0:0,0:0:0:0:
268,257,24832,1,10,0:0:0:0:
402,231,25105,2,0,P|363:215|318:219,1,73.3333333333333,2|0,1:2|0:0,0:0:0:0:
266,248,25378,1,10,0:0:0:0:
255,128,25560,6,0,L|264:238,1,110,0|0,1:0|1:0,0:0:0:0:
192,227,25923,1,10,0:0:0:0:
305,74,26196,2,0,P|268:73|235:58,1,73.3333333333333,0|8,1:0|0:0,0:0:0:0:
167,87,26469,1,8,0:0:0:0:
155,85,26560,1,0,0:0:0:0:
143,83,26650,1,0,0:0:0:0:
89,34,26741,6,0,L|101:155,1,110,4|8,1:2|0:0,0:0:0:0:
113,303,27287,2,0,P|93:252|49:221,1,110,0|8,1:0|0:0,0:0:0:0:
66,357,27741,5,8,0:0:0:0:
69,368,27832,2,0,L|173:378,1,73.3333333333333,0|0,1:0|0:0,0:0:0:0:
205,334,28105,2,0,L|309:324,1,73.3333333333333,8|0,0:0|0:0,0:0:0:0:
337,369,28378,2,0,P|352:326|340:290,1,73.3333333333333,0|0,1:0|0:0,0:0:0:0:
289,251,28650,2,0,L|283:192,1,55,8|0,0:0|0:0,0:0:0:0:
416,275,28923,6,0,P|474:262|502:217,1,110.000004196167,0|0,1:0|0:0,0:0:0:0:
441,120,29196,2,0,L|429:201,1,82.5000031471254,8|0,0:0|0:0,0:0:0:0:
374,67,29469,6,0,L|356:193,1,110.000004196167,0|0,1:0|0:0,0:0:0:0:
347,250,29741,1,8,0:0:0:0:
267,360,29923,5,8,0:0:0:0:
258,370,30014,2,0,P|205:342|154:359,1,110.000004196167,0|8,1:0|0:0,0:0:0:0:
93,384,30287,2,0,L|84:294,1,82.5000031471254,8|0,0:0|0:0,0:0:0:0:
71,143,30560,6,0,P|71:115|79:89,2,55.0000020980836,8|8|8,1:2|0:0|0:0,0:0:0:0:
145,126,30832,2,0,P|159:102|179:83,2,55.0000020980836,8|8|8,0:0|0:0|0:0,0:0:0:0:
217,148,31105,6,0,P|253:149|285:132,1,73.3333333333333,6|0,1:2|0:0,0:0:0:0:
297,59,31378,1,10,0:0:0:0:
418,273,31650,2,0,P|381:274|349:257,1,73.3333333333333,2|0,1:2|0:0,0:0:0:0:
338,184,31923,1,10,0:0:0:0:
298,311,32105,6,0,L|176:298,1,110,0|0,1:0|1:0,0:0:0:0:
116,291,32469,1,10,0:0:0:0:
196,118,32741,2,0,P|146:140|93:132,1,110,2|10,1:2|0:0,0:0:0:0:
254,72,33287,6,0,L|265:151,1,73.3333333333333,2|0,1:2|0:0,0:0:0:0:
274,216,33560,1,10,0:0:0:0:
395,137,33832,2,0,L|331:186,1,73.3333333333333,2|0,1:2|0:0,0:0:0:0:
280,225,34105,1,10,0:0:0:0:
379,270,34287,6,0,P|319:266|282:230,1,110,0|0,1:0|1:0,0:0:0:0:
200,214,34650,1,10,0:0:0:0:
81,320,34923,2,0,B|78:311|78:311|83:304|83:304|80:295|80:295|85:288|85:288|82:279|82:279|87:272|87:272|84:263|84:263|89:256|89:256|87:248,1,73.3333333333333,8|0,1:2|0:0,0:0:0:0:
99,181,35196,1,0,0:0:0:0:
97,169,35287,1,0,0:0:0:0:
95,157,35378,1,0,0:0:0:0:
44,105,35469,6,0,P|104:101|141:65,1,110,4|8,1:2|0:0,0:0:0:0:
221,207,36014,2,0,L|209:90,1,110,0|8,1:0|0:0,0:0:0:0:
273,263,36469,5,0,0:0:0:0:
280,273,36560,2,0,L|192:283,1,73.3333333333333,0|0,1:0|0:0,0:0:0:0:
149,234,36832,2,0,L|61:223,1,73.3333333333333,8|0,0:0|0:0,0:0:0:0:
18,176,37105,2,0,L|29:285,1,110,0|8,1:0|0:0,0:0:0:0:
160,64,37650,6,0,P|202:96|255:91,1,110.000004196167,0|0,1:0|0:0,0:0:0:0:
318,50,37923,2,0,P|310:103|341:146,1,110.000004196167,8|0,0:0|0:0,0:0:0:0:
409,179,38196,1,8,0:0:0:0:
115,254,38469,1,0,1:0:0:0:
212,332,38650,6,0,P|220:279|189:236,1,110.000004196167,8|0,0:0|0:0,0:0:0:0:
137,180,38923,1,8,0:0:0:0:
132,167,39014,1,0,1:0:0:0:
141,4,39287,2,0,P|133:57|164:100,2,110.000004196167,8|8|8,1:2|0:0|0:0,0:0:0:0:
231,134,39832,6,0,P|262:114|299:113,1,73.3333333333333,2|0,1:2|0:0,0:0:0:0:
332,180,40105,2,0,P|365:193|401:188,1,73.3333333333333,2|0,0:0|0:0,0:0:0:0:
386,8,40378,2,0,L|374:117,1,110,2|2,1:2|0:0,0:0:0:0:
361,313,40832,5,0,0:0:0:0:
354,323,40923,2,0,B|261:294|271:373|179:344,1,183.333333333333,0|0,1:0|0:0,0:0:0:0:
253,214,41469,2,0,P|177:208|213:274,1,183.333333333333,2|0,1:2|0:0,0:0:0:0:
326,239,42014,6,0,L|315:157,1,73.3333333333333,2|0,1:2|0:0,0:0:0:0:
377,121,42287,2,0,L|388:39,1,73.3333333333333,2|0,0:0|0:0,0:0:0:0:
202,79,42560,2,0,P|252:101|306:93,1,110,2|2,1:2|0:0,0:0:0:0:
155,13,43014,5,0,0:0:0:0:
153,25,43105,2,0,L|130:211,1,183.333333333333,0|0,1:0|0:0,0:0:0:0:
65,176,43650,2,0,P|140:135|202:194,1,183.333333333333,2|0,1:2|0:0,0:0:0:0:
178,266,44196,6,0,L|260:277,1,73.3333333333333,2|0,1:2|0:0,0:0:0:0:
310,322,44469,2,0,L|392:311,1,73.3333333333333,2|0,0:0|0:0,0:0:0:0:
364,153,44741,2,0,P|324:192|319:245,1,110,2|2,1:2|0:0,0:0:0:0:
441,115,45196,5,0,0:0:0:0:
433,124,45287,2,0,L|236:99,1,183.333333333333,0|0,1:0|0:0,0:0:0:0:
178,89,45832,2,0,P|161:70|155:34,3,55,2|0|2|0,1:2|0:0|0:0|0:0,0:0:0:0:
204,162,46378,6,0,P|187:194|155:214,1,73.3333333333333,2|0,1:2|0:0,0:0:0:0:
176,285,46650,2,0,P|140:286|108:270,1,73.3333333333333,2|0,0:0|0:0,0:0:0:0:
75,97,46923,2,0,P|97:146|82:198,1,110,2|2,1:2|0:0,0:0:0:0:
44,365,47378,5,8,0:0:0:0:
48,353,47469,1,0,1:0:0:0:
110,279,47650,5,0,0:0:0:0:
114,291,47741,1,0,0:0:0:0:
172,372,47923,5,0,1:0:0:0:
178,354,48014,1,0,0:0:0:0:
236,264,48196,5,0,0:0:0:0:
242,282,48287,1,0,1:0:0:0:
304,363,48469,5,0,0:0:0:0:
311,345,48560,2,0,L|345:259,1,73.3333333333333,2|0,1:2|0:0,0:0:0:0:
411,263,48832,2,0,L|397:171,1,73.3333333333333,2|0,0:0|0:0,0:0:0:0:
311,94,49105,2,0,L|325:203,1,110,2|2,1:2|0:0,0:0:0:0:
239,323,49560,5,0,0:0:0:0:
234,334,49650,2,0,B|141:305|151:384|59:355,1,183.333333333333,0|0,1:0|0:0,0:0:0:0:
22,274,50196,2,0,L|101:286,1,73.3333333333333,2|0,1:2|0:0,0:0:0:0:
33,199,50469,2,0,L|105:210,1,73.3333333333333,2|0,0:0|0:0,0:0:0:0:
163,162,50741,6,0,L|236:151,1,73.3333333333333,2|0,1:2|0:0,0:0:0:0:
247,226,51014,2,0,L|175:238,1,73.3333333333333,2|0,0:0|0:0,0:0:0:0:
305,177,51287,2,0,P|322:228|302:279,1,110,2|2,1:2|0:0,0:0:0:0:
305,99,51741,5,0,0:0:0:0:
315,103,51832,2,0,B|346:92|371:55|362:12|362:12|383:45|423:50,1,183.333333333333,0|0,1:0|0:0,0:0:0:0:
445,146,52378,2,0,P|437:71|505:104,1,183.333333333333,2|0,1:2|0:0,0:0:0:0:
495,203,52923,6,0,P|462:219|426:218,1,73.3333333333333,2|0,1:2|0:0,0:0:0:0:
377,276,53196,2,0,P|409:293|445:292,1,73.3333333333333,2|0,0:0|0:0,0:0:0:0:
509,334,53469,2,0,P|445:368|396:361,1,110,2|2,1:2|0:0,0:0:0:0:
256,288,53923,5,0,0:0:0:0:
258,276,54014,2,0,B|268:204|268:204|296:176|296:176|307:97,1,183.333333333333,0|0,1:0|0:0,0:0:0:0:
238,69,54560,2,0,L|228:142,1,73.3333333333333,2|0,1:2|0:0,0:0:0:0:
159,171,54832,2,0,L|101:125,1,73.3333333333333,2|0,0:0|0:0,0:0:0:0:
111,51,55105,6,0,L|178:23,1,73.3333333333333,2|0,1:2|0:0,0:0:0:0:
248,71,55378,2,0,L|238:144,1,73.3333333333333,2|0,0:0|0:0,0:0:0:0:
153,180,55650,2,0,L|95:134,1,73.3333333333333,2|0,1:2|0:0,0:0:0:0:
107,42,55923,1,10,0:0:0:0:
81,235,56105,5,8,0:0:0:0:
79,247,56196,2,0,L|67:327,1,73.3333333333333,0|2,1:0|0:0,0:0:0:0:
127,364,56469,2,0,L|196:337,1,73.3333333333333,10|0,0:0|0:0,0:0:0:0:
68,246,56741,2,0,L|58:320,1,73.3333333333333,2|0,1:2|0:0,0:0:0:0:
131,375,57014,2,0,L|200:348,1,73.3333333333333,0|0,0:0|0:0,0:0:0:0:
211,255,57287,5,0,1:0:0:0:
294,384,57469,5,0,0:0:0:0:
306,382,57560,1,0,1:0:0:0:
430,343,57741,5,0,0:0:0:0:
415,340,57832,1,0,1:0:0:0:
294,296,58014,5,0,0:0:0:0:
312,292,58105,1,0,1:0:0:0:
435,233,58287,5,0,0:0:0:0:
413,228,58378,1,8,1:2:0:0:
413,228,58923,5,0,0:0:0:0:
413,228,59196,2,0,P|397:195|398:159,1,73.3333333333333,0|0,0:0|0:0,0:0:0:0:
484,105,59469,6,0,L|365:89,1,110.000004196167,4|0,1:2|0:0,0:0:0:0:
323,147,59741,1,8,0:0:0:0:
157,223,59923,1,0,0:0:0:0:
165,233,60014,2,0,L|284:217,1,110.000004196167,0|0,1:0|0:0,0:0:0:0:
320,156,60287,1,8,0:0:0:0:
375,381,60469,6,0,B|400:295|321:309|347:223,1,165.000006294251,0|0,1:0|1:0,0:0:0:0:
417,253,60832,1,8,0:0:0:0:
305,353,61014,1,0,0:0:0:0:
301,364,61105,1,0,1:0:0:0:
219,228,61287,1,0,0:0:0:0:
215,217,61378,1,8,0:0:0:0:
129,351,61560,5,0,0:0:0:0:
124,362,61650,2,0,P|61:364|25:335,1,110.000004196167,0|0,1:0|0:0,0:0:0:0:
171,287,61923,2,0,P|204:339|197:385,1,110.000004196167,8|0,0:0|0:0,0:0:0:0:
94,284,62196,2,0,P|122:228|165:212,1,110.000004196167,0|0,1:0|0:0,0:0:0:0:
234,239,62469,1,8,0:0:0:0:
307,18,62650,6,0,L|285:182,1,165.000006294251,0|0,1:0|1:0,0:0:0:0:
311,254,63014,1,8,0:0:0:0:
461,195,63196,1,0,0:0:0:0:
467,206,63287,2,0,P|435:249|441:303,1,110.000004196167,0|0,1:0|0:0,0:0:0:0:
392,358,63560,2,0,P|338:352|294:384,1,110.000004196167,8|0,0:0|0:0,0:0:0:0:
226,358,63832,5,4,1:2:0:0:
111,134,64105,1,8,0:0:0:0:
78,289,64287,1,0,0:0:0:0:
84,300,64378,2,0,P|138:306|182:274,1,110.000004196167,0|0,1:0|0:0,0:0:0:0:
219,210,64650,1,8,0:0:0:0:
358,281,64832,1,0,1:0:0:0:
362,293,64923,1,0,0:0:0:0:
476,180,65105,5,0,1:0:0:0:
482,169,65196,2,0,P|450:125|456:71,1,110.000004196167,8|0,0:0|0:0,0:0:0:0:
497,9,65469,2,0,L|372:26,1,110.000004196167,0|0,1:0|0:0,0:0:0:0:
337,79,65741,2,0,L|212:62,1,110.000004196167,8|0,0:0|0:0,0:0:0:0:
121,117,66014,6,0,P|126:159|151:125,1,110,0|8,1:0|0:0,0:0:0:0:
60,208,66469,1,0,0:0:0:0:
58,221,66560,2,0,P|102:253|156:247,1,110.000004196167,0|8,1:0|0:0,0:0:0:0:
250,333,67014,5,0,0:0:0:0:
262,330,67105,2,0,P|293:286|287:232,1,110.000004196167,0|0,1:0|0:0,0:0:0:0:
363,214,67378,2,0,P|385:263|434:285,1,110.000004196167,8|0,0:0|0:0,0:0:0:0:
413,355,67650,2,0,P|377:346|342:355,1,73.3333333333333,8|0,1:2|0:0,0:0:0:0:
317,381,67923,1,0,0:0:0:0:
352,64,68196,6,0,P|396:94|450:89,1,110.000004196167,4|0,1:2|0:0,0:0:0:0:
508,44,68469,1,8,0:0:0:0:
305,118,68650,1,0,0:0:0:0:
296,127,68741,2,0,P|251:96|197:101,1,110.000004196167,0|0,1:0|0:0,0:0:0:0:
140,147,69014,1,8,0:0:0:0:
232,298,69196,6,0,P|189:233|230:166,1,165.000006294251,0|0,1:0|1:0,0:0:0:0:
267,232,69560,1,8,0:0:0:0:
167,337,69741,1,0,0:0:0:0:
156,333,69832,1,0,1:0:0:0:
312,384,70014,1,0,0:0:0:0:
323,380,70105,1,8,0:0:0:0:
424,265,70287,5,0,0:0:0:0:
426,253,70378,2,0,L|439:122,1,110.000004196167,0|0,1:0|0:0,0:0:0:0:
474,79,70650,2,0,L|372:120,1,110.000004196167,8|0,0:0|0:0,0:0:0:0:
299,124,70923,2,0,L|385:191,1,110.000004196167,0|0,1:0|0:0,0:0:0:0:
426,253,71196,1,8,0:0:0:0:
336,56,71378,6,0,P|251:65|222:132,1,165.000006294251,0|0,1:0|1:0,0:0:0:0:
266,192,71741,1,8,0:0:0:0:
160,320,71923,1,0,0:0:0:0:
153,330,72014,2,0,L|26:313,1,110.000004196167,0|0,1:0|0:0,0:0:0:0:
24,241,72287,2,0,L|150:258,1,110.000004196167,8|0,0:0|0:0,0:0:0:0:
206,267,72560,5,4,1:2:0:0:
478,237,72832,1,8,0:0:0:0:
348,327,73014,1,0,0:0:0:0:
335,327,73105,2,0,P|304:282|308:228,1,110.000004196167,0|0,1:0|0:0,0:0:0:0:
353,171,73378,1,8,0:0:0:0:
239,63,73560,1,0,1:0:0:0:
227,67,73650,1,0,0:0:0:0:
88,139,73832,5,0,1:0:0:0:
100,143,73923,2,0,P|130:187|126:241,1,110.000004196167,8|0,0:0|0:0,0:0:0:0:
63,280,74196,2,0,P|116:275|161:306,1,110.000004196167,0|8,1:0|0:0,0:0:0:0:
163,378,74469,2,0,P|185:330|234:307,1,110.000004196167,8|0,0:0|0:0,0:0:0:0:
297,340,74741,6,0,B|248:300|218:222|301:158|405:185|413:284|376:323|312:318|316:254,1,330.000012588501,0|0,1:0|1:0,0:0:0:0:
448,64,76650,6,0,L|456:13,2,36.6666666666667
445,77,76923,6,0,P|389:105|344:93,1,110.000004196167,6|0,1:2|0:0,0:0:0:0:
297,39,77196,1,10,0:0:0:0:
167,117,77378,1,2,0:0:0:0:
175,127,77469,2,0,P|231:99|276:111,1,110.000004196167,2|0,1:2|0:0,0:0:0:0:
323,165,77741,2,0,L|315:240,1,55.0000020980836,10|0,0:0|0:0,0:0:0:0:
394,267,77923,5,2,0:0:0:0:
384,256,78014,2,0,L|395:146,1,110.000004196167,2|2,1:2|0:0,0:0:0:0:
463,117,78287,1,10,0:0:0:0:
461,237,78469,2,0,L|472:127,1,110.000004196167,0|0,1:0|0:0,0:0:0:0:
405,74,78741,1,0,1:0:0:0:
395,63,78832,1,10,0:0:0:0:
435,332,79105,6,0,P|382:342|335:315,1,110.000004196167,2|0,1:2|0:0,0:0:0:0:
394,267,79378,1,10,0:0:0:0:
269,353,79560,1,2,0:0:0:0:
262,364,79650,2,0,P|215:337|162:347,1,110.000004196167,0|0,1:0|0:0,0:0:0:0:
108,297,79923,2,0,L|101:229,1,55.0000020980836,10|0,0:0|0:0,0:0:0:0:
29,189,80105,5,2,0:0:0:0:
40,199,80196,2,0,L|150:188,1,110.000004196167,0|2,1:0|0:0,0:0:0:0:
220,154,80469,1,10,0:0:0:0:
247,245,80650,2,0,P|221:198|231:145,1,110.000004196167,0|0,1:0|0:0,0:0:0:0:
296,110,80923,1,0,1:0:0:0:
299,97,81014,2,0,L|309:42,2,55.0000020980836,10|0|0,0:0|0:0|0:0,0:0:0:0:
294,185,81287,6,0,P|350:213|395:201,1,110.000004196167,6|0,1:2|0:0,0:0:0:0:
442,147,81560,1,10,0:0:0:0:
512,284,81741,1,2,0:0:0:0:
504,294,81832,2,0,P|448:266|403:278,1,110.000004196167,2|0,1:2|0:0,0:0:0:0:
356,332,82105,2,0,L|301:325,1,55.0000020980836,10|0,0:0|0:0,0:0:0:0:
230,375,82287,5,2,0:0:0:0:
240,365,82378,2,0,P|236:302|203:269,1,110.000004196167,0|2,1:0|0:0,0:0:0:0:
132,268,82650,1,10,0:0:0:0:
58,348,82832,2,0,L|168:337,1,110.000004196167,0|0,1:0|0:0,0:0:0:0:
204,270,83105,1,0,1:0:0:0:
210,258,83196,1,10,0:0:0:0:
62,73,83469,6,0,L|185:84,1,110.000004196167,2|0,1:2|0:0,0:0:0:0:
220,22,83741,1,10,0:0:0:0:
351,118,83923,1,2,0:0:0:0:
346,106,84014,2,0,P|284:116|244:91,1,110.000004196167,2|0,1:2|0:0,0:0:0:0:
198,152,84287,2,0,L|190:206,1,55.0000020980836,10|0,0:0|0:0,0:0:0:0:
163,278,84469,5,2,0:0:0:0:
168,290,84560,2,0,P|229:279|269:304,1,110.000004196167,0|2,1:0|0:0,0:0:0:0:
336,269,84832,1,10,0:0:0:0:
443,292,85014,2,0,P|381:302|341:277,1,110.000004196167,0|0,1:0|0:0,0:0:0:0:
399,229,85287,1,0,1:0:0:0:
402,216,85378,2,0,L|411:157,2,55.0000020980836,10|0|0,0:0|0:0|0:0,0:0:0:0:
377,376,85650,5,6,1:2:0:0:
96,64,89741,5,8,1:2:0:0:
94,76,89832,1,0,0:0:0:0:
92,88,89923,1,8,0:0:0:0:
56,153,90014,6,0,P|107:138|155:161,1,110.000004196167,4|8,1:2|0:0,0:0:0:0:
144,323,90560,2,0,P|93:337|45:314,1,110.000004196167,0|8,1:0|0:0,0:0:0:0:
197,267,91014,5,8,0:0:0:0:
205,275,91105,2,0,L|302:265,1,73.3333333333333,0|8,1:0|0:0,0:0:0:0:
325,324,91378,2,0,P|346:294|352:259,1,73.3333333333333,8|0,0:0|0:0,0:0:0:0:
308,199,91650,2,0,P|295:164|298:128,1,73.3333333333333,0|0,1:0|0:0,0:0:0:0:
356,82,91923,2,0,L|362:28,1,55,8|0,0:0|0:0,0:0:0:0:
466,165,92196,6,0,P|415:179|367:155,1,110.000004196167,0|0,1:0|0:0,0:0:0:0:
226,211,92469,2,0,L|307:199,1,82.5000031471254,8|0,0:0|0:0,0:0:0:0:
193,289,92741,6,0,L|319:271,1,110.000004196167,0|0,1:0|0:0,0:0:0:0:
375,265,93014,1,8,0:0:0:0:
158,353,93196,5,8,0:0:0:0:
146,347,93287,2,0,P|118:294|135:243,1,110.000004196167,0|0,1:0|0:0,0:0:0:0:
171,185,93560,2,0,L|176:99,1,82.5000031471254,8|0,0:0|0:0,0:0:0:0:
98,43,93832,5,0,1:0:0:0:
206,253,94105,1,8,0:0:0:0:
480,128,94378,6,0,P|444:127|412:144,1,73.3333333333333,6|0,1:2|0:0,0:0:0:0:
400,217,94650,1,10,0:0:0:0:
285,114,94923,2,0,P|321:115|353:98,1,73.3333333333333,2|0,1:2|0:0,0:0:0:0:
365,25,95196,1,10,0:0:0:0:
227,68,95378,6,0,L|240:190,1,110,0|0,1:0|1:0,0:0:0:0:
247,250,95741,1,10,0:0:0:0:
111,334,96014,2,0,P|164:335|206:370,1,110,2|10,1:2|0:0,0:0:0:0:
367,329,96560,6,0,P|368:286|350:245,1,73.3333333333333,2|0,1:2|0:0,0:0:0:0:
306,205,96832,1,10,0:0:0:0:
442,206,97105,2,0,P|406:182|360:177,1,73.3333333333333,2|0,1:2|0:0,0:0:0:0:
305,196,97378,1,10,0:0:0:0:
318,76,97560,6,0,L|305:185,1,110,0|0,1:0|1:0,0:0:0:0:
237,162,97923,1,10,0:0:0:0:
96,96,98196,2,0,B|93:105|93:105|98:112|98:112|95:121|95:121|100:128|100:128|97:137|97:137|102:144|102:144|99:153|99:153|104:160|104:160|102:168,1,73.3333333333333,8|0,1:2|0:0,0:0:0:0:
114,235,98469,1,0,0:0:0:0:
112,247,98560,1,0,0:0:0:0:
110,259,98650,1,0,0:0:0:0:
58,311,98741,6,0,P|111:312|153:347,1,110,4|8,1:2|0:0,0:0:0:0:
324,290,99287,2,0,L|215:304,1,110,0|8,1:0|0:0,0:0:0:0:
381,341,99741,5,8,0:0:0:0:
391,347,99832,2,0,L|399:273,1,73.3333333333333,0|8,1:0|0:0,0:0:0:0:
349,218,100105,2,0,L|341:144,1,73.3333333333333,8|0,0:0|0:0,0:0:0:0:
395,93,100378,2,0,P|341:100|295:73,1,110,0|8,1:0|0:0,0:0:0:0:
96,352,100923,6,0,P|128:310|123:257,1,110.000004196167,0|0,1:0|0:0,0:0:0:0:
185,217,101196,2,0,P|143:184|90:189,1,110.000004196167,8|0,0:0|0:0,0:0:0:0:
50,128,101469,1,8,0:0:0:0:
352,256,101741,1,0,1:0:0:0:
436,119,101923,6,0,L|418:245,1,110.000004196167,8|0,0:0|0:0,0:0:0:0:
411,300,102196,1,8,0:0:0:0:
417,314,102287,1,0,1:0:0:0:
279,266,102560,6,0,P|281:238|291:213,2,55.0000020980836,8|8|8,1:2|0:0|0:0,0:0:0:0:
217,313,102832,2,0,P|205:288|201:261,2,55.0000020980836,8|8|8,0:0|0:0|0:0,0:0:0:0:
186,384,103105,6,0,P|156:361|141:328,1,73.3333333333333,2|0,1:2|0:0,0:0:0:0:
67,338,103378,2,0,P|71:301|91:272,1,73.3333333333333,2|0,0:0|0:0,0:0:0:0:
147,155,103650,2,0,P|170:204|163:258,1,110,2|2,1:2|0:0,0:0:0:0:
2,95,104105,5,0,0:0:0:0:
9,105,104196,2,0,B|102:134|92:55|184:84,1,183.333333333333,0|0,1:0|0:0,0:0:0:0:
295,138,104741,2,0,P|219:144|255:78,1,183.333333333333,2|0,1:2|0:0,0:0:0:0:
347,85,105287,6,0,P|367:116|368:153,1,73.3333333333333,2|0,1:2|0:0,0:0:0:0:
324,211,105560,2,0,P|311:244|316:280,1,73.3333333333333,2|0,0:0|0:0,0:0:0:0:
494,267,105832,2,0,L|385:255,1,110,2|2,1:2|0:0,0:0:0:0:
305,354,106287,5,2,0:0:0:0:
298,363,106378,2,0,B|245:367|215:326|215:326|180:364|135:354,1,183.333333333333,0|0,1:0|0:0,0:0:0:0:
153,281,106923,2,0,B|181:187|102:197|131:105,1,183.333333333333,2|0,1:2|0:0,0:0:0:0:
199,141,107469,6,0,L|281:152,1,73.3333333333333,2|0,1:2|0:0,0:0:0:0:
317,90,107741,2,0,L|399:79,1,73.3333333333333,2|0,0:0|0:0,0:0:0:0:
359,265,108014,2,0,P|337:215|345:161,1,110,2|2,1:2|0:0,0:0:0:0:
217,305,108469,5,0,0:0:0:0:
221,315,108560,2,0,B|314:286|304:365|396:336,1,183.333333333333,0|0,1:0|0:0,0:0:0:0:
464,310,109105,2,0,P|477:288|477:251,3,55,2|0|2|0,1:2|0:0|0:0|0:0,0:0:0:0:
405,263,109650,6,0,P|390:228|394:192,1,73.3333333333333,2|0,1:2|0:0,0:0:0:0:
324,163,109923,2,0,P|345:132|377:117,1,73.3333333333333,2|0,0:0|0:0,0:0:0:0:
462,49,110196,2,0,P|410:63|361:41,1,110,2|2,1:2|0:0,0:0:0:0:
238,8,110650,5,8,0:0:0:0:
237,21,110741,1,0,1:0:0:0:
141,32,110923,5,0,0:0:0:0:
147,45,111014,1,0,0:0:0:0:
62,96,111196,5,0,1:0:0:0:
73,107,111287,1,0,0:0:0:0:
17,190,111469,5,0,0:0:0:0:
33,197,111560,1,0,1:0:0:0:
8,293,111741,5,0,0:0:0:0:
26,290,111832,2,0,L|108:279,1,73.3333333333333,2|0,1:2|0:0,0:0:0:0:
159,326,112105,2,0,L|241:337,1,73.3333333333333,2|0,0:0|0:0,0:0:0:0:
212,158,112378,2,0,P|172:197|167:250,1,110,2|2,1:2|0:0,0:0:0:0:
390,356,112832,5,0,0:0:0:0:
400,352,112923,2,0,B|387:255|463:278|451:183,1,183.333333333333,0|0,1:0|0:0,0:0:0:0:
447,109,113469,2,0,P|410:119|384:145,1,73.3333333333333,2|0,1:2|0:0,0:0:0:0:
319,111,113741,2,0,P|309:146|318:181,1,73.3333333333333,2|0,0:0|0:0,0:0:0:0:
352,248,114014,6,0,P|316:255|281:246,1,73.3333333333333,2|0,1:2|0:0,0:0:0:0:
239,310,114287,2,0,P|213:283|203:248,1,73.3333333333333,2|0,0:0|0:0,0:0:0:0:
208,84,114560,2,0,P|239:129|241:183,1,110,2|2,1:2|0:0,0:0:0:0:
141,29,115014,5,2,0:0:0:0:
149,38,115105,2,0,L|346:13,1,183.333333333333,0|0,1:0|0:0,0:0:0:0:
370,78,115650,2,0,P|422:23|439:96,1,183.333333333333,2|0,1:2|0:0,0:0:0:0:
388,152,116196,6,0,P|368:183|367:220,1,73.3333333333333,2|0,1:2|0:0,0:0:0:0:
434,253,116469,2,0,P|447:286|442:322,1,73.3333333333333,2|0,0:0|0:0,0:0:0:0:
262,307,116741,2,0,L|371:295,1,110,2|2,1:2|0:0,0:0:0:0:
196,377,117196,5,0,0:0:0:0:
193,363,117287,2,0,B|184:290|184:290|203:256|203:256|194:177,1,183.333333333333,0|0,1:0|0:0,0:0:0:0:
118,168,117832,2,0,L|127:240,1,73.3333333333333,2|0,1:2|0:0,0:0:0:0:
53,250,118105,2,0,L|43:177,1,73.3333333333333,2|0,0:0|0:0,0:0:0:0:
72,107,118378,5,0,1:0:0:0:
176,32,118560,5,0,0:0:0:0:
180,44,118650,1,0,1:0:0:0:
275,30,118832,5,0,0:0:0:0:
273,44,118923,1,0,1:0:0:0:
368,71,119105,5,0,0:0:0:0:
361,84,119196,1,0,1:0:0:0:
436,150,119378,5,0,0:0:0:0:
422,161,119469,1,8,1:2:0:0:
422,161,120014,5,8,0:0:0:0:
422,161,120287,2,0,P|406:194|407:230,1,73.3333333333333,8|0,0:0|0:0,0:0:0:0:
450,320,120560,6,0,P|396:314|351:344,1,110.000004196167,4|0,1:2|0:0,0:0:0:0:
286,309,120832,1,8,0:0:0:0:
110,304,121014,1,0,0:0:0:0:
115,293,121105,2,0,P|168:298|213:268,1,110.000004196167,0|0,1:0|0:0,0:0:0:0:
279,304,121378,1,8,0:0:0:0:
151,225,121560,6,0,B|125:139|204:153|178:67,1,165.000006294251,0|0,1:0|1:0,0:0:0:0:
109,97,121923,1,8,0:0:0:0:
221,197,122105,1,0,0:0:0:0:
225,208,122196,1,0,1:0:0:0:
307,72,122378,1,0,0:0:0:0:
311,61,122469,1,8,0:0:0:0:
397,195,122650,5,0,0:0:0:0:
402,206,122741,2,0,P|464:197|494:162,1,110.000004196167,0|0,1:0|0:0,0:0:0:0:
423,282,123014,2,0,P|360:273|330:238,1,110.000004196167,8|0,0:0|0:0,0:0:0:0:
401,358,123287,2,0,P|463:349|493:314,1,110.000004196167,0|0,1:0|0:0,0:0:0:0:
487,238,123560,1,8,0:0:0:0:
326,348,123741,6,0,L|162:326,1,165.000006294251,0|0,1:0|1:0,0:0:0:0:
89,352,124105,1,8,0:0:0:0:
121,199,124287,1,0,0:0:0:0:
124,186,124378,2,0,P|101:127|60:106,1,110.000004196167,0|0,1:0|0:0,0:0:0:0:
88,36,124650,2,0,P|149:45|188:20,1,110.000004196167,8|0,0:0|0:0,0:0:0:0:
237,80,124923,5,4,1:2:0:0:
225,335,125196,1,8,0:0:0:0:
329,217,125378,1,0,0:0:0:0:
329,204,125469,2,0,P|285:171|231:177,1,110.000004196167,0|0,1:0|0:0,0:0:0:0:
167,214,125741,1,8,0:0:0:0:
27,138,125923,1,0,1:0:0:0:
15,142,126014,1,0,0:0:0:0:
159,64,126196,5,0,1:0:0:0:
169,69,126287,2,0,P|219:47|241:-2,1,110.000004196167,8|0,0:0|0:0,0:0:0:0:
277,65,126560,2,0,L|402:82,1,110.000004196167,0|0,1:0|0:0,0:0:0:0:
404,152,126832,2,0,L|529:135,1,110.000004196167,8|0,0:0|0:0,0:0:0:0:
373,238,127105,6,0,P|378:280|403:246,1,110,0|8,1:0|0:0,0:0:0:0:
312,329,127560,1,0,0:0:0:0:
310,342,127650,2,0,P|354:374|408:368,1,110.000004196167,0|8,1:0|0:0,0:0:0:0:
205,362,128105,5,0,0:0:0:0:
197,372,128196,2,0,P|153:340|100:346,1,110.000004196167,0|0,1:0|0:0,0:0:0:0:
45,297,128469,2,0,P|51:243|19:199,1,110.000004196167,8|0,0:0|0:0,0:0:0:0:
45,130,128741,2,0,P|94:108|117:61,1,73.3333333333333,8|0,1:2|0:0,0:0:0:0:
116,59,129014,1,0,0:0:0:0:
320,224,129287,6,0,L|438:241,1,110.000004196167,4|0,1:2|0:0,0:0:0:0:
490,192,129560,1,8,0:0:0:0:
255,260,129741,1,0,0:0:0:0:
249,271,129832,2,0,L|130:253,1,110.000004196167,0|0,1:0|0:0,0:0:0:0:
79,303,130105,1,8,0:0:0:0:
238,343,130287,6,0,P|310:311|311:232,1,165.000006294251,0|0,1:0|1:0,0:0:0:0:
255,186,130650,1,8,0:0:0:0:
404,236,130832,1,0,0:0:0:0:
408,247,130923,1,0,1:0:0:0:
508,124,131105,1,0,0:0:0:0:
512,113,131196,1,8,0:0:0:0:
359,74,131378,5,0,0:0:0:0:
354,85,131469,2,0,P|316:123|262:127,1,110.000004196167,0|0,1:0|0:0,0:0:0:0:
273,201,131741,2,0,P|220:187|190:143,1,110.000004196167,8|0,0:0|0:0,0:0:0:0:
131,189,132014,2,0,P|116:137|139:88,1,110.000004196167,0|0,1:0|0:0,0:0:0:0:
213,73,132287,1,8,0:0:0:0:
179,246,132469,6,0,P|101:258|56:194,1,165.000006294251,0|0,1:0|1:0,0:0:0:0:
64,121,132832,1,8,0:0:0:0:
134,340,133014,1,0,0:0:0:0:
141,350,133105,2,0,L|268:367,1,110.000004196167,0|0,1:0|0:0,0:0:0:0:
304,314,133378,2,0,L|431:297,1,110.000004196167,8|0,0:0|0:0,0:0:0:0:
477,337,133650,5,4,1:2:0:0:
437,51,133923,1,8,0:0:0:0:
358,187,134105,1,0,0:0:0:0:
359,200,134196,2,0,P|406:226|459:218,1,110.000004196167,0|0,1:0|0:0,0:0:0:0:
512,169,134469,1,8,0:0:0:0:
339,83,134650,1,0,1:0:0:0:
336,95,134741,1,0,0:0:0:0:
220,210,134923,5,0,1:0:0:0:
217,198,135014,2,0,P|173:166|119:171,1,110.000004196167,8|0,0:0|0:0,0:0:0:0:
52,138,135287,2,0,P|46:191|79:234,1,110.000004196167,0|8,1:0|0:0,0:0:0:0:
83,310,135560,2,0,P|131:286|154:237,1,110.000004196167,8|0,0:0|0:0,0:0:0:0:
119,170,135832,5,0,1:0:0:0:
119,170,137196,5,8,0:0:0:0:
448,288,137469,1,4,1:2:0:0:
448,288,138014,6,0,P|421:239|426:186,1,110,0|2,1:0|0:0,0:0:0:0:
459,286,138469,2,0,P|463:232|437:185,1,110,0|0,1:0|0:0,0:0:0:0:
416,114,138832,2,0,L|419:84,4,18.3333333333333,10|0|0|0|0,0:0|0:0|0:0|0:0|0:0,0:0:0:0:
339,180,139105,6,0,L|221:165,1,110,0|2,1:0|0:0,0:0:0:0:
341,167,139560,2,0,L|232:154,1,110,0|8,1:0|0:0,0:0:0:0:
158,153,139923,1,8,0:0:0:0:
115,314,140196,6,0,B|124:260|124:260|101:206,1,110,0|2,1:0|0:0,0:0:0:0:
105,316,140650,2,0,B|83:264|83:264|92:211,1,110,0|0,1:0|0:0,0:0:0:0:
84,137,141014,2,0,L|64:113,4,18.3333333333333,10|0|0|0|0,0:0|0:0|0:0|0:0|0:0,0:0:0:0:
169,155,141287,6,0,P|195:107|191:53,1,110,0|2,1:0|0:0,0:0:0:0:
158,153,141741,1,8,1:2:0:0:
316,181,142014,1,8,0:0:0:0:
314,172,142105,1,8,0:0:0:0:
443,81,142378,5,2,1:2:0:0:
443,81,142832,1,0,1:0:0:0:
442,90,142923,2,0,L|432:173,1,73.3333333333333,0|0,0:0|0:0,0:0:0:0:
475,224,143196,2,0,L|492:229,4,18.3333333333333,8|0|0|0|0,0:0|0:0|0:0|0:0|0:0,0:0:0:0:
403,245,143469,6,0,L|294:258,1,110,0|2,1:0|0:0,0:0:0:0:
401,232,143923,2,0,L|283:247,1,110,0|8,1:0|0:0,0:0:0:0:
220,259,144287,1,8,0:0:0:0:
63,294,144560,6,0,B|85:242|85:242|76:189,1,110,2|2,1:2|0:0,0:0:0:0:
53,292,145014,2,0,B|44:238|44:238|65:187,1,110,0|0,1:0|0:0,0:0:0:0:
88,116,145378,2,0,L|84:98,4,18.3333333333333,8|0|0|0|0,0:0|0:0|0:0|0:0|0:0,0:0:0:0:
145,163,145650,5,2,1:2:0:0:
303,135,145923,1,2,1:2:0:0:
224,63,146105,1,0,1:0:0:0:
217,57,146196,1,8,0:0:0:0:
321,29,146378,1,8,0:0:0:0:
323,20,146469,1,8,1:2:0:0:
401,94,146650,1,8,0:0:0:0:
412,92,146741,6,0,P|438:139|434:193,1,110,2|2,1:2|0:0,0:0:0:0:
401,94,147196,2,0,P|396:148|423:195,1,110,0|0,1:0|0:0,0:0:0:0:
450,266,147560,2,0,L|465:275,4,18.3333333333333,8|0|0|0|0,0:0|0:0|0:0|0:0|0:0,0:0:0:0:
375,270,147832,6,0,L|257:285,1,110,2|2,1:2|0:0,0:0:0:0:
377,283,148287,2,0,L|268:296,1,110,0|0,1:0|0:0,0:0:0:0:
194,297,148650,1,8,0:0:0:0:
164,132,148923,6,0,B|171:186|171:186|149:236,1,110,2|2,1:2|0:0,0:0:0:0:
152,130,149378,2,0,B|130:179|130:179|138:235,1,110,0|0,1:0|0:0,0:0:0:0:
121,307,149741,2,0,L|98:329,4,18.3333333333333,8|0|0|0|0,0:0|0:0|0:0|0:0|0:0,0:0:0:0:
196,287,150014,6,0,P|250:282|297:309,1,110,2|2,1:2|0:0,0:0:0:0:
194,297,150469,1,8,1:2:0:0:
335,223,150741,1,8,0:0:0:0:
337,213,150832,1,8,0:0:0:0:
463,313,151105,5,2,1:2:0:0:
463,313,151560,1,0,1:0:0:0:
464,304,151650,2,0,L|474:221,1,73.3333333333333,0|0,0:0|0:0,0:0:0:0:
486,158,151923,2,0,L|498:141,4,18.3333333333333,8|0|0|0|0,0:0|0:0|0:0|0:0|0:0,0:0:0:0:
415,183,152196,6,0,P|361:193|312:173,1,110,2|2,1:2|0:0,0:0:0:0:
416,171,152650,2,0,P|364:150|312:161,1,110,0|8,1:0|0:0,0:0:0:0:
238,163,153014,1,8,0:0:0:0:
159,23,153287,6,0,B|181:75|181:75|172:128,1,110,0|2,1:0|0:0,0:0:0:0:
149,24,153741,2,0,B|140:78|140:78|161:129,1,110,0|0,1:0|0:0,0:0:0:0:
173,200,154105,2,0,L|158:228,4,18.3333333333333,8|0|0|0|0,0:0|0:0|0:0|0:0|0:0,0:0:0:0:
238,163,154378,5,2,1:2:0:0:
395,139,154650,1,2,1:2:0:0:
476,237,154923,1,2,1:2:0:0:
447,328,155196,1,2,1:2:0:0:
416,320,155469,5,6,1:2:0:0:
416,320,156560,5,0,1:0:0:0:
416,320,157650,5,0,1:0:0:0:
416,320,158741,5,0,1:0:0:0:
416,320,159832,5,8,1:2:0:0:
346,296,160105,1,8,1:2:0:0:
425,315,160378,5,8,1:2:0:0:
311,363,160650,1,8,1:2:0:0:
435,319,160923,5,8,1:2:0:0:
251,281,161196,1,8,1:2:0:0:
443,315,161469,5,8,1:2:0:0:
197,376,161741,1,8,1:2:0:0:
451,321,162014,5,8,1:2:0:0:
136,269,162287,1,8,1:2:0:0:
459,315,162560,5,8,1:2:0:0:
81,384,162832,1,8,1:2:0:0:
384,64,163105,1,8,1:2:0:0:
384,64,163650,5,0,0:0:0:0:
384,64,163923,2,0,P|368:97|369:133,1,73.3333333333333,0|0,0:0|0:0,0:0:0:0:
422,219,164196,6,0,P|377:188|323:193,1,110.000004196167,4|0,1:2|0:0,0:0:0:0:
266,239,164469,1,8,0:0:0:0:
102,253,164650,1,0,0:0:0:0:
104,266,164741,2,0,P|149:297|203:292,1,110.000004196167,0|0,1:0|0:0,0:0:0:0:
260,246,165014,1,8,0:0:0:0:
181,109,165196,6,0,P|200:175|252:128,1,165.000006294251,0|0,1:0|1:0,0:0:0:0:
233,57,165560,1,8,0:0:0:0:
120,169,165741,1,0,0:0:0:0:
109,176,165832,1,0,1:0:0:0:
274,210,166014,1,0,0:0:0:0:
279,222,166105,1,8,0:0:0:0:
387,98,166287,5,0,0:0:0:0:
392,87,166378,2,0,P|455:85|491:114,1,110.000004196167,0|0,1:0|0:0,0:0:0:0:
345,162,166650,2,0,P|312:110|319:64,1,110.000004196167,8|0,0:0|0:0,0:0:0:0:
422,165,166923,2,0,P|394:221|351:237,1,110.000004196167,0|0,1:0|0:0,0:0:0:0:
282,210,167196,1,8,0:0:0:0:
362,348,167378,6,0,L|198:326,1,165.000006294251,0|0,1:0|1:0,0:0:0:0:
125,352,167741,1,8,0:0:0:0:
32,208,167923,1,0,0:0:0:0:
37,219,168014,2,0,P|90:224|135:193,1,110.000004196167,0|0,1:0|0:0,0:0:0:0:
155,122,168287,2,0,P|132:72|83:49,1,110.000004196167,8|0,0:0|0:0,0:0:0:0:
12,68,168560,5,4,1:2:0:0:
260,16,168832,1,8,0:0:0:0:
227,171,169014,1,0,0:0:0:0:
233,182,169105,2,0,P|287:188|331:156,1,110.000004196167,0|0,1:0|0:0,0:0:0:0:
368,92,169378,1,8,0:0:0:0:
450,230,169560,1,0,1:0:0:0:
462,234,169650,1,0,0:0:0:0:
352,346,169832,5,0,1:0:0:0:
344,355,169923,2,0,P|297:328|244:341,1,110.000004196167,8|0,0:0|0:0,0:0:0:0:
182,381,170196,2,0,L|199:256,1,110.000004196167,0|0,1:0|0:0,0:0:0:0:
145,218,170469,2,0,L|128:93,1,110.000004196167,8|0,0:0|0:0,0:0:0:0:
182,55,170741,6,0,P|224:50|190:25,1,110,0|8,1:0|0:0,0:0:0:0:
273,116,171196,1,0,0:0:0:0:
279,128,171287,1,0,1:0:0:0:
380,63,171560,5,8,0:0:0:0:
392,65,171650,1,8,0:0:0:0:
404,67,171741,1,8,0:0:0:0:
472,41,171832,2,0,L|484:162,1,110.000004196167,0|0,1:0|0:0,0:0:0:0:
490,226,172105,5,8,0:0:0:0:
478,224,172196,1,8,0:0:0:0:
466,222,172287,1,8,0:0:0:0:
398,248,172378,2,0,L|387:140,1,73.3333333333333,0|0,1:0|0:0,0:0:0:0:
387,138,172650,1,8,0:0:0:0:
350,331,172923,6,0,P|394:301|448:306,1,110.000004196167,4|0,1:2|0:0,0:0:0:0:
506,351,173196,1,8,0:0:0:0:
303,277,173378,1,0,0:0:0:0:
294,268,173469,2,0,P|249:299|195:294,1,110.000004196167,0|0,1:0|0:0,0:0:0:0:
138,248,173741,1,8,0:0:0:0:
230,97,173923,6,0,P|187:162|228:229,1,165.000006294251,0|0,1:0|1:0,0:0:0:0:
265,163,174287,1,8,0:0:0:0:
165,58,174469,1,0,0:0:0:0:
154,62,174560,1,0,1:0:0:0:
310,11,174741,1,0,0:0:0:0:
321,15,174832,1,8,0:0:0:0:
422,130,175014,5,0,0:0:0:0:
418,142,175105,2,0,P|413:195|447:237,1,110.000004196167,0|0,1:0|0:0,0:0:0:0:
484,302,175378,2,0,P|438:272|385:279,1,110.000004196167,8|0,0:0|0:0,0:0:0:0:
311,280,175650,2,0,P|358:254|379:205,1,110.000004196167,0|0,1:0|0:0,0:0:0:0:
344,140,175923,1,8,0:0:0:0:
243,309,176105,6,0,B|218:223|297:237|271:151,1,165.000006294251,0|0,1:0|1:0,0:0:0:0:
259,84,176469,1,8,0:0:0:0:
90,153,176650,5,0,0:0:0:0:
93,164,176741,2,0,L|203:179,1,110.000004196167,0|0,1:0|0:0,0:0:0:0:
187,105,177014,2,0,L|78:91,1,110.000004196167,8|0,0:0|0:0,0:0:0:0:
18,137,177287,5,4,1:2:0:0:
282,300,177560,1,8,0:0:0:0:
119,310,177741,1,0,0:0:0:0:
108,304,177832,2,0,P|102:248|133:204,1,110.000004196167,0|0,1:0|0:0,0:0:0:0:
201,178,178105,1,8,0:0:0:0:
139,33,178287,1,0,1:0:0:0:
128,29,178378,1,0,0:0:0:0:
301,49,178560,5,0,1:0:0:0:
313,46,178650,2,0,P|343:90|339:144,1,110.000004196167,8|0,0:0|0:0,0:0:0:0:
276,182,178923,2,0,P|329:178|373:208,1,110.000004196167,0|0,1:0|0:0,0:0:0:0:
375,281,179196,2,0,P|397:232|446:211,1,110.000004196167,8|0,0:0|0:0,0:0:0:0:
419,369,179469,6,0,L|310:354,1,110.000004196167,8|0,0:0|1:0,0:0:0:0:
149,301,179923,5,0,1:0:0:0:
155,310,180014,2,0,L|264:295,1,110.000004196167,8|0,0:0|1:0,0:0:0:0:
445,242,180469,5,0,1:0:0:0:
439,254,180560,2,0,L|306:235,1,131.99999597168,8|0,0:0|1:0,0:0:0:0:
102,184,181014,5,0,1:0:0:0:
109,197,181105,2,0,L|266:175,1,153.999995300293,8|0,0:0|1:0,0:0:0:0:
487,130,181650,5,4,1:2:0:0:
221,107,181923,1,8,0:0:0:0:
355,24,182105,1,0,0:0:0:0:
368,24,182196,2,0,P|401:68|395:122,1,110.000004196167,0|0,1:0|0:0,0:0:0:0:
356,183,182469,1,8,0:0:0:0:
462,310,182650,1,0,1:0:0:0:
467,320,182741,1,0,0:0:0:0:
298,338,182923,5,0,1:0:0:0:
294,348,183014,2,0,P|240:352|197:320,1,110.000004196167,8|0,0:0|0:0,0:0:0:0:
121,315,183287,2,0,P|144:267|193:245,1,110.000004196167,0|0,1:0|0:0,0:0:0:0:
235,181,183560,2,0,P|266:226|259:280,1,110.000004196167,8|0,0:0|0:0,0:0:0:0:
197,320,183832,5,0,1:0:0:0:
468,313,184105,1,8,0:0:0:0:
321,373,184287,1,0,0:0:0:0:
319,362,184378,2,0,B|315:330|315:330|335:295|335:295|329:247,1,110.000004196167,0|0,1:0|0:0,0:0:0:0:
319,185,184650,1,8,0:0:0:0:
414,55,184832,6,0,L|250:77,1,165.000006294251,0|0,1:0|1:0,0:0:0:0:
204,137,185196,2,0,P|215:84|188:38,1,110.000004196167,8|0,0:0|0:0,0:0:0:0:
120,8,185469,1,0,1:0:0:0:
176,288,185741,1,8,0:0:0:0:
384,209,186014,5,4,1:2:0:0:
102,249,186287,1,8,0:0:0:0:
253,324,186469,1,0,0:0:0:0:
265,322,186560,2,0,P|295:276|286:222,1,110.000004196167,0|0,1:0|0:0,0:0:0:0:
245,164,186832,1,8,0:0:0:0:
317,22,187014,1,0,1:0:0:0:
328,18,187105,1,0,0:0:0:0:
151,15,187287,5,0,1:0:0:0:
138,12,187378,2,0,P|85:34|35:22,1,110.000004196167,8|0,0:0|0:0,0:0:0:0:
10,92,187650,2,0,P|52:118|66:170,1,110.000004196167,0|0,1:0|0:0,0:0:0:0:
141,168,187923,2,0,P|140:111|179:72,1,110.000004196167,8|0,0:0|0:0,0:0:0:0:
213,140,188196,6,0,P|265:152|312:125,1,110.000004196167,0|0,1:0|0:0,0:0:0:0:
361,69,188469,1,8,0:0:0:0:
423,246,188650,5,0,0:0:0:0:
418,257,188741,2,0,P|366:269|319:242,1,110.000004196167,0|0,1:0|0:0,0:0:0:0:
270,186,189014,1,8,0:0:0:0:
207,364,189196,5,0,0:0:0:0:
212,375,189287,2,0,P|264:387|311:360,1,110.000004196167,0|0,1:0|0:0,0:0:0:0:
360,304,189560,1,8,0:0:0:0:
181,161,189832,5,8,1:2:0:0:
66,213,190014,5,8,0:0:0:0:
121,330,190196,5,8,0:0:0:0:
235,275,190378,5,8,0:0:0:0:
360,304,190560,5,0,1:0:0:0:
366,314,190650,1,12,0:2:0:0:
443,163,190832,1,0,0:0:0:0:
434,171,190923,2,0,P|389:141|335:151,1,110.000004196167,4|0,1:2|0:0,0:0:0:0:
270,186,191196,1,8,0:0:0:0:
145,86,191378,1,0,1:0:0:0:
140,75,191469,1,0,0:0:0:0:
35,195,191650,5,0,1:0:0:0:
30,207,191741,2,0,P|39:259|11:305,1,110.000004196167,8|0,0:0|0:0,0:0:0:0:
86,299,192014,2,0,L|197:311,1,110.000004196167,0|0,1:0|0:0,0:0:0:0:
250,255,192287,2,0,L|361:243,1,110.000004196167,8|0,0:0|0:0,0:0:0:0:
421,287,192560,5,0,1:0:0:0:
401,26,192832,1,8,0:0:0:0:
506,138,193014,1,0,0:0:0:0:
508,150,193105,2,0,P|470:190|416:193,1,110.000004196167,0|0,1:0|0:0,0:0:0:0:
349,166,193378,1,8,0:0:0:0:
224,265,193560,6,0,P|185:179|206:103,1,165.000006294251,0|0,1:0|1:0,0:0:0:0:
255,64,193923,2,0,P|203:78|155:53,1,110.000004196167,8|0,0:0|0:0,0:0:0:0:
104,0,194196,1,0,1:0:0:0:
401,26,194469,1,8,0:0:0:0:
136,182,194741,5,4,1:2:0:0:
418,138,195014,1,8,0:0:0:0:
267,63,195196,1,0,0:0:0:0:
255,64,195287,2,0,P|225:108|232:162,1,110.000004196167,0|0,1:0|0:0,0:0:0:0:
275,223,195560,1,8,0:0:0:0:
186,352,195741,1,0,1:0:0:0:
176,357,195832,1,0,0:0:0:0:
338,370,196014,5,0,1:0:0:0:
350,374,196105,2,0,P|371:324|421:302,1,110.000004196167,8|0,0:0|0:0,0:0:0:0:
444,234,196378,2,0,P|411:190|417:136,1,110.000004196167,0|8,1:0|0:0,0:0:0:0:
360,90,196650,1,0,0:0:0:0:
160,256,196923,6,0,B|114:225|68:266|95:345|181:358|232:317|239:264|234:215|184:198|159:196|159:196|94:191|68:88|137:38|229:61|243:113|211:164|141:131,1,605.000023078919,0|0,1:0|1:0,0:0:0:0:
167,139,198014,5,0,0:0:0:0:
352,84,198196,5,0,1:0:0:0:
327,247,198378,5,0,1:0:0:0:
512,192,198560,5,12,1:2:0:0:
