osu file format v14

[General]
AudioFilename: audio.mp3
AudioLeadIn: 0
PreviewTime: 57268
Countdown: 0
SampleSet: Soft
StackLeniency: 0.7
Mode: 0
LetterboxInBreaks: 0
WidescreenStoryboard: 1

[Editor]
DistanceSpacing: 1.1
BeatDivisor: 4
GridSize: 4
TimelineZoom: 2.1

[Metadata]
Title:Dear Brave
TitleUnicode:ディアブレイブ
Artist:Kano
ArtistUnicode:鹿乃
Creator:sbsonic
Version:Kowari's Extra
Source:ヘヴィーオブジェクト
Tags:heavy object ending ed full ver version nowhere jpop pop j-pop female vocals すこっぷ scop utaite dustinati kowari milar milar001 anime japanese
BeatmapID:2695411
BeatmapSetID:1280404

[Difficulty]
HPDrainRate:5.2
CircleSize:3.8
OverallDifficulty:9
ApproachRate:9.3
SliderMultiplier:1.9
SliderTickRate:1

[Events]
//Background and Video events
0,0,"bg.png",0,0
//Break Periods
2,177946,187245
//Storyboard Layer 0 (Background)
//Storyboard Layer 1 (Fail)
//Storyboard Layer 2 (Pass)
//Storyboard Layer 3 (Foreground)
//Storyboard Layer 4 (Overlay)
//Storyboard Sound Samples

[TimingPoints]
-338,319.148936170213,4,2,1,10,1,0
779,-153.846153846154,4,2,1,10,0,0
1098,-153.846153846154,4,2,1,15,0,0
1417,-153.846153846154,4,2,1,20,0,0
1736,-153.846153846154,4,2,1,25,0,0
2134,-153.846153846154,4,2,1,5,0,0
2215,-133.333333333334,4,2,1,30,0,0
5885,-153.846153846154,4,2,1,30,0,0
6683,-95.2380952380953,4,2,1,40,0,0
7162,-100,4,2,1,60,0,0
12268,-100,4,2,1,70,0,0
17534,-125,4,2,1,30,0,0
27747,-111.111111111111,4,2,1,50,0,0
43066,-200,4,2,1,30,0,0
48172,-111.111111111111,4,2,1,50,0,0
53279,-111.111111111111,4,2,1,60,0,0
54555,-100,4,2,1,60,0,0
58385,-90.9090909090909,4,2,1,80,0,1
73704,-100,4,2,1,80,0,1
81364,-100,4,2,1,40,0,0
83598,-100,4,2,1,60,0,0
91576,-100,4,2,1,70,0,0
94130,-125,4,2,1,40,0,0
104342,-166.666666666667,4,2,1,40,0,0
105140,-125,4,2,1,30,0,0
105459,-111.111111111111,4,2,1,50,0,0
110965,-111.111111111111,4,2,1,5,0,0
111044,-111.111111111111,4,2,1,50,0,0
114555,-111.111111111111,4,2,1,60,0,0
119582,-111.111111111111,4,2,1,5,0,0
119662,-111.111111111111,4,2,1,70,0,0
124768,-111.111111111111,4,2,1,60,0,0
129555,-111.111111111111,4,2,1,60,0,0
129874,-100,4,2,1,60,0,0
132427,-142.857142857143,4,2,1,60,0,0
133066,-125,4,2,1,60,0,0
133704,-111.111111111111,4,2,1,60,0,0
134981,-90.9090909090909,4,2,1,80,0,1
150300,-100,4,2,1,80,0,1
152853,-100,4,2,1,70,0,0
168172,319.148936170213,7,2,1,60,1,0
168172,-111.111111111111,7,2,1,60,0,0
172640,319.148936170213,3,2,1,80,1,0
175193,319.148936170213,4,2,1,80,1,0
177746,-100,4,2,1,30,0,0
187959,-111.111111111111,4,2,1,50,0,0
190512,-100,4,2,1,70,0,0
191389,-100,4,2,1,5,0,0
191469,-100,4,2,1,70,0,0
193065,-100,4,2,1,60,0,0
195618,-100,4,2,1,70,0,0
199448,-200,4,2,1,50,0,0
201921,-200,4,2,1,5,0,0
202001,-100,4,2,1,60,0,0
204554,-100,4,2,1,50,0,0
207108,-100,4,2,1,60,0,0
209661,-90.9090909090909,4,2,1,80,0,1
216363,-90.9090909090909,4,2,1,50,0,1
216682,-90.9090909090909,4,2,1,60,0,1
217001,-90.9090909090909,4,2,1,70,0,1
217320,-90.9090909090909,4,2,1,80,0,1
221150,-200,4,2,1,60,0,0
223703,-100,4,2,1,80,0,1
228411,-100,4,2,1,5,0,1
228490,-100,4,2,1,80,0,1
231363,329.67032967033,4,2,1,60,1,0
232681,324.324324324324,4,2,1,30,1,0
233978,326.086956521739,4,2,1,30,1,0
236260,319.148936170213,4,2,1,60,1,0
236579,319.148936170213,4,2,1,60,1,0
248068,-100,4,2,1,55,0,0
249344,-100,4,2,1,50,0,0
250621,-100,4,2,1,45,0,0
251898,-100,4,2,1,40,0,0
253174,-100,4,2,1,35,0,0
254451,-100,4,2,1,5,0,0

[Colours]
Combo1 : 255,174,239
Combo2 : 150,139,136
Combo3 : 140,217,136
Combo4 : 198,173,159
Combo5 : 108,207,255
Combo6 : 244,218,168

[HitObjects]
256,192,779,12,0,2135,2:0:0:0:
166,13,2215,6,0,P|133:29|108:68,1,71.2499999999996,6|0,3:2|0:0,0:0:0:0:
207,162,2534,2,0,P|208:125|188:84,1,71.2499999999996,2|0,0:2|2:0,0:0:0:0:
21,70,2853,2,0,P|81:141|126:144,1,142.499999999999,2|2,0:2|0:2,0:0:0:0:
201,82,3332,1,2,0:2:0:0:
125,228,3491,2,0,L|98:314,1,71.2499999999996,2|0,0:2|0:0,0:0:0:0:
219,374,3810,5,2,0:2:0:0:
196,287,3970,1,2,0:2:0:0:
221,384,4130,2,0,L|309:364,1,71.2499999999996,2|2,0:2|0:2,0:0:0:0:
388,297,4449,2,0,L|300:277,1,71.2499999999996,2|2,0:2|0:2,0:0:0:0:
289,273,4688,5,2,0:2:0:0:
289,273,4768,2,0,P|305:238|339:213,1,71.2499999999996,2|0,0:2|0:0,0:0:0:0:
483,222,5087,2,0,P|444:225|406:208,1,71.2499999999996,2|0,0:2|2:0,0:0:0:0:
339,78,5406,2,0,P|361:109|365:151,1,71.2499999999996,2|0,0:2|0:0,0:0:0:0:
329,217,5725,1,2,0:2:0:0:
258,70,5885,6,0,B|261:18|316:-4|316:-4|482:26,1,247,2|0,0:2|0:0,0:0:0:0:
500,128,6683,5,2,0:2:0:0:
500,128,6763,1,2,0:2:0:0:
500,128,6842,2,0,L|427:143,1,49.875,2|2,0:2|0:2,0:0:0:0:
329,207,7002,2,0,L|377:217,1,49.875,2|2,0:2|0:2,0:0:0:0:
512,289,7162,6,0,B|397:270|441:356|312:325,1,190,6|2,3:2|3:2,0:0:0:0:
220,173,7640,2,0,L|252:276,1,95,10|0,0:2|0:0,0:0:0:0:
267,73,7959,1,2,3:2:0:0:
137,244,8119,1,0,3:2:0:0:
329,207,8279,1,10,0:2:0:0:
163,90,8438,6,0,B|137:117|103:132|103:132|141:260,1,190,2|2,3:2|3:2,0:0:0:0:
184,384,8917,1,10,0:2:0:0:
220,173,9076,1,2,0:2:0:0:
74,334,9236,1,2,3:2:0:0:
288,285,9396,1,2,3:2:0:0:
43,344,9555,1,10,0:2:0:0:
163,90,9715,5,2,3:2:0:0:
333,368,10034,1,2,3:2:0:0:
46,242,10353,1,2,3:2:0:0:
369,156,10672,1,2,3:2:0:0:
27,257,10991,6,0,B|85:245|85:245|146:281|146:281|214:265,1,190,6|2,3:2|3:2,0:0:0:0:
360,120,11470,1,10,0:2:0:0:
169,182,11630,1,8,0:2:0:0:
360,120,11789,1,10,0:3:0:0:
226,47,11949,1,10,0:2:0:0:
291,261,12108,1,10,0:2:0:0:
426,51,12268,6,0,L|406:154,1,95,6|0,3:2|0:0,0:0:0:0:
366,324,12587,1,2,3:2:0:0:
287,39,12747,2,0,L|307:142,1,95,14|2,0:2|0:2,0:0:0:0:
368,358,13066,1,2,3:2:0:0:
193,168,13225,6,0,P|144:151|89:160,1,95,14|0,0:2|2:0,0:0:0:0:
225,384,13544,1,0,3:2:0:0:
305,132,13704,2,0,P|354:115|409:124,1,95,14|2,0:2|0:2,0:0:0:0:
500,310,14023,1,2,3:2:0:0:
290,256,14183,1,10,0:2:0:0:
497,151,14342,1,10,0:2:0:0:
290,256,14502,1,10,0:2:0:0:
365,64,14662,5,2,3:2:0:0:
418,219,14821,1,2,3:2:0:0:
269,37,14981,6,0,B|229:13|229:13|159:21,1,95,14|0,0:2|0:0,0:0:0:0:
155,250,15300,1,0,3:2:0:0:
353,109,15459,2,0,B|377:69|377:69|369:-1,1,95,14|0,0:2|0:0,0:0:0:0:
102,143,15779,1,2,3:2:0:0:
327,216,15938,6,0,L|444:240,1,95,14|0,0:2|2:0,0:0:0:0:
226,113,16257,1,0,3:2:0:0:
292,323,16417,1,14,0:2:0:0:
405,134,16576,1,2,0:2:0:0:
292,323,16736,1,2,3:2:0:0:
317,73,16896,5,10,0:2:0:0:
394,362,17055,1,10,0:2:0:0:
394,362,17534,6,0,B|309:341|330:409|217:376,1,152,4|2,0:2|0:2,0:0:0:0:
192,300,18013,2,0,L|208:217,1,76,2|0,0:2|2:0,0:0:0:0:
195,128,18332,2,0,B|136:145|136:145|114:238,1,152,2|2,0:2|0:2,0:0:0:0:
286,162,18810,6,0,P|289:106|219:42,1,152,2|2,0:2|0:2,0:0:0:0:
138,3,19289,2,0,P|126:43|141:88,1,76,2|0,0:2|0:0,0:0:0:0:
10,148,19608,2,0,B|95:130|76:181|160:163,1,152,2|0,0:2|2:0,0:0:0:0:
247,292,20087,6,0,L|164:277,1,76,2|0,0:2|0:0,0:0:0:0:
330,239,20406,1,2,0:2:0:0:
330,239,20566,2,0,P|347:281|343:325,1,76,2|0,0:2|2:0,0:0:0:0:
244,209,20885,2,0,P|271:173|311:154,1,76,2|0,0:2|0:0,0:0:0:0:
454,199,21205,6,0,B|404:184|404:184|387:85,1,152,2|0,0:2|0:2,0:2:0:0:
387,85,21683,1,0,0:0:0:0:
470,25,21842,2,0,L|485:110,1,76,2|0,0:2|0:0,0:0:0:0:
303,163,22162,1,2,0:2:0:0:
280,53,22322,1,2,0:2:0:0:
387,85,22481,1,2,0:2:0:0:
303,163,22640,6,0,B|249:152|249:152|206:169|206:169|149:157,1,152,2|2,0:2|0:2,0:0:0:0:
92,56,23119,2,0,B|48:80|48:80|63:189,1,152,2|0,0:2|2:0,0:0:0:0:
164,264,23598,1,2,0:2:0:0:
156,158,23757,1,2,0:2:0:0:
77,314,23917,6,0,P|131:363|227:344,1,152,2|2,0:2|0:2,0:0:0:0:
218,213,24396,2,0,P|186:233|154:292,1,76,2|0,0:2|2:0,0:0:0:0:
315,237,24715,2,0,P|313:199|278:142,1,76,2|0,0:2|0:0,0:0:0:0:
247,289,25034,1,2,0:2:0:0:
407,236,25193,6,0,L|505:223,1,76,2|0,0:2|0:0,0:0:0:0:
344,166,25513,1,2,0:2:0:0:
344,166,25672,2,0,L|306:257,1,76,2|0,0:2|0:0,0:0:0:0:
435,140,25991,2,0,L|375:61,1,76,2|0,0:2|2:0,0:0:0:0:
324,7,26310,1,2,0:2:0:0:
226,125,26470,6,0,P|271:117|300:85,1,76,2|0,0:0|2:0,0:0:0:0:
149,82,26789,2,0,P|133:124|146:166,1,76,2|2,0:2|0:2,0:0:0:0:
229,36,27108,1,2,0:2:0:0:
89,12,27268,1,2,0:2:0:0:
89,12,27348,1,2,0:2:0:0:
89,12,27427,2,0,L|3:-2,1,76,2|2,0:2|0:2,0:0:0:0:
0,182,27747,6,0,B|97:159|76:231|177:198,1,171,6|2,3:2|3:2,0:0:0:0:
279,95,28225,2,0,L|263:204,1,85.5000000000001,2|0,0:2|3:2,0:0:0:0:
371,284,28544,2,0,L|383:199,1,85.5000000000001,2|0,0:2|3:2,0:0:0:0:
276,347,28864,6,0,B|234:360|234:360|186:340,1,85.5000000000001,2|0,0:2|3:2,0:0:0:0:
120,213,29183,1,2,0:2:0:0:
245,263,29342,1,2,3:2:0:0:
109,384,29502,2,0,B|121:199,1,171,2|0,0:2|2:0,0:0:0:0:
31,88,29981,1,2,3:2:0:0:
19,248,30140,1,2,0:2:0:0:
31,88,30300,6,0,P|78:78|125:93,1,85.5000000000001,2|0,3:2|2:0,0:0:0:0:
217,198,30619,1,2,3:2:0:0:
217,0,30779,2,0,L|214:94,1,85.5000000000001,2|0,0:2|3:2,0:0:0:0:
327,212,31098,2,0,L|329:126,1,85.5000000000001,2|0,0:2|3:2,0:0:0:0:
493,268,31417,6,0,P|443:252|417:214,1,85.5000000000001,2|0,0:2|3:2,0:0:0:0:
501,95,31736,2,0,P|512:146|492:187,1,85.5000000000001,2|0,0:2|3:2,0:0:0:0:
348,176,32055,2,0,P|386:140|432:137,1,85.5000000000001,2|0,0:2|3:0,0:0:0:0:
422,227,32374,1,0,2:0:0:0:
290,236,32534,2,0,P|264:189|265:147,1,85.5000000000001,2|0,3:2|2:0,0:0:0:0:
364,295,32853,6,0,B|333:344|333:344|206:320,1,171,6|2,3:2|3:2,0:0:0:0:
157,212,33332,2,0,L|246:230,1,85.5000000000001,2|0,0:2|3:2,0:0:0:0:
307,140,33651,1,2,0:2:0:0:
307,140,33810,2,0,L|218:122,1,85.5000000000001,0|0,3:0|2:0,0:0:0:0:
387,80,34130,6,0,P|408:120|352:238,1,171,2|0,3:2|3:0,0:0:0:0:
307,140,34608,1,0,0:0:0:0:
243,58,34768,2,0,P|198:128|222:207,1,171,2|0,3:2|3:0,0:0:0:0:
307,140,35247,1,2,0:2:0:0:
258,296,35406,6,0,B|216:307|216:307|166:289,1,85.5000000000001,2|2,3:2|0:2,0:0:0:0:
38,186,35725,2,0,B|80:175|80:175|130:193,1,85.5000000000001,2|0,3:2|2:0,0:0:0:0:
78,370,36044,2,0,L|81:269,1,85.5000000000001,2|0,3:2|2:0,0:0:0:0:
86,79,36364,1,2,3:2:0:0:
205,202,36523,1,2,0:2:0:0:
86,79,36683,6,0,P|40:66|0:78,1,85.5000000000001,2|2,3:2|0:2,0:0:0:0:
225,117,37002,2,0,P|271:130|311:118,1,85.5000000000001,2|2,3:2|0:2,0:0:0:0:
403,0,37321,1,2,3:2:0:0:
407,190,37481,1,2,0:2:0:0:
407,190,37560,1,2,0:2:0:0:
407,190,37640,2,0,L|402:89,1,85.5000000000001,2|2,3:2|0:2,0:0:0:0:
500,233,37959,5,8,0:2:0:0:
318,250,38119,1,8,0:2:0:0:
412,384,38279,2,0,P|420:339|408:293,1,85.5000000000001,2|2,3:2|0:2,0:0:0:0:
254,296,38598,2,0,P|287:325|334:338,1,85.5000000000001,2|0,3:2|0:0,0:0:0:0:
409,206,38917,2,0,P|366:220|332:254,1,85.5000000000001,2|2,3:2|0:2,0:0:0:0:
218,379,39236,5,8,0:2:0:0:
192,177,39396,1,8,0:2:0:0:
67,298,39555,2,0,L|167:283,1,85.5000000000001,2|2,3:2|0:2,0:0:0:0:
123,119,39874,2,0,L|85:213,1,85.5000000000001,2|0,3:2|0:0,0:0:0:0:
257,256,40193,2,0,L|194:176,1,85.5000000000001,2|2,3:2|0:2,0:0:0:0:
70,50,40513,5,8,0:2:0:0:
262,121,40672,1,8,0:2:0:0:
128,205,40832,2,0,B|135:145|135:145|166:115|166:115|174:34,2,171,2|0|2,3:2|3:2|3:2,0:0:0:0:
21,155,41630,1,2,0:2:0:0:
225,246,41789,5,8,0:2:0:0:
19,303,41949,1,8,0:2:0:0:
170,371,42108,2,0,P|236:380|268:369,1,85.5000000000001,2|2,3:2|0:2,0:0:0:0:
322,249,42427,2,0,P|256:240|224:251,1,85.5000000000001,0|0,3:2|0:0,0:0:0:0:
115,118,42747,1,2,3:2:0:0:
135,239,42906,1,8,0:2:0:0:
229,140,43066,6,0,B|335:109|315:196|423:158,2,190,6|2|2,3:2|0:2|0:2,0:0:0:0:
229,140,44662,2,0,L|243:32,1,95,2|2,0:2|0:2,0:0:0:0:
112,84,45300,1,2,0:2:0:0:
198,256,45619,6,0,P|246:278|340:251,1,142.5,2|2,0:2|2:2,0:0:0:0:
322,105,46257,2,0,P|283:146|275:200,1,95,2|2,0:2|0:2,0:0:0:0:
398,212,46736,5,2,0:2:0:0:
398,212,46896,2,0,P|372:184|345:171,1,47.5,2|0,0:2|0:0,0:0:0:0:
330,258,47215,1,2,0:2:0:0:
481,191,47374,2,0,L|488:154,2,23.75,2|2|2,0:2|0:2|0:2,0:0:0:0:
453,343,47693,1,2,3:2:0:0:
453,343,47773,1,0,0:0:0:0:
453,343,47853,1,10,0:2:0:0:
360,161,48013,1,8,0:2:0:0:
512,275,48172,5,4,3:2:0:0:
330,258,48332,1,0,3:0:0:0:
473,105,48491,2,0,L|481:196,1,85.5000000000001,10|2,0:2|0:2,0:0:0:0:
369,31,48810,2,0,L|361:122,1,85.5000000000001,2|0,3:2|3:0,0:0:0:0:
326,303,49130,1,10,0:2:0:0:
258,129,49289,1,2,0:2:0:0:
418,252,49449,5,0,3:0:0:0:
212,331,49608,1,0,3:0:0:0:
248,170,49768,2,0,P|294:188|319:232,1,85.5000000000001,10|2,0:2|0:2,0:0:0:0:
143,199,50087,2,0,P|135:150|161:106,1,85.5000000000001,2|0,3:2|3:0,0:0:0:0:
222,281,50406,2,0,L|135:310,1,85.5000000000001,10|2,0:2|0:2,0:0:0:0:
5,170,50725,5,0,3:0:0:0:
180,212,50885,1,0,3:0:0:0:
49,323,51044,2,0,P|55:275|88:235,1,85.5000000000001,10|2,0:2|0:2,0:0:0:0:
260,196,51364,2,0,P|215:214|164:206,1,85.5000000000001,0|0,3:0|3:0,0:0:0:0:
62,49,51683,1,10,0:2:0:0:
201,118,51842,1,2,0:2:0:0:
0,144,52002,5,0,3:0:0:0:
186,20,52162,1,0,3:0:0:0:
101,178,52321,2,0,L|80:83,1,85.5000000000001,10|2,0:2|0:2,0:0:0:0:
218,228,52640,1,0,3:0:0:0:
24,273,52800,1,0,3:0:0:0:
238,223,52959,2,0,B|245:179|245:179|228:129,1,85.5000000000001,8|2,0:2|0:2,0:0:0:0:
131,319,53279,5,14,0:2:0:0:
320,355,53438,1,2,0:2:0:0:
131,319,53598,1,2,3:2:0:0:
347,214,53757,5,14,0:2:0:0:
224,371,53917,1,2,0:2:0:0:
189,168,54076,1,2,3:2:0:0:
224,384,54236,5,14,0:2:0:0:
289,126,54396,1,2,0:2:0:0:
401,319,54555,6,0,L|288:295,1,95,2|12,3:2|0:2,0:0:0:0:
115,241,54874,1,2,0:2:0:0:
345,202,55034,1,2,3:2:0:0:
130,120,55193,5,12,0:2:0:0:
219,384,55353,1,10,0:2:0:0:
130,120,55513,1,8,0:2:0:0:
219,384,55672,1,2,3:2:0:0:
356,116,55832,5,14,0:2:0:0:
356,116,56151,1,8,3:2:0:0:
190,291,56310,1,10,3:2:0:0:
441,319,56470,1,10,3:2:0:0:
215,143,56630,1,8,3:2:0:0:
308,380,56789,1,8,3:2:0:0:
459,170,56949,1,8,3:2:0:0:
171,301,57108,5,8,0:2:0:0:
327,13,57747,5,2,0:2:0:0:
327,13,57826,1,2,0:2:0:0:
327,13,57906,2,0,L|341:73,1,47.5,2|2,0:2|0:2,0:0:0:0:
250,107,58066,1,2,0:2:0:0:
250,107,58146,1,2,0:2:0:0:
250,107,58225,2,0,L|236:47,1,47.5,2|2,0:2|0:2,0:0:0:0:
414,174,58385,6,0,B|291:144|332:236|207:201,2,209,6|8|0,3:2|0:2|3:0,0:0:0:0:
249,108,59183,1,0,3:0:0:0:
350,296,59342,1,10,0:2:0:0:
407,80,59502,1,2,0:2:0:0:
250,313,59662,6,0,L|144:333,1,104.5,2|0,3:2|0:0,0:0:0:0:
0,187,59981,2,0,L|106:167,1,104.5,8|2,0:2|0:2,0:0:0:0:
315,121,60300,1,2,3:2:0:0:
103,49,60459,1,0,3:0:0:0:
206,243,60619,2,0,B|221:191|221:191|194:132,1,104.5,10|0,0:2|2:0,0:0:0:0:
0,65,60938,6,0,L|106:49,1,104.5,2|0,3:2|2:0,0:0:0:0:
304,22,61257,1,10,0:2:0:0:
175,244,61417,2,0,P|160:186|180:135,1,104.5,2|0,0:2|3:0,0:0:0:0:
295,317,61736,1,2,3:2:0:0:
66,279,61896,1,8,0:2:0:0:
280,183,62055,1,2,3:2:0:0:
66,279,62215,6,0,L|82:394,1,104.5,2|0,0:2|0:0,0:0:0:0:
280,183,62534,2,0,L|264:68,1,104.5,8|2,0:2|0:2,0:0:0:0:
175,244,62853,1,2,3:2:0:0:
377,200,63013,1,0,3:0:0:0:
174,243,63172,1,10,0:2:0:0:
414,96,63332,5,10,0:2:0:0:
414,96,63412,1,8,0:2:0:0:
414,96,63491,2,0,B|482:124|482:124|460:274,1,209,6|10,3:2|0:2,0:0:0:0:
266,193,63970,2,0,B|320:179|320:179|372:198,1,104.5,2|0,0:2|3:0,0:0:0:0:
192,295,64289,1,2,3:2:0:0:
259,88,64449,1,8,0:2:0:0:
351,296,64608,1,2,0:2:0:0:
156,141,64768,6,0,P|140:80|155:33,1,104.5,2|0,3:2|2:0,0:0:0:0:
363,103,65087,1,10,0:2:0:0:
157,250,65247,2,0,L|45:227,1,104.5,2|0,0:2|3:0,0:0:0:0:
259,128,65566,1,0,3:0:0:0:
237,381,65725,2,0,L|125:358,1,104.5,10|0,0:2|3:2,0:0:0:0:
361,135,66044,5,14,0:2:0:0:
421,368,66204,1,0,0:0:0:0:
378,118,66364,5,10,0:2:0:0:
256,357,66523,1,0,3:0:0:0:
391,104,66683,5,10,0:2:0:0:
154,233,66842,1,0,3:0:0:0:
405,91,67002,5,10,0:2:0:0:
165,10,67162,1,2,3:2:0:0:
165,10,67241,1,0,3:0:0:0:
165,10,67321,2,0,L|196:121,1,104.5,10|0,0:2|2:0,0:0:0:0:
308,312,67640,5,10,0:2:0:0:
82,229,67800,1,0,3:0:0:0:
321,338,67959,5,10,0:2:0:0:
193,110,68119,1,0,3:0:0:0:
333,367,68279,5,10,0:2:0:0:
419,99,68438,1,2,3:2:0:0:
419,99,68518,1,0,3:0:0:0:
419,99,68598,2,0,B|352:137|352:137|396:288,1,209,6|8,3:2|0:2,0:0:0:0:
501,137,69076,1,2,0:2:0:0:
300,58,69236,1,2,3:2:0:0:
501,137,69396,1,2,3:2:0:0:
292,245,69555,2,0,P|237:257|181:241,1,104.5,10|2,0:2|0:2,0:0:0:0:
226,56,69874,6,0,L|241:188,1,104.5,2|0,3:2|0:0,0:0:0:0:
86,292,70193,2,0,L|71:160,1,104.5,8|2,0:2|0:2,0:0:0:0:
196,358,70513,1,2,3:2:0:0:
155,121,70672,1,0,3:0:0:0:
194,358,70832,2,0,B|248:368|248:368|306:338,1,104.5,10|2,0:2|3:2,0:0:0:0:
325,317,71071,5,0,3:0:0:0:
325,317,71151,2,0,B|458:298|396:385|540:364,1,209,6|2,3:2|3:2,0:0:0:0:
277,111,71630,2,0,B|243:138|205:149|205:149|231:280,1,209,10|2,0:2|3:2,0:0:0:0:
393,105,72108,1,10,0:2:0:0:
148,54,72268,1,10,0:2:0:0:
335,208,72427,6,0,B|385:222|385:222|442:205,1,104.5,6|0,3:2|0:0,0:0:0:0:
233,31,72747,2,0,B|183:17|183:17|126:34,1,104.5,8|2,0:2|0:2,0:0:0:0:
1,174,73066,1,10,0:3:0:0:
163,127,73225,1,8,0:3:0:0:
4,51,73385,1,6,0:3:0:0:
163,127,73544,1,6,0:3:0:0:
8,280,73704,6,0,P|47:230|190:258,1,190,4|2,3:2|0:2,0:0:0:0:
274,358,74183,1,2,3:2:0:0:
286,151,74342,2,0,L|279:264,1,95,8|0,0:2|0:0,0:0:0:0:
375,88,74662,1,2,3:2:0:0:
189,137,74821,1,10,0:2:0:0:
375,88,74981,6,0,P|419:73|471:85,1,95,2|0,3:2|2:0,0:0:0:0:
472,248,75300,2,0,P|428:263|376:251,1,95,2|0,3:2|2:0,0:0:0:0:
280,87,75619,2,0,L|274:296,1,190,10|2,0:2|3:2,0:0:0:0:
181,180,76098,1,8,0:2:0:0:
343,330,76257,6,0,B|235:300|257:385|133:346,1,190,6|0,3:2|3:0,0:0:0:0:
22,257,76736,1,0,3:0:0:0:
147,106,76896,2,0,B|200:129|200:129|185:272,1,190,10|0,0:2|3:0,0:0:0:0:
55,165,77374,1,8,0:2:0:0:
163,11,77534,6,0,L|263:50,1,95,2|0,3:2|0:0,0:0:0:0:
310,165,77853,1,0,3:0:0:0:
187,124,78013,1,0,3:0:0:0:
357,0,78172,2,0,P|372:60|296:172,1,190,10|0,0:2|3:0,0:0:0:0:
207,240,78651,1,8,0:2:0:0:
401,236,78810,5,6,3:2:0:0:
310,165,79130,1,2,3:2:0:0:
401,236,79449,5,2,3:2:0:0:
215,260,79768,1,2,3:2:0:0:
401,236,80087,5,2,3:2:0:0:
183,111,80406,1,2,3:2:0:0:
401,236,80725,5,2,3:2:0:0:
105,295,81044,1,6,3:2:0:0:
480,243,81364,5,6,3:2:0:0:
401,236,82640,1,6,0:2:0:0:
323,228,83598,1,2,0:2:0:0:
323,228,83677,1,2,0:2:0:0:
323,228,83757,2,0,L|316:284,1,47.5,2|2,0:2|0:2,0:0:0:0:
376,137,83917,6,0,B|313:123|313:123|258:152|258:152|190:138,1,190,6|8,3:2|0:2,0:0:0:0:
66,14,84396,2,0,L|79:117,1,95,2|0,3:2|0:0,0:0:0:0:
193,27,84715,1,2,3:2:0:0:
24,217,84874,2,0,B|72:229|72:229|128:209,1,95,10|0,0:2|0:0,0:0:0:0:
269,127,85193,5,0,3:2:0:0:
207,312,85353,1,0,3:2:0:0:
269,127,85513,1,8,0:2:0:0:
375,290,85672,1,2,3:2:0:0:
375,290,85752,1,2,0:2:0:0:
375,290,85832,2,0,L|369:399,1,95,2|2,0:2|3:2,0:0:0:0:
262,221,86151,1,10,0:2:0:0:
478,219,86310,1,2,0:2:0:0:
274,334,86470,6,0,B|164:342|212:275|80:292,1,190,2|8,3:2|0:2,0:0:0:0:
256,230,86949,1,0,3:2:0:0:
151,81,87108,2,0,L|160:184,1,95,2|0,0:2|3:2,0:0:0:0:
246,12,87427,1,8,0:2:0:0:
34,97,87587,1,0,0:0:0:0:
246,12,87747,6,0,P|298:3|362:30,1,95,2|0,3:2|3:2,0:0:0:0:
470,178,88066,1,8,0:2:0:0:
290,115,88225,1,2,3:2:0:0:
470,178,88385,1,2,0:2:0:0:
446,0,88544,1,2,3:2:0:0:
341,200,88704,1,10,0:2:0:0:
341,200,88784,1,2,0:2:0:0:
341,200,88864,2,0,L|346:269,1,47.5,2|2,0:2|0:2,0:0:0:0:
304,342,89023,6,0,P|350:351|413:327,1,95,2|0,3:2|0:0,0:0:0:0:
470,178,89342,1,10,0:2:0:0:
249,220,89502,2,0,B|198:258|198:258|212:400,1,190,2|2,3:2|3:2,0:0:0:0:
355,247,89981,6,0,P|351:183|317:139,1,95,10|0,0:2|0:0,0:0:0:0:
181,46,90300,1,2,3:2:0:0:
155,235,90459,2,0,L|268:216,1,95,2|8,3:2|0:2,0:0:0:0:
67,151,90779,1,2,3:2:0:0:
141,349,90938,1,2,0:2:0:0:
67,151,91098,1,2,3:2:0:0:
273,220,91257,1,10,0:2:0:0:
40,324,91417,1,2,0:2:0:0:
210,125,91576,6,0,B|222:77|222:77|208:28,1,95,14|0,0:2|0:0,0:0:0:0:
61,169,91896,5,10,0:2:0:0:
317,139,92055,1,0,3:0:0:0:
33,151,92215,5,10,0:2:0:0:
236,304,92374,1,2,3:2:0:0:
209,33,92534,1,10,0:2:0:0:
120,288,92693,5,2,3:2:0:0:
120,288,92773,1,2,3:2:0:0:
120,288,92853,1,10,0:2:0:0:
373,236,93013,1,10,0:2:0:0:
120,288,93172,1,10,0:2:0:0:
373,236,93332,1,10,0:2:0:0:
191,154,93491,6,0,L|215:258,1,95,0|0,3:2|3:0,0:0:0:0:
227,282,93731,1,0,3:0:0:0:
227,282,93810,1,6,3:2:0:0:
475,90,94130,6,0,B|386:71|408:133|309:109,1,152,4|2,3:2|3:2,0:0:0:0:
253,7,94608,2,0,L|238:100,1,76,2|0,0:2|3:0,0:0:0:0:
138,120,94927,2,0,L|150:44,1,76,2|0,0:2|3:0,0:0:0:0:
206,181,95247,5,2,0:2:0:0:
206,181,95406,2,0,P|154:210|59:166,1,152,2|2,3:2|3:2,0:0:0:0:
1,303,95885,2,0,L|88:291,1,76,2|0,0:2|3:0,0:0:0:0:
134,374,96204,2,0,L|47:386,1,76,2|0,0:2|3:0,0:0:0:0:
164,286,96523,1,2,0:2:0:0:
267,384,96683,6,0,B|284:283|284:283|232:250,1,152,2|2,3:2|3:2,0:0:0:0:
163,172,97162,2,0,L|257:158,1,76,2|0,0:2|3:0,0:0:0:0:
280,57,97481,2,0,L|204:68,1,76,2|0,0:2|3:0,0:0:0:0:
374,88,97800,5,2,0:2:0:0:
374,88,97959,2,0,P|376:30|362:2,1,76,0|0,3:0|2:0,0:0:0:0:
465,128,98279,2,0,P|463:186|477:214,1,76,0|2,3:0|0:2,0:0:0:0:
508,294,98598,1,0,3:0:0:0:
390,260,98757,1,2,0:2:0:0:
508,294,98917,1,2,3:2:0:0:
401,358,99076,1,2,0:2:0:0:
302,240,99236,6,0,B|316:188|316:188|350:160|350:160|368:93,1,152,6|2,3:2|3:2,0:0:0:0:
288,8,99715,1,2,0:2:0:0:
288,8,99874,2,0,L|270:106,1,76,0|0,3:0|2:0,0:0:0:0:
163,138,100193,1,2,3:2:0:0:
179,34,100353,1,2,0:2:0:0:
225,210,100513,6,0,P|158:237|80:188,1,152,2|2,3:2|3:2,0:0:0:0:
102,54,100991,2,0,P|122:84|129:143,1,76,2|0,0:2|3:0,0:0:0:0:
0,184,101310,2,0,P|15:151|63:116,1,76,2|0,0:2|3:0,0:0:0:0:
90,203,101630,1,2,0:2:0:0:
8,315,101789,6,0,L|90:304,1,76,2|0,3:2|2:0,0:0:0:0:
232,199,102108,1,2,3:2:0:0:
232,199,102268,2,0,L|150:210,1,76,2|0,0:2|3:0,0:0:0:0:
298,352,102587,2,0,B|304:314|304:314|291:268,1,76,2|0,0:2|3:0,0:0:0:0:
200,320,102906,1,2,0:2:0:0:
362,199,103066,6,0,P|401:190|443:196,1,76,2|2,3:0|2:0,0:0:0:0:
297,106,103385,2,0,P|258:115|216:109,1,76,2|0,3:2|0:2,0:0:0:0:
384,0,103704,2,0,L|396:88,1,76,2|2,3:2|0:2,0:0:0:0:
401,106,103943,1,2,0:2:0:0:
401,106,104023,1,2,3:2:0:0:
445,283,104183,5,10,0:2:0:0:
445,283,104263,1,8,0:2:0:0:
445,283,104342,2,0,B|308:253|362:363|208:326,1,228,6|0,3:2|0:0,0:0:0:0:
179,231,105140,2,0,B|188:221|188:221|268:237,1,76,2|0,3:2|0:0,0:0:0:0:
112,314,105459,6,0,P|75:270|110:156,1,171,6|10,3:2|0:2,0:0:0:0:
225,73,105938,1,10,3:2:0:0:
26,63,106098,1,2,0:2:0:0:
26,63,106257,2,0,L|129:69,1,85.5000000000001,2|2,3:2|0:2,0:0:0:0:
224,177,106576,1,10,0:2:0:0:
97,166,106736,1,2,0:2:0:0:
269,84,106896,6,0,B|323:106|323:106|309:239,1,171,2|10,3:2|0:2,0:0:0:0:
154,298,107374,2,0,P|172:254|229:216,1,85.5000000000001,2|0,0:2|3:2,0:0:0:0:
340,319,107693,2,0,P|292:325|231:295,1,85.5000000000001,2|8,0:2|0:2,0:0:0:0:
437,244,108013,6,0,L|452:347,1,85.5000000000001,2|0,0:2|3:2,0:0:0:0:
320,174,108332,1,2,2:2:0:0:
341,307,108491,1,10,0:2:0:0:
320,174,108651,2,0,L|305:80,1,85.5000000000001,2|0,2:0|3:2,0:0:0:0:
483,71,108970,1,2,0:2:0:0:
483,71,109050,1,2,0:2:0:0:
483,71,109130,2,0,B|449:95|449:95|390:88,1,85.5000000000001,10|0,0:2|2:0,0:0:0:0:
254,11,109449,6,0,B|155:3|191:70|88:56,1,171,2|10,3:2|0:2,0:0:0:0:
198,225,109927,2,0,L|189:129,1,85.5000000000001,2|0,0:2|3:2,0:0:0:0:
92,288,110247,1,2,0:2:0:0:
92,288,110406,2,0,L|84:202,1,85.5000000000001,8|2,0:2|0:2,0:0:0:0:
194,362,110725,6,0,P|233:328|321:327,1,128.25,0|0,3:2|0:0,0:0:0:0:
339,349,111044,2,0,L|322:259,1,85.5000000000001,8|0,0:2|0:0,0:0:0:0:
465,139,111364,2,0,B|508:165|508:165|486:302,1,171,2|8,3:2|0:2,0:0:0:0:
397,208,111842,1,2,0:2:0:0:
371,63,112002,5,2,3:2:0:0:
512,31,112162,1,2,0:2:0:0:
371,63,112321,2,0,P|325:68|283:49,1,85.5000000000001,8|0,0:0|2:0,0:0:0:0:
186,189,112640,2,0,P|225:174|267:179,1,85.5000000000001,2|0,3:2|2:0,0:0:0:0:
330,301,112959,2,0,L|311:396,1,85.5000000000001,10|2,0:2|0:2,0:0:0:0:
119,294,113279,5,2,3:2:0:0:
240,276,113438,1,2,3:2:0:0:
119,294,113598,2,0,L|28:307,1,85.5000000000001,10|0,0:2|2:0,0:0:0:0:
241,170,113917,1,2,3:2:0:0:
121,181,114076,1,2,3:2:0:0:
241,170,114236,2,0,L|332:157,1,85.5000000000001,10|2,0:2|0:2,0:0:0:0:
438,50,114555,5,4,3:2:0:0:
375,239,114715,1,0,3:2:0:0:
438,50,114874,1,10,0:2:0:0:
507,232,115034,1,2,3:2:0:0:
346,136,115193,2,0,B|286:141|286:141|249:177|249:177|157:185,1,171,2|10,3:2|0:2,0:0:0:0:
184,16,115672,6,0,P|204:57|194:112,1,85.5000000000001,2|0,0:2|0:0,0:0:0:0:
40,234,115991,1,0,3:2:0:0:
104,76,116151,1,10,0:2:0:0:
40,234,116310,1,2,3:2:0:0:
234,185,116470,2,0,L|134:195,1,85.5000000000001,2|0,0:2|3:2,0:0:0:0:
274,333,116789,1,10,0:0:0:0:
365,257,116949,6,0,B|372:215|372:215|356:174,1,85.5000000000001,2|0,0:2|3:2,0:0:0:0:
274,333,117268,1,0,3:2:0:0:
466,266,117427,1,10,0:2:0:0:
387,384,117587,1,2,3:2:0:0:
283,235,117747,2,0,B|183:225|220:299|85:285,1,171,0|10,3:0|0:2,0:0:0:0:
0,172,118225,6,0,L|101:187,1,85.5000000000001,10|0,0:2|0:0,0:0:0:0:
221,96,118544,1,0,3:2:0:0:
105,0,118704,2,0,P|83:51|88:102,1,85.5000000000001,10|2,0:2|0:2,0:0:0:0:
235,197,119023,1,0,3:2:0:0:
223,3,119183,1,0,3:2:0:0:
235,197,119342,2,0,L|203:351,1,128.25,10|0,0:2|0:0,0:0:0:0:
200,369,119662,6,0,P|248:318|359:338,1,171,6|10,3:2|0:2,0:0:0:0:
495,221,120140,2,0,L|396:243,1,85.5000000000001,2|0,0:2|3:2,0:0:0:0:
258,121,120459,1,10,0:2:0:0:
431,136,120619,1,0,3:2:0:0:
258,122,120779,1,2,3:2:0:0:
351,4,120938,6,0,B|364:47|364:47|349:90,1,85.5000000000001,8|0,0:2|0:0,0:0:0:0:
238,228,121257,1,2,3:2:0:0:
202,51,121417,1,8,0:2:0:0:
238,228,121576,2,0,L|212:322,1,85.5000000000001,2|0,0:2|3:2,0:0:0:0:
105,131,121896,2,0,L|79:225,1,85.5000000000001,10|0,0:2|3:2,0:0:0:0:
203,62,122215,5,2,3:2:0:0:
7,100,122374,1,8,0:2:0:0:
203,62,122534,2,0,B|250:56|250:56|301:81,1,85.5000000000001,8|2,0:2|0:2,0:0:0:0:
137,228,122853,1,2,3:2:0:0:
101,20,123013,1,8,0:2:0:0:
137,228,123172,1,2,3:2:0:0:
203,62,123332,1,2,3:2:0:0:
44,190,123491,6,0,B|45:308|45:308|118:345,1,171,10|0,0:2|3:2,0:0:0:0:
258,250,123970,1,8,0:2:0:0:
139,156,124130,2,0,L|138:254,1,85.5000000000001,0|0,0:0|3:2,0:0:0:0:
234,360,124449,1,8,0:2:0:0:
286,152,124608,1,8,0:2:0:0:
423,240,124768,6,0,B|388:286|388:286|250:254,1,171,6|2,3:2|3:2,0:0:0:0:
177,152,125247,1,2,0:2:0:0:
339,81,125406,2,0,P|345:131|326:175,1,85.5000000000001,2|0,3:2|0:0,0:0:0:0:
319,186,125646,1,0,0:0:0:0:
319,186,125725,1,2,3:2:0:0:
244,35,125885,1,2,0:2:0:0:
429,33,126044,6,0,P|447:102|413:218,1,171,0|2,3:2|3:2,0:0:0:0:
282,277,126523,1,2,0:2:0:0:
386,384,126683,2,0,L|377:282,1,85.5000000000001,2|0,3:2|0:0,0:0:0:0:
376,271,126922,1,0,0:0:0:0:
376,271,127002,1,2,3:2:0:0:
297,384,127162,1,2,0:2:0:0:
277,181,127321,6,0,B|186:158|201:234|95:207,1,171,0|2,3:0|3:2,0:0:0:0:
13,129,127800,1,2,0:2:0:0:
125,26,127959,2,0,B|144:66|144:66|129:123,1,85.5000000000001,0|2,3:2|0:2,0:0:0:0:
123,122,128199,1,2,0:2:0:0:
123,122,128279,1,2,3:2:0:0:
28,29,128438,1,2,0:2:0:0:
9,228,128598,6,0,B|-5:343|-5:343|58:378,1,171,0|2,3:0|3:2,0:0:0:0:
178,277,129076,2,0,L|89:294,1,85.5000000000001,2|0,0:2|3:0,0:0:0:0:
227,357,129396,1,0,2:0:0:0:
221,174,129555,2,0,L|132:191,1,85.5000000000001,8|0,0:2|0:0,0:0:0:0:
319,240,129874,5,14,3:2:0:0:
249,63,130034,1,2,0:2:0:0:
186,280,130193,1,10,3:2:0:0:
186,280,130273,1,0,3:2:0:0:
186,280,130353,1,2,3:2:0:0:
340,139,130513,2,0,B|389:127|389:127|433:150,1,95,10|2,3:2|3:2,0:0:0:0:
459,168,130752,1,0,3:2:0:0:
459,168,130832,2,0,L|447:228,1,47.5,10|0,3:2|3:2,0:0:0:0:
353,280,130991,2,0,L|365:220,1,47.5,2|0,3:2|3:2,0:0:0:0:
384,374,131151,5,10,3:2:0:0:
349,382,131231,1,0,3:2:0:0:
314,378,131310,1,0,3:2:0:0:
283,362,131390,1,0,3:2:0:0:
259,335,131470,2,0,L|274:273,1,47.5,10|0,3:2|3:2,0:0:0:0:
324,132,131630,5,2,3:2:0:0:
287,102,131709,1,0,3:2:0:0:
241,99,131789,1,8,3:2:0:0:
202,124,131869,1,0,3:2:0:0:
180,163,131949,1,2,3:2:0:0:
143,192,132029,1,0,3:2:0:0:
97,195,132108,1,8,3:2:0:0:
58,170,132188,1,0,3:2:0:0:
38,130,132268,2,0,L|52:76,1,47.5,0|0,3:2|3:2,0:0:0:0:
0,287,132427,6,0,B|75:273|75:273|123:304|123:304|212:286,1,199.5,6|0,3:2|0:0,0:0:0:0:
354,94,133066,6,0,P|293:77|164:191,1,228,6|0,3:2|0:0,0:0:0:0:
262,384,133704,6,0,B|328:353|328:353|277:157,1,256.5,2|0,3:2|0:0,0:0:0:0:
165,30,134342,2,0,L|190:130,1,85.5000000000001,6|0,3:2|0:0,0:0:0:0:
394,223,134662,5,2,0:2:0:0:
388,202,134741,1,2,0:2:0:0:
383,181,134821,1,2,0:2:0:0:
378,160,134901,1,2,0:2:0:0:
371,139,134981,6,0,P|298:97|180:169,2,209,6|8|0,3:2|0:2|3:0,0:0:0:0:
182,10,135779,1,0,3:0:0:0:
279,201,135938,1,10,0:2:0:0:
355,1,136098,1,2,0:2:0:0:
267,237,136257,6,0,L|152:217,1,104.5,2|0,3:2|0:0,0:0:0:0:
16,55,136576,2,0,L|122:75,1,104.5,8|2,0:2|0:2,0:0:0:0:
311,124,136896,1,2,3:2:0:0:
67,203,137055,1,0,3:0:0:0:
206,20,137215,2,0,P|220:69|211:120,1,104.5,10|0,0:2|2:0,0:0:0:0:
222,329,137534,6,0,B|275:338|275:338|328:313,1,104.5,2|0,3:2|2:0,0:0:0:0:
467,158,137853,1,10,0:2:0:0:
242,135,138013,2,0,L|264:245,1,104.5,2|0,0:2|3:0,0:0:0:0:
348,42,138332,1,2,3:2:0:0:
115,171,138491,1,8,0:2:0:0:
369,193,138651,1,2,3:2:0:0:
115,171,138810,6,0,P|59:177|0:155,1,104.5,2|0,0:2|0:0,0:0:0:0:
238,32,139130,2,0,P|294:26|353:48,1,104.5,8|2,0:2|0:2,0:0:0:0:
412,229,139449,1,2,3:2:0:0:
198,118,139608,1,0,3:0:0:0:
438,37,139768,1,10,0:2:0:0:
288,155,139927,5,10,0:2:0:0:
288,155,140007,1,8,0:2:0:0:
288,155,140087,2,0,B|256:299|256:299|331:342,1,209,6|10,3:2|0:2,0:0:0:0:
491,226,140566,2,0,B|385:231,1,104.5,2|0,0:2|3:0,0:0:0:0:
156,213,140885,1,2,3:2:0:0:
412,124,141044,1,10,0:2:0:0:
251,307,141204,1,2,0:2:0:0:
203,99,141364,6,0,B|184:46|184:46|202:-9,1,104.5,2|0,3:2|2:0,0:0:0:0:
302,226,141683,1,10,0:2:0:0:
101,156,141842,2,0,P|41:151|-11:179,1,104.5,2|0,0:2|3:0,0:0:0:0:
115,384,142162,1,0,3:0:0:0:
215,198,142321,2,0,P|220:138|192:86,1,104.5,10|2,0:2|3:2,0:0:0:0:
110,302,142640,5,14,0:2:0:0:
350,381,142800,1,0,0:0:0:0:
87,292,142959,5,10,0:2:0:0:
338,218,143119,1,0,3:0:0:0:
63,281,143279,5,10,0:2:0:0:
274,79,143438,1,0,3:0:0:0:
43,271,143598,5,10,0:2:0:0:
143,10,143757,1,2,3:2:0:0:
143,10,143837,1,0,3:0:0:0:
143,10,143917,2,0,B|167:56|167:56|161:124,1,104.5,10|0,0:2|2:0,0:0:0:0:
243,320,144236,5,10,0:2:0:0:
29,179,144396,1,0,3:0:0:0:
256,346,144555,5,10,0:2:0:0:
10,384,144715,1,0,3:0:0:0:
268,375,144874,5,10,0:2:0:0:
157,104,145034,1,2,3:2:0:0:
157,104,145114,1,0,3:0:0:0:
157,104,145193,2,0,B|229:87|229:87|285:115|285:115|383:92,1,209,6|8,3:2|0:2,0:0:0:0:
204,227,145672,1,2,0:2:0:0:
292,1,145832,1,2,3:2:0:0:
375,232,145991,1,2,3:2:0:0:
461,11,146151,2,0,B|483:59|483:59|475:120,1,104.5,10|2,0:2|0:2,0:0:0:0:
271,220,146470,6,0,L|403:235,1,104.5,2|0,3:2|0:0,0:0:0:0:
243,37,146789,2,0,L|111:22,1,104.5,8|2,0:2|0:2,0:0:0:0:
0,209,147108,1,2,3:2:0:0:
261,133,147268,1,0,3:0:0:0:
48,0,147427,2,0,P|33:52|63:110,1,104.5,10|2,0:2|3:2,0:0:0:0:
86,113,147667,5,0,3:0:0:0:
86,113,147747,2,0,B|143:148|143:148|106:297,1,209,6|2,3:2|3:2,0:0:0:0:
242,92,148225,2,0,B|369:58|331:139|461:107,1,209,10|2,0:2|3:2,0:0:0:0:
273,209,148704,1,10,0:2:0:0:
398,0,148864,1,10,0:2:0:0:
481,216,149023,6,0,B|478:323,1,104.5,6|0,3:2|0:0,0:0:0:0:
266,384,149342,2,0,B|269:277,1,104.5,8|2,0:2|0:2,0:0:0:0:
271,95,149662,1,10,0:3:0:0:
367,244,149821,1,8,0:3:0:0:
415,90,149981,1,6,0:3:0:0:
367,244,150140,1,6,0:3:0:0:
260,58,150300,6,0,B|196:46|196:46|138:73|138:73|64:58,1,190,4|2,3:2|0:2,0:0:0:0:
216,178,150779,1,2,3:2:0:0:
104,294,150938,2,0,L|116:181,1,95,8|0,0:2|0:0,0:0:0:0:
194,359,151257,1,2,3:2:0:0:
0,299,151417,1,10,0:2:0:0:
194,359,151576,6,0,B|240:377|240:377|290:362,1,95,2|8,3:2|0:2,0:0:0:0:
431,205,151896,1,10,0:2:0:0:
231,276,152055,1,2,3:2:0:0:
416,380,152215,2,0,L|404:320,1,47.5,10|2,0:2|0:2,0:0:0:0:
287,148,152374,2,0,L|299:208,1,47.5,10|2,0:2|0:2,0:0:0:0:
308,360,152534,1,2,3:2:0:0:
396,92,152693,5,10,0:2:0:0:
396,92,152773,1,10,0:2:0:0:
396,92,152853,2,0,P|331:56|246:75,1,142.5,6|0,3:2|0:0,0:0:0:0:
231,90,153172,2,0,L|249:191,1,95,10|0,0:2|0:0,0:0:0:0:
77,323,153491,1,2,3:2:0:0:
129,116,153651,1,2,3:2:0:0:
77,323,153810,1,8,0:2:0:0:
247,183,153970,6,0,P|297:161|354:176,1,95,2|0,3:2|0:0,0:0:0:0:
233,356,154289,1,2,0:2:0:0:
90,215,154449,2,0,L|78:104,1,95,10|0,0:2|2:0,0:0:0:0:
252,0,154768,1,2,3:2:0:0:
215,202,154927,1,2,3:2:0:0:
85,17,155087,1,8,0:2:0:0:
288,110,155247,6,0,B|420:95|420:95|461:148,1,190,2|2,0:2|0:2,0:0:0:0:
348,308,155725,2,0,L|365:197,1,95,10|0,0:2|2:0,0:0:0:0:
439,373,156044,1,2,3:2:0:0:
234,318,156204,1,2,3:2:0:0:
439,373,156364,1,8,0:2:0:0:
265,222,156523,6,0,B|196:211|196:211|148:239|148:239|74:228,1,190,2|0,3:2|3:0,0:0:0:0:
192,384,157002,2,0,B|221:346|221:346|215:286,1,95,8|0,0:2|0:0,0:0:0:0:
43,121,157321,1,2,3:2:0:0:
115,324,157481,1,2,3:2:0:0:
181,112,157640,1,10,0:2:0:0:
13,273,157800,5,10,0:2:0:0:
13,273,157880,1,8,0:2:0:0:
13,273,157959,2,0,P|71:219|203:255,1,190,6|8,3:2|0:2,0:0:0:0:
323,100,158438,2,0,L|209:124,1,95,2|0,0:2|3:0,0:0:0:0:
283,264,158757,1,2,3:2:0:0:
111,28,158917,2,0,B|100:76|100:76|128:122,1,95,8|0,0:2|0:0,0:0:0:0:
382,227,159236,6,0,B|353:173|353:173|220:200,1,190,2|8,3:2|0:2,0:0:0:0:
68,348,159715,1,2,0:2:0:0:
280,291,159874,1,0,3:2:0:0:
75,179,160034,1,0,3:2:0:0:
171,384,160193,2,0,B|183:335|183:335|162:289,1,95,10|2,0:2|0:2,0:0:0:0:
4,119,160513,6,0,B|116:90|86:173|212:131,1,190,6|2,3:2|3:2,0:0:0:0:
351,36,160991,5,14,0:2:0:0:
294,213,161151,1,2,0:2:0:0:
351,36,161310,1,10,0:2:0:0:
436,236,161470,5,2,3:2:0:0:
235,62,161630,1,2,0:2:0:0:
436,236,161789,1,2,3:2:0:0:
182,248,161949,5,14,0:2:0:0:
475,115,162108,1,2,0:2:0:0:
182,248,162268,1,10,0:2:0:0:
447,344,162427,5,2,3:2:0:0:
324,133,162587,1,10,0:2:0:0:
278,373,162747,1,10,0:2:0:0:
448,161,162906,5,10,0:2:0:0:
448,161,162986,1,8,0:2:0:0:
448,161,163066,2,0,P|460:103|444:55,1,95,6|0,3:2|0:0,0:0:0:0:
335,252,163385,2,0,B|271:233|271:233|218:254|218:254|150:236,1,190,10|0,0:2|3:2,0:0:0:0:
72,49,163864,1,2,3:2:0:0:
48,263,164023,2,0,B|41:215|41:215|72:166,1,95,8|0,0:2|2:0,0:0:0:0:
269,20,164342,6,0,P|236:71|112:68,1,190,2|8,3:2|0:2,0:0:0:0:
282,220,164821,1,2,0:2:0:0:
179,2,164981,1,0,3:2:0:0:
170,243,165140,1,0,3:2:0:0:
269,20,165300,2,0,P|316:4|379:13,1,95,10|0,0:2|2:0,0:0:0:0:
361,262,165619,6,0,B|305:241|305:241|322:109,1,190,2|10,3:2|0:2,0:0:0:0:
453,279,166098,1,10,0:2:0:0:
453,279,166177,1,8,0:2:0:0:
453,279,166257,1,0,3:2:0:0:
221,212,166417,1,10,0:2:0:0:
440,131,166576,1,8,0:2:0:0:
282,338,166736,6,0,B|177:303|199:393|70:350,1,190,6|2,3:2|3:2,0:0:0:0:
66,328,167135,1,8,0:2:0:0:
66,328,167215,2,0,L|86:224,1,95,8|8,0:2|0:2,0:0:0:0:
219,109,167534,2,0,L|199:213,1,95,2|0,3:2|3:2,0:0:0:0:
121,25,167853,1,10,0:2:0:0:
324,175,168013,5,8,0:2:0:0:
324,175,168092,1,8,0:2:0:0:
324,175,168172,2,0,P|377:194|483:135,1,171,14|8,3:2|3:2,0:0:0:0:
376,12,168650,2,0,L|390:108,1,85.5000000000001,2|8,3:2|3:2,0:0:0:0:
201,163,168969,5,0,3:2:0:0:
201,163,169049,1,0,3:2:0:0:
201,163,169129,2,0,L|187:67,1,85.5000000000001,10|2,3:2|3:2,0:0:0:0:
324,175,169448,1,10,3:2:0:0:
158,283,169608,2,0,B|117:295|117:295|68:282,1,85.5000000000001,2|10,3:2|3:2,0:0:0:0:
25,115,169927,1,2,3:2:0:0:
25,115,170007,1,0,3:2:0:0:
25,115,170086,1,10,3:2:0:0:
220,177,170246,1,10,0:2:0:0:
96,2,170406,6,0,B|144:27|144:27|119:162,1,171,14|10,3:2|3:2,0:0:0:0:
0,271,170884,2,0,P|40:260|98:273,1,85.5000000000001,2|10,3:2|3:2,0:0:0:0:
291,159,171203,1,2,3:2:0:0:
291,159,171283,1,0,3:2:0:0:
291,159,171363,2,0,P|248:165|207:154,1,85.5000000000001,10|2,3:2|3:2,0:0:0:0:
325,294,171682,1,10,3:2:0:0:
408,75,171842,6,0,L|426:189,1,85.5000000000001,2|10,3:2|3:2,0:0:0:0:
451,361,172161,1,2,3:2:0:0:
451,361,172241,1,0,3:2:0:0:
451,361,172320,1,10,3:2:0:0:
310,187,172480,1,10,0:2:0:0:
507,269,172640,5,6,3:2:0:0:
254,370,172799,1,10,0:2:0:0:
507,269,172959,1,10,0:2:0:0:
227,208,173118,5,6,3:2:0:0:
425,327,173278,1,10,0:2:0:0:
227,208,173437,1,10,0:2:0:0:
461,121,173597,5,6,3:2:0:0:
327,277,173757,1,10,0:2:0:0:
461,121,173916,1,10,0:2:0:0:
284,35,174076,5,6,3:2:0:0:
377,202,174235,1,10,0:2:0:0:
284,35,174395,1,10,0:2:0:0:
136,205,174554,5,6,3:2:0:0:
371,100,174714,1,10,0:2:0:0:
371,100,174794,1,10,0:2:0:0:
371,100,174874,1,10,0:2:0:0:
118,16,175033,6,0,B|72:55|72:55|119:205,1,190,6|2,3:2|3:2,0:0:0:0:
177,367,175512,1,8,3:2:0:0:
229,125,175671,1,8,3:2:0:0:
48,280,175831,1,8,3:2:0:0:
287,270,175991,1,8,3:2:0:0:
86,132,176150,1,8,3:2:0:0:
287,270,176310,1,8,3:2:0:0:
284,42,176469,5,8,3:2:0:0:
187,255,176629,1,8,3:2:0:0:
284,42,176788,1,8,3:2:0:0:
186,255,176948,1,8,3:2:0:0:
195,5,177108,5,8,3:2:0:0:
283,306,177267,1,8,3:2:0:0:
195,5,177427,1,8,3:2:0:0:
283,306,177586,1,8,3:2:0:0:
237,148,177746,5,6,3:2:0:0:
459,255,187799,5,2,0:2:0:0:
480,127,187959,2,0,L|467:211,1,85.5000000000001,6|2,3:2|0:2,0:0:0:0:
377,69,188278,2,0,L|364:153,1,85.5000000000001,2|0,3:2|0:0,0:0:0:0:
328,303,188597,1,2,3:2:0:0:
264,151,188757,1,2,0:2:0:0:
328,303,188916,1,2,3:2:0:0:
155,255,189076,6,0,B|198:237|198:237|238:249,1,85.5000000000001,2|0,0:2|3:0,0:0:0:0:
101,357,189395,1,2,0:2:0:0:
65,193,189554,1,2,3:2:0:0:
101,357,189714,2,0,B|58:371|58:371|18:363,1,85.5000000000001,2|0,0:2|3:0,0:0:0:0:
155,255,190033,1,2,0:2:0:0:
0,261,190193,1,2,3:2:0:0:
155,255,190352,1,10,0:2:0:0:
61,90,190512,6,0,L|70:191,1,95,6|0,3:2|0:0,0:0:0:0:
190,19,190831,2,0,L|199:120,1,95,10|0,0:2|0:0,0:0:0:0:
351,255,191150,2,0,P|301:226|198:237,1,142.5,6|0,3:2|0:0,0:0:0:0:
184,248,191469,1,10,0:2:0:0:
334,124,191629,1,10,0:2:0:0:
261,332,191788,6,0,L|136:347,1,95,4|0,3:2|0:0,0:0:0:0:
351,255,192108,1,10,0:2:0:0:
359,384,192267,1,8,0:2:0:0:
443,171,192427,1,8,0:2:0:0:
453,351,192586,1,8,0:2:0:0:
341,162,192746,1,8,0:3:0:0:
445,261,192905,1,10,0:3:0:0:
440,62,193065,6,0,P|384:53|328:82,1,95,6|0,3:2|3:2,0:0:0:0:
238,228,193384,1,10,0:2:0:0:
234,9,193544,2,0,L|236:108,1,95,2|0,3:2|3:2,0:0:0:0:
346,278,193863,2,0,L|344:179,1,95,2|10,0:2|0:2,0:0:0:0:
55,202,194182,6,0,B|176:177|128:257|262:222,1,190,10|0,0:2|0:0,0:0:0:0:
97,384,194661,2,0,B|80:339|80:339|97:278,1,95,10|0,0:2|3:2,0:0:0:0:
217,136,194980,1,2,0:2:0:0:
186,329,195140,1,0,3:2:0:0:
217,136,195299,2,0,L|229:31,1,95,10|0,0:2|0:0,0:0:0:0:
36,106,195618,6,0,L|24:211,1,95,10|0,0:2|0:0,0:0:0:0:
272,295,195937,5,8,0:2:0:0:
134,134,196097,1,2,3:2:0:0:
300,283,196257,5,10,0:2:0:0:
80,256,196416,1,0,3:2:0:0:
323,263,196576,5,8,0:2:0:0:
43,366,196735,1,8,0:2:0:0:
228,178,196895,5,0,3:2:0:0:
278,378,197054,1,0,3:2:0:0:
228,178,197214,1,0,3:2:0:0:
278,378,197374,1,0,3:2:0:0:
291,78,197533,5,8,3:2:0:0:
159,288,197693,1,8,3:2:0:0:
291,78,197852,1,8,3:2:0:0:
159,288,198012,1,8,3:2:0:0:
228,178,198171,5,2,0:2:0:0:
422,38,199448,6,0,B|344:86|344:86|400:280,1,285,6|0,3:2|0:0,0:0:0:0:
397,271,200725,2,0,B|195:220|260:380|47:317,1,356.25,6|0,3:2|2:0,0:0:0:0:
10,241,202001,6,0,P|9:185|35:144,1,95,6|0,3:2|2:0,0:0:0:0:
231,43,202320,1,2,3:2:0:0:
11,26,202480,2,0,L|117:34,1,95,14|0,0:2|2:0,0:0:0:0:
345,51,202799,1,2,3:2:0:0:
134,172,202959,1,8,0:2:0:0:
237,0,203118,1,2,3:2:0:0:
345,158,203278,6,0,B|295:168|295:168|244:148,1,95,2|0,0:2|0:0,0:0:0:0:
419,50,203597,2,0,B|469:40|469:40|520:60,1,95,8|2,0:2|0:2,0:0:0:0:
380,241,203916,1,2,3:2:0:0:
330,46,204076,1,0,3:2:0:0:
380,241,204235,2,0,L|396:338,1,95,10|10,0:2|0:2,0:0:0:0:
400,362,204475,5,8,0:2:0:0:
400,362,204554,2,0,P|349:379|289:347,1,95,6|0,3:2|2:0,0:0:0:0:
219,274,204874,2,0,P|168:257|108:289,1,95,2|2,3:2|2:2,0:0:0:0:
297,181,205193,2,0,P|313:126|303:86,1,95,0|2,3:2|2:2,0:0:0:0:
149,178,205512,1,0,3:2:0:0:
166,36,205671,1,10,0:2:0:0:
130,268,205831,6,0,L|24:258,1,95,2|0,3:2|2:0,0:0:0:0:
213,360,206150,2,0,L|319:370,1,95,2|2,3:2|2:2,0:0:0:0:
285,175,206469,2,0,B|264:218|264:218|274:272,1,95,0|0,3:2|2:0,0:0:0:0:
385,120,206788,1,2,3:2:0:0:
181,144,206948,1,8,0:2:0:0:
181,144,207028,1,8,0:2:0:0:
181,144,207108,1,6,3:2:0:0:
181,144,207427,5,10,3:2:0:0:
385,241,207586,1,8,3:2:0:0:
361,18,207746,1,10,3:2:0:0:
248,254,207905,1,8,3:2:0:0:
428,127,208065,1,10,3:2:0:0:
224,31,208225,1,10,3:2:0:0:
305,138,208384,5,2,0:2:0:0:
4,192,209661,6,0,B|76:182|76:182|134:214|134:214|209:201,1,209,6|8,3:2|0:2,0:0:0:0:
331,69,210140,1,2,0:2:0:0:
272,288,210299,1,2,3:2:0:0:
169,81,210459,1,2,3:2:0:0:
272,288,210618,2,0,B|293:332|293:332|283:393,1,104.5,10|2,0:2|0:2,0:0:0:0:
291,156,210937,6,0,L|400:137,1,104.5,2|0,3:2|0:0,0:0:0:0:
501,279,211257,2,0,L|392:298,1,104.5,8|2,0:2|0:2,0:0:0:0:
455,28,211576,1,2,3:2:0:0:
484,190,211735,1,0,3:0:0:0:
455,28,211895,2,0,P|399:20|350:43,1,104.5,10|2,0:2|3:2,0:0:0:0:
340,68,212134,5,0,3:0:0:0:
340,68,212214,2,0,B|267:76|267:76|223:40|223:40|122:47,1,209,6|2,3:2|3:2,0:0:0:0:
22,210,212693,2,0,P|103:224|178:123,1,209,10|2,0:2|3:2,0:0:0:0:
0,111,213171,1,10,0:2:0:0:
122,316,213331,1,10,0:2:0:0:
82,135,213491,6,0,L|70:32,1,104.5,6|0,3:2|0:0,0:0:0:0:
255,224,213810,2,0,L|267:327,1,104.5,8|2,0:2|0:2,0:0:0:0:
308,137,214129,1,10,0:3:0:0:
170,206,214288,1,8,0:3:0:0:
308,137,214448,1,6,0:3:0:0:
175,70,214608,1,6,0:3:0:0:
367,15,214767,6,0,B|418:42|418:42|427:201,1,209,6|10,3:2|0:2,0:0:0:0:
225,157,215246,2,0,P|276:126|326:133,1,104.5,2|0,0:2|3:0,0:0:0:0:
229,275,215565,1,2,3:2:0:0:
176,58,215725,1,8,0:2:0:0:
345,223,215884,1,2,0:2:0:0:
127,172,216044,2,0,L|14:163,1,104.5,4|0,3:2|0:0,0:0:0:0:
133,348,216363,6,0,P|184:346|230:305,1,104.5,10|0,3:2|3:2,0:0:0:0:
311,333,216602,1,0,3:2:0:0:
311,333,216682,2,0,P|308:297|268:242,1,104.5,10|0,3:2|3:2,0:0:0:0:
295,152,216921,1,0,3:2:0:0:
295,152,217001,2,0,P|255:155|221:169,1,52.25,10|0,3:2|3:2,0:0:0:0:
188,88,217161,2,0,P|161:118|147:152,1,52.25,0|0,3:2|3:2,0:0:0:0:
62,288,217320,6,0,B|2:258|2:258|27:110,1,209,6|8,3:2|0:2,0:0:0:0:
208,12,217799,1,0,0:0:0:0:
119,208,217959,1,0,3:0:0:0:
55,12,218118,1,0,3:0:0:0:
225,176,218278,2,0,L|337:194,1,104.5,10|2,0:2|0:2,0:0:0:0:
476,35,218597,6,0,P|400:8|301:86,1,209,2|8,3:2|0:2,0:0:0:0:
268,273,219076,1,2,0:2:0:0:
431,127,219235,1,2,3:2:0:0:
207,174,219395,1,0,3:0:0:0:
388,345,219554,2,0,B|410:299|410:299|396:247,1,104.5,10|0,0:2|3:2,0:0:0:0:
380,223,219794,5,0,3:2:0:0:
380,223,219874,2,0,B|265:209|299:291|175:273,1,209,6|0,3:2|3:0,0:0:0:0:
36,151,220352,1,0,3:0:0:0:
221,69,220512,2,0,L|213:173,1,104.5,14|2,0:2|3:2,0:0:0:0:
115,11,220831,1,10,0:2:0:0:
341,64,220991,1,10,0:2:0:0:
115,11,221150,6,0,B|70:57|1:65|1:65|89:60|165:96|179:206|67:263|4:244|-27:199|-9:149|36:151,1,522.5,6|0,3:2|0:0,0:0:0:0:
201,212,223065,2,0,B|244:243|244:243|223:344,1,142.5,10|0,0:3|0:0,0:0:0:0:
262,126,223703,6,0,P|314:82|445:101,1,190,6|2,3:2|0:2,0:0:0:0:
270,253,224182,1,2,3:2:0:0:
460,211,224342,2,0,L|349:192,1,95,8|0,0:2|2:0,0:0:0:0:
214,346,224661,1,2,3:2:0:0:
387,301,224820,1,10,0:2:0:0:
242,139,224980,6,0,L|258:241,1,95,2|0,3:2|2:0,0:0:0:0:
357,23,225299,2,0,L|373:125,1,95,2|0,3:2|2:0,0:0:0:0:
214,20,225618,2,0,B|105:11|147:84|25:65,1,190,10|2,0:2|3:2,0:0:0:0:
242,139,226097,1,8,0:2:0:0:
134,300,226257,6,0,B|78:280|78:280|101:133,1,190,6|0,3:2|3:0,0:0:0:0:
229,328,226735,1,0,3:0:0:0:
199,119,226895,2,0,L|177:236,1,95,10|0,0:2|0:0,0:0:0:0:
289,42,227214,1,0,3:0:0:0:
92,126,227374,1,8,0:2:0:0:
289,42,227533,6,0,P|345:35|394:56,1,95,2|0,3:2|0:0,0:0:0:0:
477,223,227852,1,0,3:0:0:0:
280,157,228012,1,0,3:0:0:0:
475,2,228171,2,0,L|461:155,1,142.5,10|0,0:2|0:0,0:0:0:0:
429,167,228491,2,0,L|417:273,1,95,0|8,3:0|0:2,0:0:0:0:
275,353,228810,5,6,3:2:0:0:
327,226,229129,1,2,3:2:0:0:
275,353,229448,1,2,3:2:0:0:
215,153,229767,1,2,3:2:0:0:
275,353,230086,5,2,3:2:0:0:
349,100,230405,1,2,3:2:0:0:
275,353,230725,5,2,3:2:0:0:
187,39,231044,1,6,3:2:0:0:
276,279,231363,5,2,0:2:0:0:
276,279,232681,1,2,0:2:0:0:
276,279,233978,1,2,0:2:0:0:
256,192,234059,12,0,235934,0:0:0:0:
26,24,236260,5,10,0:2:0:0:
28,47,236339,1,2,0:2:0:0:
30,71,236419,1,2,0:2:0:0:
32,94,236499,1,2,0:2:0:0:
34,117,236579,6,0,B|145:85|113:163|245:128,1,190,6|8,3:2|0:2,0:0:0:0:
356,9,237057,2,0,L|343:112,1,95,2|0,3:2|0:0,0:0:0:0:
304,298,237376,1,2,3:2:0:0:
497,202,237536,2,0,P|450:183|393:210,1,95,10|0,0:2|0:0,0:0:0:0:
204,239,237855,5,0,3:2:0:0:
402,330,238015,1,0,3:2:0:0:
204,239,238174,1,8,0:2:0:0:
354,106,238334,1,2,3:2:0:0:
354,106,238414,1,2,0:2:0:0:
354,106,238493,2,0,B|366:55|366:55|348:-3,1,95,2|2,0:2|3:2,0:0:0:0:
199,148,238813,1,10,0:2:0:0:
390,203,238972,1,2,0:2:0:0:
165,43,239132,6,0,B|101:70|101:70|113:201,1,190,2|8,3:2|0:2,0:0:0:0:
129,366,239610,1,2,0:2:0:0:
299,164,239770,2,0,P|254:142|196:155,1,95,2|2,3:2|3:2,0:0:0:0:
25,309,240089,1,10,0:2:0:0:
268,268,240249,1,0,3:0:0:0:
25,309,240408,6,0,L|7:193,1,95,0|2,0:2|3:2,0:0:0:0:
186,43,240727,1,8,0:2:0:0:
114,248,240887,1,2,0:2:0:0:
186,43,241047,1,2,0:2:0:0:
0,113,241206,1,2,3:2:0:0:
218,176,241366,1,10,0:2:0:0:
218,176,241446,1,2,0:2:0:0:
218,176,241525,2,0,L|288:185,1,47.5,2|2,0:2|0:2,0:0:0:0:
354,85,241685,6,0,L|245:71,1,95,2|0,3:2|0:0,0:0:0:0:
114,248,242004,1,10,0:2:0:0:
419,188,242164,2,0,P|454:143|422:-7,1,190,2|2,3:2|3:2,0:0:0:0:
286,195,242642,6,0,L|296:311,1,95,10|0,0:2|0:0,0:0:0:0:
511,235,242961,1,2,3:2:0:0:
354,85,243121,2,0,B|311:68|311:68|243:85,1,95,2|8,3:2|0:2,0:0:0:0:
155,250,243440,1,2,3:2:0:0:
401,173,243600,1,2,0:2:0:0:
155,250,243759,1,2,3:2:0:0:
357,339,243919,1,10,0:2:0:0:
238,85,244079,1,2,0:2:0:0:
205,353,244238,6,0,B|108:351,1,95,14|0,0:2|0:0,0:0:0:0:
43,166,244557,5,10,0:2:0:0:
243,276,244717,1,0,3:0:0:0:
15,148,244876,5,10,0:2:0:0:
277,107,245036,1,2,3:2:0:0:
79,351,245196,1,10,0:2:0:0:
93,60,245355,5,2,3:2:0:0:
93,60,245435,1,2,3:2:0:0:
93,60,245515,1,10,0:2:0:0:
168,313,245674,1,10,0:2:0:0:
93,60,245834,1,10,0:2:0:0:
168,313,245993,1,10,0:2:0:0:
288,83,246153,5,0,3:2:0:0:
133,180,246313,1,0,3:2:0:0:
288,83,246472,1,8,0:2:0:0:
0,263,246632,5,4,3:2:0:0:
256,192,246711,12,0,254451,2:0:0:0:
