osu file format v14

[General]
AudioFilename: audio.mp3
AudioLeadIn: 0
PreviewTime: 57268
Countdown: 0
SampleSet: Soft
StackLeniency: 0.4
Mode: 0
LetterboxInBreaks: 0
WidescreenStoryboard: 1

[Editor]
Bookmarks: 152853
DistanceSpacing: 1.1
BeatDivisor: 4
GridSize: 16
TimelineZoom: 2.1

[Metadata]
Title:Dear Brave
TitleUnicode:ディアブレイブ
Artist:Kano
ArtistUnicode:鹿乃
Creator:sbsonic
Version:Collab Hard
Source:ヘヴィーオブジェクト
Tags:heavy object ending ed full ver version nowhere jpop pop j-pop female vocals すこっぷ scop utaite dustinati kowari milar milar001 anime japanese
BeatmapID:3005443
BeatmapSetID:1280404

[Difficulty]
HPDrainRate:3.8
CircleSize:3.8
OverallDifficulty:7.6
ApproachRate:8
SliderMultiplier:1.38
SliderTickRate:1

[Events]
//Background and Video events
0,0,"bg.png",0,0
//Break Periods
2,177946,184655
//Storyboard Layer 0 (Background)
//Storyboard Layer 1 (Fail)
//Storyboard Layer 2 (Pass)
//Storyboard Layer 3 (Foreground)
//Storyboard Layer 4 (Overlay)
//Storyboard Sound Samples

[TimingPoints]
-338,319.148936170213,4,2,1,10,1,0
1098,-100,4,2,1,15,0,0
1417,-100,4,2,1,20,0,0
1736,-100,4,2,1,25,0,0
1896,-100,4,2,1,5,0,0
2215,-117.647058823529,4,2,1,30,0,0
6683,-117.647058823529,4,2,1,40,0,0
7162,-95.2380952380954,4,2,1,60,0,0
12268,-86.9565217391304,4,2,1,70,0,0
17534,-117.647058823529,4,2,1,30,0,0
27747,-105.263157894737,4,2,1,50,0,0
43066,-153.846153846154,4,2,1,30,0,0
47534,-117.64705882353,4,2,1,30,0,0
48172,-105.263157894737,4,2,1,50,0,0
53279,-105.263157894737,4,2,1,60,0,0
58385,-86.9565217391304,4,2,1,80,0,1
81364,-86.9565217391304,4,2,1,40,0,0
83598,-133.333333333333,4,2,1,60,0,0
83917,-95.2380952380954,4,2,1,60,0,0
91576,-95.2380952380954,4,2,1,70,0,0
94130,-117.647058823529,4,2,1,40,0,0
104342,-153.846153846153,4,2,1,40,0,0
105140,-181.818181818181,4,2,1,30,0,0
105459,-117.647058823529,4,2,1,50,0,0
114555,-105.263157894737,4,2,1,60,0,0
119662,-95.2380952380952,4,2,1,70,0,0
124768,-105.263157894737,4,2,1,60,0,0
129874,-86.9565217391304,4,2,1,60,0,0
134981,-86.9565217391304,4,2,1,80,0,1
152853,-86.9565217391304,4,2,1,70,0,0
168172,319.148936170213,7,2,1,60,1,0
168172,-86.9565217391304,7,2,1,60,0,0
172640,319.148936170213,3,2,1,80,1,0
172640,-86.9565217391304,3,2,1,80,0,0
175193,319.148936170213,4,2,1,80,1,0
175272,-100,4,2,1,5,0,0
175352,-100,4,2,1,80,0,0
175512,-86.9565217391304,4,2,1,80,0,0
177746,-86.9565217391304,4,2,1,30,0,0
187958,-86.9565217391304,4,2,1,50,0,0
188278,-105.263157894737,4,2,1,50,0,0
190512,-95.2380952380954,4,2,1,70,0,0
193065,-95.2380952380952,4,2,1,60,0,0
195618,-95.2380952380952,4,2,1,70,0,0
199448,-95.2380952380952,4,2,1,50,0,0
200724,-117.647058823529,4,2,1,50,0,0
202001,-86.9565217391304,4,2,1,60,0,0
204554,-117.647058823529,4,2,1,50,0,0
207107,-86.9565217391304,4,2,1,60,0,0
209661,-86.9565217391304,4,2,1,80,0,1
216363,-86.9565217391304,4,2,1,50,0,1
216682,-86.9565217391304,4,2,1,60,0,1
217001,-86.9565217391304,4,2,1,70,0,1
217320,-86.9565217391304,4,2,1,80,0,1
221150,-86.9565217391304,4,2,1,60,0,0
223703,-86.9565217391304,4,2,1,80,0,1
231363,329.67032967033,4,2,1,60,1,0
232681,324.324324324324,4,2,1,30,1,0
233978,326.086956521739,4,2,1,30,1,0
236097,-100,4,2,1,5,0,0
236260,319.148936170213,4,2,1,60,1,0
236579,319.148936170213,4,2,1,60,1,0
236579,-95.2380952380952,4,2,1,60,0,0
248068,-95.2380952380952,4,2,1,55,0,0
249344,-95.2380952380952,4,2,1,50,0,0
250621,-95.2380952380952,4,2,1,45,0,0
251898,-95.2380952380952,4,2,1,40,0,0
253174,-95.2380952380952,4,2,1,35,0,0
254451,-95.2380952380952,4,2,1,5,0,0

[Colours]
Combo1 : 255,174,239
Combo2 : 150,139,136
Combo3 : 140,217,136
Combo4 : 198,173,159
Combo5 : 108,207,255
Combo6 : 244,218,168

[HitObjects]
256,192,779,12,0,1896,2:0:0:0:
63,104,2215,6,0,B|126:84|124:136|181:111,1,117.30000223732,6|2,3:2|2:0,2:0:0:0:
265,38,2853,2,0,P|256:113|249:165,1,117.30000223732,2|2,2:0|2:0,2:0:0:0:
192,212,3332,1,2,2:0:0:0:
249,269,3491,6,0,P|286:260|315:257,1,58.65000111866,2|2,2:0|2:2,2:0:0:0:
360,195,3810,2,0,P|389:199|417:206,1,58.65000111866,2|2,2:0|2:0,2:0:0:0:
465,139,4130,6,0,P|492:172|498:212,1,58.65000111866,2|2,2:0|2:0,2:0:0:0:
473,265,4449,2,0,P|435:285|395:283,1,58.65000111866,2|2,2:0|2:0,2:0:0:0:
365,225,4768,6,0,P|301:212|235:204,1,117.30000223732,2|2,2:0|2:0,2:0:0:0:
149,75,5406,2,0,P|181:113|155:184,1,117.30000223732,2|2,2:0|2:0,2:0:0:0:
106,231,5885,1,2,2:0:0:0:
92,259,6683,6,0,P|71:255|51:249,5,29.32500055933,2|2|2|2|2|2,2:0|2:0|2:0|2:0|2:0|2:0,2:0:0:0:
101,287,7162,6,0,B|174:261|163:335|241:310,1,144.899995578003,6|2,3:2|3:2,2:0:0:0:
292,245,7640,2,0,P|281:188|271:152,1,72.4499977890015,10|0,2:0|2:0,2:0:0:0:
346,120,7959,1,2,3:2:0:0:
346,120,8119,2,0,P|357:63|367:27,1,72.4499977890015,0|10,3:2|2:0,2:0:0:0:
284,4,8438,6,0,P|213:10|179:75,1,144.899995578003,2|2,3:2|3:2,2:0:0:0:
166,154,8917,2,0,P|159:118|151:83,1,72.4499977890015,10|2,2:0|2:0,2:0:0:0:
81,30,9236,1,2,3:2:0:0:
81,30,9396,2,0,P|72:65|66:100,1,72.4499977890015,2|10,3:2|2:0,2:0:0:0:
6,164,9715,6,0,P|24:239|34:338,1,144.899995578003,2|2,3:2|3:2,2:0:0:0:
190,233,10353,2,0,P|172:308|162:407,1,144.899995578003,2|2,3:2|3:2,2:0:0:0:
310,281,10991,6,0,B|383:255|372:329|450:304,1,144.899995578003,6|2,3:2|3:2,2:0:0:0:
509,246,11470,1,10,2:0:0:0:
509,246,11630,1,8,2:0:0:0:
425,222,11789,2,0,P|414:165|404:129,1,72.4499977890015,10|10,2:3|2:0,2:0:0:0:
463,81,12108,1,10,2:0:0:0:
377,37,12268,6,0,B|349:34|328:28|328:28|303:37|281:52|281:52|254:42|226:43,1,158.700003026962,6|2,3:2|3:2,2:0:0:0:
139,1,12747,2,0,P|129:49|144:93,1,79.3500015134812,14|2,2:0|2:0,2:0:0:0:
215,130,13066,1,2,3:2:0:0:
215,130,13225,6,0,B|226:155|246:172|246:172|231:205|207:298,1,158.700003026962,14|0,2:0|3:2,2:0:0:0:
229,367,13704,2,0,P|180:365|142:339,1,79.3500015134812,14|2,2:0|2:0,2:0:0:0:
78,292,14023,1,2,3:2:0:0:
137,218,14183,2,0,P|131:178|121:140,2,79.3500015134812,10|10|10,2:0|2:0|2:0,2:0:0:0:
213,272,14662,1,2,3:2:0:0:
213,272,14821,1,2,3:2:0:0:
254,185,14981,6,0,B|332:156|320:236|405:209,1,158.700003026962,14|0,2:0|3:2,2:0:0:0:
466,281,15459,2,0,P|499:211|470:140,1,158.700003026962,14|2,2:0|3:2,2:0:0:0:
433,118,15858,1,0,3:2:0:0:
433,118,15938,6,0,P|379:129|270:151,1,158.700003026962,14|0,2:0|3:2,2:0:0:0:
209,81,16417,2,0,P|215:42|224:0,2,79.3500015134812,14|2|2,2:0|2:0|3:2,2:0:0:0:
141,148,16896,1,10,2:0:0:0:
208,215,17055,1,10,2:0:0:0:
62,342,17534,6,0,P|107:286|171:294,1,117.30000223732,4|2,2:0|2:0,2:0:0:0:
207,331,18013,2,0,P|257:317|327:303,2,117.30000223732,2|2|2,2:0|2:0|2:0,2:0:0:0:
135,357,18810,6,0,B|119:335|107:317|107:317|120:271|131:235,1,117.30000223732,2|2,2:0|2:0,2:0:0:0:
154,180,19289,2,0,P|140:132|131:108,1,58.65000111866,2|0,2:0|2:0,2:0:0:0:
94,60,19608,2,0,P|151:71|208:87,1,117.30000223732,2|0,2:0|2:0,2:0:0:0:
243,19,20087,6,0,P|281:61|268:134,1,117.30000223732,2|2,2:0|2:0,2:0:0:0:
227,175,20566,2,0,P|274:187|294:214,1,58.65000111866,2|0,2:0|2:0,2:0:0:0:
306,265,20885,2,0,P|293:312|266:332,1,58.65000111866,2|0,2:0|2:0,2:0:0:0:
229,368,21204,6,0,P|172:352|114:340,1,117.30000223732,2|0,2:0|2:0,2:0:0:0:
49,301,21683,1,0,2:0:0:0:
49,301,21842,2,0,P|105:285|163:273,1,117.30000223732,2|2,2:0|2:0,2:0:0:0:
208,212,22321,2,0,P|198:174|189:136,1,58.65000111866,2|2,2:0|2:0,2:0:0:0:
232,89,22640,6,0,B|260:76|281:63|281:63|302:73|356:91,1,117.30000223732,2|0,2:0|2:0,2:0:0:0:
414,73,23119,2,0,P|359:115|378:166,1,117.30000223732,2|0,2:0|2:0,2:0:0:0:
446,148,23598,1,2,2:0:0:0:
446,148,23757,1,2,2:0:0:0:
469,220,23917,6,0,P|457:277|447:335,1,117.30000223732,2|2,2:0|2:0,2:0:0:0:
407,270,24396,2,0,P|380:258|351:259,1,58.65000111866,2|0,2:0|2:0,2:0:0:0:
301,317,24715,2,0,P|274:328|245:327,1,58.65000111866,2|0,2:0|2:0,2:0:0:0:
175,295,25034,1,2,2:0:0:0:
175,295,25193,6,0,P|185:237|196:179,1,117.30000223732,2|2,2:0|2:0,2:0:0:0:
252,127,25672,2,0,P|238:75|227:44,1,58.65000111866,2|0,2:0|2:0,2:0:0:0:
170,109,25991,2,0,P|123:82|93:67,1,58.65000111866,2|0,2:0|2:0,2:0:0:0:
77,16,26310,6,0,P|43:67|65:137,1,117.30000223732,2|0,2:0|2:0,2:0:0:0:
112,166,26789,2,0,P|101:219|95:248,1,58.65000111866,2|2,2:0|2:0,2:0:0:0:
23,219,27108,2,0,P|34:272|40:301,1,58.65000111866,2|2,2:0|2:0,2:0:0:0:
26,352,27427,2,0,P|55:351|80:337,1,58.65000111866,2|2,2:0|2:0,2:0:0:0:
153,291,27747,6,0,B|217:270|214:337|286:312,1,131.099996499252,6|2,3:2|3:2,2:0:0:0:
348,357,28225,2,0,P|360:328|359:295,1,65.5499982496262,2|0,2:0|3:2,2:0:0:0:
300,233,28544,2,0,P|287:203|288:170,1,65.5499982496262,2|0,2:0|3:2,2:0:0:0:
344,105,28864,6,0,P|410:124|494:147,1,131.099996499252,2|2,2:0|2:0,2:0:0:0:
509,65,29342,1,2,3:2:0:0:
426,42,29502,2,0,P|368:82|281:59,1,131.099996499252,2|0,2:0|2:0,2:0:0:0:
240,36,29981,1,2,3:2:0:0:
240,36,30140,1,2,2:0:0:0:
197,107,30300,6,0,P|216:175|241:260,1,131.099996499252,2|2,3:2|3:2,2:0:0:0:
229,318,30779,2,0,P|195:311|168:289,1,65.5499982496262,2|0,2:0|3:2,2:0:0:0:
153,209,31098,2,0,P|166:178|194:157,1,65.5499982496262,2|0,2:0|3:2,2:0:0:0:
273,181,31417,6,0,P|269:214|263:269,1,65.5499982496262,2|0,2:0|3:2,2:0:0:0:
350,235,31736,2,0,P|353:267|356:300,1,65.5499982496262,2|0,2:0|3:2,2:0:0:0:
436,268,32055,2,0,P|472:225|449:149,1,131.099996499252,2|0,2:0|2:0,2:0:0:0:
392,101,32534,2,0,P|347:116|311:135,1,65.5499982496262,2|0,3:2|2:0,2:0:0:0:
256,81,32853,6,0,P|226:67|102:47,1,131.099996499252,6|2,3:2|3:2,2:0:0:0:
66,104,33332,2,0,P|77:163|79:193,1,65.5499982496262,2|0,2:0|3:2,2:0:0:0:
9,220,33651,2,0,P|86:213|91:270,1,131.099996499252,2|0,2:0|2:0,2:0:0:0:
35,309,34130,6,0,B|99:288|96:355|168:330,1,131.099996499252,2|0,3:2|3:0,2:0:0:0:
213,268,34608,1,0,2:0:0:0:
213,268,34768,2,0,B|197:224|185:192|185:192|214:169|216:124,1,131.099996499252,2|0,3:2|3:0,2:0:0:0:
132,118,35247,1,2,2:0:0:0:
132,118,35406,6,0,P|143:52|149:27,1,65.5499982496262,2|2,3:2|2:0,2:0:0:0:
227,66,35725,2,0,P|289:42|314:35,1,65.5499982496262,2|0,3:2|2:0,2:0:0:0:
298,127,36044,2,0,P|361:140|442:169,1,131.099996499252,2|2,3:2|3:2,2:0:0:0:
493,110,36523,1,2,2:0:0:0:
461,30,36683,6,0,P|434:48|416:75,1,65.5499982496262,2|2,3:2|2:0,2:0:0:0:
331,66,37002,2,0,P|332:98|347:127,1,65.5499982496262,2|2,3:2|2:0,2:0:0:0:
297,197,37321,2,0,P|326:212|358:213,1,65.5499982496262,2|2,3:2|2:0,2:0:0:0:
393,292,37640,2,0,P|420:274|438:247,1,65.5499982496262,2|2,3:2|2:0,2:0:0:0:
429,166,37959,5,8,2:0:0:0:
429,166,38119,1,8,2:0:0:0:
357,212,38279,2,0,P|315:203|273:194,1,65.5499982496262,2|2,3:2|2:2,2:0:0:0:
234,260,38598,2,0,B|201:214|201:214|233:125,1,131.099996499252,2|2,3:2|3:2,2:0:0:0:
267,69,39076,1,2,2:0:0:0:
202,21,39236,5,8,2:0:0:0:
202,21,39396,1,8,2:0:0:0:
156,93,39555,2,0,P|114:102|72:111,1,65.5499982496262,2|2,3:2|2:2,2:0:0:0:
30,47,39874,2,0,B|-3:93|-3:93|29:182,1,131.099996499252,2|2,3:2|3:2,2:0:0:0:
103,188,40353,1,2,2:0:0:0:
67,267,40513,5,8,2:0:0:0:
67,267,40672,1,8,2:0:0:0:
135,326,40832,5,2,3:2:0:0:
135,326,40991,2,0,P|218:300|289:276,1,131.099996499252,2|0,2:2|2:0,2:0:0:0:
294,208,41470,2,0,P|321:224|339:252,1,65.5499982496262,2|2,3:2|2:2,2:0:0:0:
344,341,41789,5,10,2:2:0:0:
344,341,41949,1,8,2:0:0:0:
422,310,42108,2,0,P|473:323|503:332,1,65.5499982496262,2|0,3:2|2:0,2:0:0:0:
503,243,42427,2,0,P|471:234|439:226,1,65.5499982496262,2|0,3:2|2:0,2:0:0:0:
386,165,42747,1,2,3:2:0:0:
386,165,42906,1,8,2:0:0:0:
310,220,43066,6,0,P|293:156|363:76,1,179.39999178772,6|2,3:2|2:0,2:0:0:0:
361,76,44342,2,0,P|288:64|256:58,1,89.69999589386,2|2,2:0|2:0,2:0:0:0:
201,6,44981,2,0,P|154:14|112:20,1,89.69999589386,2|2,2:0|2:0,2:0:0:0:
23,105,45619,6,0,B|104:78|100:163|192:131,1,179.39999178772,2|2,2:0|2:0,2:0:0:0:
191,131,46896,2,0,P|177:221|174:238,1,89.69999589386,2|2,2:0|2:0,2:0:0:0:
117,273,47374,1,2,2:0:0:0:
175,328,47534,2,0,P|229:316|258:310,1,58.65000111866,2|2,2:0|3:2,2:0:0:0:
298,368,47853,1,10,2:0:0:0:
298,368,48013,1,8,2:0:0:0:
350,300,48172,6,0,P|338:259|323:207,1,65.5499982496262,4|0,3:2|3:0,2:0:0:0:
384,179,48491,1,10,2:0:0:0:
384,179,48651,1,2,2:0:0:0:
427,244,48810,2,0,P|474:201|448:140,1,131.099996499252,2|10,3:2|2:0,2:0:0:0:
501,81,49289,1,2,2:0:0:0:
448,26,49449,6,0,P|413:40|375:55,1,65.5499982496262,0|0,3:0|3:0,2:0:0:0:
317,81,49768,1,10,2:0:0:0:
317,81,49927,1,2,2:0:0:0:
249,39,50087,2,0,P|293:92|279:164,1,131.099996499252,2|10,3:2|2:0,2:0:0:0:
252,222,50566,1,2,2:0:0:0:
187,176,50725,6,0,P|152:190|114:205,1,65.5499982496262,0|0,3:0|3:0,2:0:0:0:
48,189,51044,1,10,2:0:0:0:
47,267,51204,2,0,B|107:246|104:309|172:286,1,131.099996499252,2|0,2:0|3:0,2:0:0:0:
235,243,51683,1,10,2:0:0:0:
287,301,51842,6,0,P|273:211|262:141,1,131.099996499252,2|0,2:0|3:0,2:0:0:0:
316,110,52321,1,10,2:0:0:0:
245,74,52481,2,0,P|284:35|372:54,1,131.099996499252,2|0,2:0|3:0,2:0:0:0:
395,108,52959,2,0,P|387:144|378:181,1,65.5499982496262,8|2,2:0|2:0,2:0:0:0:
434,238,53279,6,0,P|406:256|370:254,1,65.5499982496262,14|2,2:0|2:0,2:0:0:0:
303,208,53598,1,2,3:2:0:0:
279,289,53757,2,0,P|271:257|264:225,1,65.5499982496262,14|2,2:0|2:0,2:0:0:0:
246,141,54076,1,2,3:2:0:0:
185,200,54236,2,0,P|192:168|199:136,1,65.5499982496262,14|2,2:0|2:0,2:0:0:0:
217,52,54555,5,2,3:2:0:0:
278,111,54715,2,0,P|311:112|341:93,1,65.5499982496262,12|2,2:0|2:0,2:0:0:0:
402,152,55034,1,2,3:2:0:0:
423,69,55193,2,0,P|430:101|437:132,1,65.5499982496262,12|10,2:0|2:0,2:0:0:0:
512,185,55513,1,8,2:0:0:0:
512,185,55672,1,2,3:2:0:0:
450,244,55832,6,0,B|389:223|392:286|324:263,1,131.099996499252,14|8,2:0|3:2,2:0:0:0:
262,208,56310,1,10,3:2:0:0:
193,257,56470,2,0,P|208:322|210:341,1,65.5499982496262,10|8,3:2|3:2,2:0:0:0:
143,377,56789,1,8,3:2:0:0:
143,377,56949,1,8,3:2:0:0:
65,341,57108,5,8,2:0:0:0:
100,127,57747,6,0,P|94:101|84:65,3,32.7749991248131,2|2|2|2,2:0|2:0|2:0|2:0,2:0:0:0:
122,75,58066,2,0,P|128:49|138:13,3,32.7749991248131,2|2|2|2,2:0|2:0|2:0|2:0,2:0:0:0:
167,21,58385,6,0,B|94:-4|97:71|17:44,2,158.700003026962,6|8|0,3:2|2:0|3:0,2:0:0:0:
228,83,59183,1,0,3:0:0:0:
284,16,59342,2,0,P|315:67|307:110,1,79.3500015134812,10|2,2:0|2:0,2:0:0:0:
261,155,59662,6,0,P|275:249|286:321,1,158.700003026962,2|8,3:2|2:0,2:0:0:0:
229,379,60140,1,2,2:0:0:0:
229,379,60300,2,0,P|203:348|198:310,1,79.3500015134812,2|0,3:2|3:0,2:0:0:0:
247,237,60619,2,0,P|284:226|322:238,1,79.3500015134812,10|0,2:0|2:0,2:0:0:0:
389,294,60938,6,0,B|400:269|420:252|420:252|405:219|381:126,1,158.700003026962,2|10,3:2|2:0,2:0:0:0:
438,79,61417,2,0,P|396:62|345:76,1,79.3500015134812,2|0,2:0|3:0,2:0:0:0:
300,128,61736,2,0,P|264:144|225:140,1,79.3500015134812,2|8,3:2|2:0,2:0:0:0:
147,99,62055,1,2,3:2:0:0:
147,99,62215,6,0,P|155:53|164:0,1,79.3500015134812,2|0,2:0|2:0,2:0:0:0:
73,29,62534,2,0,P|66:68|59:107,1,79.3500015134812,8|2,2:0|2:0,2:0:0:0:
111,177,62853,1,2,3:2:0:0:
111,177,63013,1,0,3:0:0:0:
59,247,63172,2,0,P|94:263|133:259,1,79.3500015134812,10|10,2:0|2:0,2:0:0:0:
175,244,63412,1,8,2:0:0:0:
175,244,63491,6,0,B|247:218|244:294|324:267,1,158.700003026962,6|10,3:2|2:0,2:0:0:0:
390,209,63970,2,0,P|383:169|376:130,1,79.3500015134812,2|0,2:0|3:0,2:0:0:0:
435,66,64289,2,0,P|358:45|296:97,1,158.700003026962,2|2,3:2|2:0,2:0:0:0:
241,155,64768,6,0,P|195:144|138:140,1,79.3500015134812,2|0,3:2|2:0,2:0:0:0:
97,82,65087,1,10,2:0:0:0:
97,82,65247,2,0,B|86:107|66:124|66:124|81:157|105:250,1,158.700003026962,2|0,2:0|3:0,2:0:0:0:
23,268,65725,2,0,P|55:303|109:307,1,79.3500015134812,10|0,2:0|3:2,2:0:0:0:
157,359,66044,6,0,P|195:349|234:344,1,79.3500015134812,14|0,2:0|2:0,2:0:0:0:
223,248,66364,2,0,P|261:258|297:274,1,79.3500015134812,10|0,2:0|3:0,2:0:0:0:
372,214,66683,1,10,2:0:0:0:
372,214,66842,1,0,3:0:0:0:
452,267,67002,2,0,P|456:227|466:189,1,79.3500015134812,10|2,2:0|3:2,2:0:0:0:
486,150,67241,1,0,3:0:0:0:
486,150,67321,6,0,P|481:110|471:72,1,79.3500015134812,10|0,2:0|2:0,2:0:0:0:
396,12,67640,2,0,P|359:2|311:22,1,79.3500015134812,10|0,2:0|3:0,2:0:0:0:
248,76,67959,1,10,2:0:0:0:
321,137,68119,1,0,3:0:0:0:
263,214,68279,2,0,P|224:206|184:200,1,79.3500015134812,10|2,2:0|3:2,2:0:0:0:
156,166,68518,1,0,3:0:0:0:
156,166,68598,6,0,P|78:230|94:295,1,158.700003026962,6|8,3:2|2:0,2:0:0:0:
133,349,69076,1,2,2:0:0:0:
187,282,69236,2,0,L|273:297,1,79.3500015134812,2|2,3:2|3:2,2:0:0:0:
306,218,69555,2,0,L|227:204,1,79.3500015134812,10|2,2:0|2:0,2:0:0:0:
141,189,69874,6,0,P|224:176|266:104,1,158.700003026962,2|8,3:2|2:0,2:0:0:0:
345,149,70353,1,2,2:0:0:0:
345,149,70513,2,0,P|349:93|316:55,1,79.3500015134812,2|0,3:2|3:0,2:0:0:0:
259,36,70832,2,0,P|206:56|186:102,1,79.3500015134812,10|2,2:0|3:2,2:0:0:0:
211,113,71071,1,0,3:0:0:0:
211,113,71151,6,0,P|220:187|232:283,1,158.700003026962,6|2,3:2|3:2,2:0:0:0:
148,301,71630,2,0,B|220:275|217:351|297:324,1,158.700003026962,10|2,2:0|3:2,2:0:0:0:
357,261,72108,1,10,2:0:0:0:
357,261,72268,1,10,2:0:0:0:
414,326,72427,6,0,P|442:267|431:226,1,79.3500015134812,6|0,3:2|2:0,2:0:0:0:
394,180,72747,2,0,P|366:121|377:80,1,79.3500015134812,8|2,2:0|2:0,2:0:0:0:
408,32,73066,1,10,2:3:0:0:
408,32,73225,1,8,2:3:0:0:
463,100,73385,1,6,2:3:0:0:
463,100,73544,1,6,2:3:0:0:
403,164,73704,6,0,B|354:155|354:155|307:179|307:179|252:170,1,158.700003026962,4|2,3:2|2:0,2:0:0:0:
210,92,74183,1,2,3:2:0:0:
151,156,74342,2,0,B|120:198|120:198|159:324,1,158.700003026962,8|2,2:0|3:2,2:0:0:0:
181,381,74821,1,10,2:0:0:0:
240,317,74981,6,0,P|281:322|323:331,1,79.3500015134812,2|0,3:2|2:0,2:0:0:0:
298,244,75300,2,0,P|333:235|376:230,1,79.3500015134812,2|0,3:2|2:0,2:0:0:0:
332,154,75619,2,0,P|363:136|404:121,1,79.3500015134812,10|0,2:0|2:0,2:0:0:0:
442,44,75938,1,2,3:2:0:0:
442,44,76098,1,8,2:0:0:0:
503,105,76257,6,0,P|454:79|315:62,1,158.700003026962,6|0,3:2|3:0,2:0:0:0:
279,12,76736,1,0,3:0:0:0:
279,12,76896,2,0,B|202:6|224:78|140:73,1,158.700003026962,10|0,2:0|3:0,2:0:0:0:
77,13,77374,1,8,2:0:0:0:
77,13,77534,6,0,P|50:56|92:156,1,158.700003026962,2|0,3:2|3:0,2:0:0:0:
24,215,78013,1,0,3:0:0:0:
24,215,78172,2,0,P|73:189|212:172,1,158.700003026962,10|0,2:0|3:0,2:0:0:0:
245,218,78651,1,8,2:0:0:0:
308,161,78810,5,6,3:2:0:0:
232,318,79130,1,2,3:2:0:0:
380,226,79449,1,2,3:2:0:0:
240,121,79768,1,2,3:2:0:0:
330,306,80087,5,2,3:2:0:0:
448,136,80406,1,2,3:2:0:0:
261,223,80725,1,2,3:2:0:0:
426,345,81044,1,6,3:2:0:0:
401,212,81364,5,6,3:2:0:0:
251,358,82640,5,6,2:0:0:0:
56,218,83598,6,0,P|80:212|103:207,3,25.875000987053,2|2|2|2,2:0|2:0|2:0|2:0,2:0:0:0:
45,248,83917,6,0,P|79:250|192:283,1,144.899995578003,6|8,3:2|2:0,2:0:0:0:
237,358,84396,2,0,P|276:309|260:227,1,144.899995578003,2|2,3:2|3:2,2:0:0:0:
180,188,84874,2,0,P|189:145|199:108,1,72.4499977890015,10|0,2:0|2:0,2:0:0:0:
110,90,85193,5,0,3:2:0:0:
110,90,85353,2,0,P|101:47|83:8,1,72.4499977890015,0|8,3:2|2:0,2:0:0:0:
189,8,85672,1,2,3:2:0:0:
189,8,85752,1,2,2:0:0:0:
189,8,85832,2,0,P|221:8|257:31,1,72.4499977890015,2|2,2:0|3:2,2:0:0:0:
316,100,86151,2,0,P|351:98|381:79,1,72.4499977890015,10|2,2:0|2:0,2:0:0:0:
454,18,86470,6,0,B|465:43|485:60|485:60|470:93|456:147,1,144.899995578003,2|8,3:2|2:0,2:0:0:0:
507,227,86949,1,2,3:2:0:0:
422,267,87108,2,0,B|349:236|366:306|283:280,1,144.899995578003,2|8,2:0|2:2,0:1:0:0:
208,243,87587,1,0,0:2:0:0:
176,329,87747,6,0,P|143:310|122:281,1,72.4499977890015,2|0,3:2|3:2,2:0:0:0:
28,282,88066,2,0,P|36:246|61:215,1,72.4499977890015,8|2,2:0|3:2,2:0:0:0:
16,134,88385,2,0,P|52:123|89:131,1,72.4499977890015,2|2,2:0|3:2,2:0:0:0:
146,201,88704,2,0,P|168:195|186:190,3,36.2249988945008,10|2|2|2,2:0|2:0|2:0|2:0,2:0:0:0:
195,236,89023,6,0,P|207:168|222:75,1,144.899995578003,2|10,3:2|2:0,2:0:0:0:
132,57,89502,2,0,P|159:18|261:6,1,144.899995578003,2|2,3:2|3:2,2:0:0:0:
303,77,89981,2,0,P|347:68|393:60,1,72.4499977890015,10|0,2:0|2:0,2:0:0:0:
445,7,90300,5,2,3:2:0:0:
445,7,90459,2,0,P|467:17|516:43,1,72.4499977890015,2|8,3:2|2:0,2:0:0:0:
490,139,90779,1,2,3:2:0:0:
490,139,90938,2,0,P|479:171|450:196,1,72.4499977890015,2|2,2:0|3:2,2:0:0:0:
359,216,91257,2,0,P|326:205|295:173,1,72.4499977890015,10|2,2:0|2:0,2:0:0:0:
331,90,91576,6,0,P|280:97|185:109,1,144.899995578003,14|10,2:0|2:0,2:0:0:0:
102,66,92055,1,0,3:0:0:0:
37,135,92215,1,10,2:0:0:0:
37,135,92294,1,2,2:0:0:0:
37,135,92374,1,2,3:2:0:0:
122,175,92534,2,0,P|138:209|133:252,1,72.4499977890015,10|2,2:0|3:2,2:0:0:0:
124,291,92773,1,2,3:2:0:0:
124,291,92853,5,10,2:0:0:0:
42,244,93013,1,10,2:0:0:0:
0,332,93172,1,10,2:0:0:0:
77,376,93332,1,10,2:0:0:0:
46,155,93651,5,0,3:2:0:0:
46,155,93731,1,0,3:2:0:0:
46,155,93810,2,0,P|53:112|58:80,1,72.4499977890015,6|2,3:2|2:0,2:0:0:0:
124,33,94130,6,0,P|163:78|237:71,1,117.30000223732,4|2,3:2|3:2,2:0:0:0:
262,12,94608,2,0,P|217:41|203:126,1,117.30000223732,2|2,2:0|2:0,2:0:0:0:
401,81,95247,1,2,2:0:0:0:
401,81,95406,6,0,P|328:88|258:97,1,117.30000223732,2|2,3:2|3:2,2:0:0:0:
243,165,95885,2,0,B|225:217|225:217|256:279,1,117.30000223732,2|2,2:0|2:0,2:0:0:0:
206,381,96523,1,2,2:0:0:0:
206,381,96682,6,0,P|191:346|154:261,1,117.30000223732,2|2,3:2|3:2,2:0:0:0:
78,257,97162,2,0,P|97:213|181:193,1,117.30000223732,2|2,2:0|2:0,2:0:0:0:
233,231,97640,1,0,3:0:0:0:
233,231,97800,6,0,P|248:191|279:116,1,117.30000223732,2|0,2:0|2:0,2:0:0:0:
191,113,98279,1,0,3:0:0:0:
191,113,98438,2,0,P|179:76|165:54,1,58.65000111866,2|0,2:0|2:0,2:0:0:0:
235,19,98757,1,2,2:0:0:0:
314,30,98917,1,2,3:2:0:0:
336,106,99076,1,2,2:0:0:0:
288,170,99236,6,0,P|244:147|175:169,1,117.30000223732,6|2,3:2|3:2,2:0:0:0:
112,117,99715,2,0,P|122:163|134:241,1,117.30000223732,2|0,2:0|2:0,2:0:0:0:
94,306,100193,1,2,3:2:0:0:
94,306,100353,1,2,2:0:0:0:
143,371,100513,6,0,P|171:362|207:355,1,58.65000111866,2|0,3:2|2:0,2:0:0:0:
258,298,100832,1,2,3:2:0:0:
258,298,100991,2,0,P|277:302|316:317,1,58.65000111866,2|0,2:0|3:0,2:0:0:0:
374,370,101310,2,0,P|401:360|436:351,1,58.65000111866,2|0,2:0|3:0,2:0:0:0:
476,288,101630,1,2,2:0:0:0:
476,288,101789,6,0,L|465:220,1,58.65000111866,2|0,3:2|2:0,2:0:0:0:
392,208,102108,1,2,3:2:0:0:
392,208,102267,2,0,L|401:142,1,58.65000111866,2|0,2:0|3:0,2:0:0:0:
320,126,102587,2,0,L|350:73,1,58.65000111866,2|0,2:0|3:0,2:0:0:0:
420,34,102906,6,0,P|376:-1|318:0,1,117.30000223732,2|0,2:0|2:0,2:0:0:0:
263,60,103385,1,2,3:2:0:0:
104,18,103704,2,0,P|135:75|137:91,1,58.65000111866,2|2,3:2|2:0,2:0:0:0:
198,118,104023,2,0,P|176:175|174:191,1,58.65000111866,6|10,3:2|2:0,2:0:0:0:
111,238,104342,6,0,B|206:201|185:295|279:261,1,179.39999178772,6|0,3:2|2:0,2:0:0:0:
334,208,105140,2,0,P|327:173|324:158,1,37.9500011581421,2|0,3:2|2:0,2:0:0:0:
306,90,105459,6,0,P|360:94|408:142,1,117.30000223732,6|10,3:2|2:0,2:0:0:0:
487,114,105938,1,10,3:2:0:0:
487,114,106098,2,0,P|477:185|472:240,1,117.30000223732,2|0,2:0|2:0,2:0:0:0:
398,264,106576,2,0,P|402:283|413:337,1,58.65000111866,10|2,2:0|2:0,2:0:0:0:
352,380,106896,6,0,P|306:332|258:319,1,117.30000223732,2|10,3:2|2:0,2:0:0:0:
202,378,107374,2,0,P|184:356|176:328,1,58.65000111866,2|0,2:0|3:2,2:0:0:0:
210,253,107693,2,0,P|228:240|268:236,1,58.65000111866,2|8,2:0|2:0,2:0:0:0:
330,284,108013,6,0,B|351:235|351:235|331:174,1,117.30000223732,2|2,2:0|2:0,2:0:0:0:
385,113,108491,1,10,2:0:0:0:
385,113,108651,2,0,P|351:93|273:117,1,117.30000223732,2|2,2:0|2:0,2:0:0:0:
243,185,109130,2,0,P|205:174|174:163,1,58.65000111866,10|0,2:0|2:0,2:0:0:0:
113,205,109449,6,0,P|121:279|127:332,1,117.30000223732,2|10,3:2|2:0,2:0:0:0:
176,384,109927,2,0,P|204:352|205:318,1,58.65000111866,2|0,2:0|3:2,2:0:0:0:
289,343,110247,2,0,P|281:293|267:279,1,58.65000111866,2|8,2:0|2:0,2:0:0:0:
354,259,110566,2,0,P|310:208|239:212,1,117.30000223732,2|0,2:0|2:0,2:0:0:0:
199,252,111044,1,8,2:0:0:0:
78,139,111364,6,0,P|80:102|90:12,1,117.30000223732,2|8,3:2|2:0,2:0:0:0:
169,2,111842,1,2,2:0:0:0:
226,60,112002,1,2,3:2:0:0:
298,20,112162,2,0,P|334:-3|424:9,1,117.30000223732,2|0,2:0|2:0,2:0:0:0:
441,73,112640,2,0,P|430:113|421:143,1,58.65000111866,2|0,3:2|2:0,2:0:0:0:
495,181,112959,1,10,2:0:0:0:
495,181,113119,1,2,2:0:0:0:
418,210,113279,6,0,P|389:207|363:181,1,58.65000111866,2|2,3:2|3:2,2:0:0:0:
284,181,113598,2,0,P|256:191|240:214,1,58.65000111866,10|0,2:0|2:0,2:0:0:0:
227,299,113917,1,2,3:2:0:0:
227,299,114076,1,2,3:2:0:0:
157,264,114236,1,10,2:0:0:0:
157,264,114396,1,2,2:0:0:0:
107,325,114555,6,0,L|37:315,1,65.5499982496262,4|0,3:2|3:2,2:0:0:0:
16,233,114874,1,10,2:0:0:0:
16,233,115034,1,2,3:2:0:0:
16,141,115193,2,0,P|85:171|97:240,1,131.099996499252,2|10,3:2|2:0,2:0:0:0:
178,269,115672,6,0,P|200:204|230:141,1,131.099996499252,2|0,2:0|3:2,2:0:0:0:
152,101,116151,1,10,2:0:0:0:
152,101,116310,1,2,3:2:0:0:
232,56,116470,2,0,P|282:67|322:140,1,131.099996499252,2|10,2:0|2:0,2:0:0:0:
409,103,116949,6,0,P|390:180|379:240,1,131.099996499252,2|0,2:0|3:2,2:0:0:0:
451,277,117427,1,10,2:0:0:0:
376,318,117587,1,2,3:2:0:0:
376,318,117747,2,0,B|310:298|311:356|241:328,1,131.099996499252,0|10,3:0|2:0,2:0:0:0:
171,362,118225,6,0,P|158:297|142:234,1,131.099996499252,10|0,2:0|3:2,2:0:0:0:
179,157,118704,1,10,2:0:0:0:
226,228,118864,1,2,2:0:0:0:
226,228,119023,2,0,P|241:171|255:144,1,65.5499982496262,0|0,3:0|3:2,2:0:0:0:
287,92,119342,2,0,P|272:35|253:9,1,65.5499982496262,10|0,2:0|2:0,2:0:0:0:
194,88,119662,6,0,P|158:83|122:78,1,72.4499977890015,6|0,3:2|2:0,2:0:0:0:
94,171,119981,1,10,2:0:0:0:
94,171,120140,2,0,P|58:176|22:180,1,72.4499977890015,2|0,2:0|3:2,2:0:0:0:
1,272,120459,1,10,2:0:0:0:
58,346,120619,1,0,3:2:0:0:
58,346,120779,1,2,3:2:0:0:
124,279,120938,6,0,P|206:291|276:300,1,144.899995578003,8|2,2:0|3:2,2:0:0:0:
331,229,121417,1,8,2:0:0:0:
382,307,121576,2,0,P|417:268|421:244,1,72.4499977890015,2|0,2:0|3:2,2:0:0:0:
512,217,121896,2,0,P|499:188|459:154,1,72.4499977890015,10|0,2:0|3:2,2:0:0:0:
438,70,122215,6,0,P|399:62|356:52,1,72.4499977890015,2|8,3:2|2:0,2:0:0:0:
287,4,122534,1,8,2:0:0:0:
232,81,122693,1,2,2:0:0:0:
232,81,122853,2,0,L|245:162,1,72.4499977890015,2|8,3:2|2:0,2:0:0:0:
319,207,123172,1,2,3:2:0:0:
319,207,123332,1,2,3:2:0:0:
251,271,123491,6,0,P|193:260|104:246,1,144.899995578003,10|0,2:0|3:2,2:0:0:0:
32,303,123970,2,0,P|16:254|74:163,1,144.899995578003,8|0,2:0|3:2,2:0:0:0:
132,118,124449,1,8,2:0:0:0:
132,118,124608,1,8,2:0:0:0:
194,176,124768,6,0,P|265:187|325:198,1,131.099996499252,6|2,3:2|3:2,2:0:0:0:
358,122,125247,1,2,2:0:0:0:
358,122,125406,2,0,P|398:153|407:193,1,65.5499982496262,2|0,3:2|2:0,2:0:0:0:
488,168,125725,1,2,3:2:0:0:
488,168,125885,6,0,P|471:258|459:324,1,131.099996499252,2|0,2:0|2:0,2:0:0:0:
442,379,126364,1,2,3:2:0:0:
442,379,126523,1,2,2:0:0:0:
376,324,126683,2,0,B|310:304|311:362|241:334,1,131.099996499252,2|2,3:2|3:2,2:0:0:0:
174,377,127162,6,0,P|162:312|138:251,1,131.099996499252,2|0,2:0|2:0,2:0:0:0:
95,184,127640,1,2,3:2:0:0:
95,184,127800,2,0,P|149:226|228:203,1,131.099996499252,2|2,2:0|2:0,2:0:0:0:
278,168,128279,1,2,3:2:0:0:
200,133,128438,6,0,P|218:49|236:6,1,131.099996499252,2|0,2:0|2:0,2:0:0:0:
300,71,128917,1,2,3:2:0:0:
300,71,129076,2,0,P|323:132|335:196,1,131.099996499252,2|0,2:0|2:0,2:0:0:0:
267,248,129555,2,0,P|234:255|201:271,1,65.5499982496262,8|0,2:0|2:0,2:0:0:0:
130,304,129874,6,0,P|90:286|52:274,1,79.3500015134812,14|2,2:0|2:0,2:0:0:0:
12,188,130193,2,0,L|-28:205,2,39.6750007567406,10|0|2,3:2|3:2|3:2,2:0:0:0:
83,124,130513,2,0,P|91:83|100:40,1,79.3500015134812,10|2,3:2|3:2,2:0:0:0:
112,3,130752,1,0,3:2:0:0:
112,3,130832,1,10,3:2:0:0:
176,73,130991,1,2,3:2:0:0:
242,3,131151,6,0,P|268:40|273:80,1,79.3500015134812,10|0,3:2|3:2,2:0:0:0:
358,138,131470,1,10,3:2:0:0:
358,138,131550,1,0,3:2:0:0:
358,138,131630,2,0,P|349:179|341:226,1,79.3500015134812,2|8,3:2|3:2,2:0:0:0:
247,217,131949,2,0,P|256:258|263:309,1,79.3500015134812,2|8,3:2|3:2,2:0:0:0:
339,351,132268,1,0,3:2:0:0:
424,308,132427,5,6,3:2:0:0:
126,195,133066,1,6,3:2:0:0:
402,40,133704,1,2,3:2:0:0:
339,351,134342,1,6,3:2:0:0:
242,224,134662,2,0,P|267:207|291:200,3,39.6750007567406,2|2|2|2,2:0|2:0|2:0|2:0,2:0:0:0:
283,242,134981,6,0,B|360:214|348:292|431:266,2,158.700003026962,6|8|0,3:2|2:0|3:0,2:0:0:0:
226,308,135779,1,0,3:0:0:0:
160,251,135938,2,0,P|167:193|173:142,1,79.3500015134812,10|2,2:0|2:0,2:0:0:0:
88,138,136257,6,0,P|163:149|218:95,1,158.700003026962,2|8,3:2|2:0,2:0:0:0:
164,33,136736,1,2,2:0:0:0:
164,33,136896,2,0,P|205:11|262:28,1,79.3500015134812,2|0,3:2|3:0,2:0:0:0:
300,72,137215,2,0,P|302:118|263:162,1,79.3500015134812,10|0,2:0|2:0,2:0:0:0:
220,203,137534,6,0,B|269:194|269:194|316:218|316:218|371:209,1,158.700003026962,2|10,3:2|2:0,2:0:0:0:
436,150,138013,2,0,L|452:240,1,79.3500015134812,2|0,2:0|3:0,2:0:0:0:
389,291,138332,2,0,L|373:381,1,79.3500015134812,2|8,3:2|2:0,2:0:0:0:
301,321,138651,1,2,3:2:0:0:
301,321,138810,6,0,P|261:303|217:315,1,79.3500015134812,2|0,2:0|2:0,2:0:0:0:
154,357,139130,2,0,P|118:374|80:368,1,79.3500015134812,8|2,2:0|2:0,2:0:0:0:
7,320,139449,1,2,3:2:0:0:
7,320,139608,1,0,3:0:0:0:
73,262,139768,2,0,P|62:199|57:159,1,79.3500015134812,10|10,2:0|2:0,2:0:0:0:
54,140,140007,1,8,2:0:0:0:
54,140,140087,6,0,B|131:112|119:190|202:164,1,158.700003026962,6|10,3:2|2:0,2:0:0:0:
269,108,140566,2,0,P|276:68|282:29,1,79.3500015134812,2|0,2:0|3:0,2:0:0:0:
366,7,140885,2,0,P|440:25|454:125,1,158.700003026962,2|2,3:2|2:0,2:0:0:0:
420,172,141364,6,0,P|362:159|332:154,1,79.3500015134812,2|0,3:2|2:0,2:0:0:0:
266,222,141683,1,10,2:0:0:0:
266,222,141842,2,0,P|227:229|111:269,1,158.700003026962,2|0,2:0|3:0,2:0:0:0:
54,203,142321,2,0,P|26:256|32:296,1,79.3500015134812,10|2,2:0|3:2,2:0:0:0:
74,346,142640,6,0,P|127:356|168:368,1,79.3500015134812,14|0,2:0|2:0,2:0:0:0:
227,318,142959,2,0,P|265:308|304:301,1,79.3500015134812,10|0,2:0|3:0,2:0:0:0:
371,357,143279,1,10,2:0:0:0:
371,357,143438,1,0,3:0:0:0:
417,282,143598,2,0,P|422:239|376:194,1,79.3500015134812,10|2,2:0|3:2,2:0:0:0:
386,175,143837,1,0,3:0:0:0:
386,175,143917,6,0,P|381:132|427:87,1,79.3500015134812,10|0,2:0|2:0,2:0:0:0:
472,56,144236,2,0,P|486:121|487:152,1,79.3500015134812,10|0,2:0|3:0,2:0:0:0:
464,218,144555,1,10,2:0:0:0:
386,175,144715,1,0,3:0:0:0:
333,244,144874,2,0,P|281:231|236:225,1,79.3500015134812,10|2,2:0|3:2,2:0:0:0:
218,251,145114,1,0,3:0:0:0:
218,251,145193,6,0,B|207:226|187:209|187:209|202:176|226:83,1,158.700003026962,6|8,3:2|2:0,2:0:0:0:
286,51,145672,1,2,2:0:0:0:
203,26,145832,2,0,P|155:50|141:90,1,79.3500015134812,2|2,3:2|3:2,2:0:0:0:
160,153,146151,2,0,P|208:129|222:89,1,79.3500015134812,10|2,2:0|2:0,2:0:0:0:
286,51,146470,6,0,P|299:133|307:243,1,158.700003026962,2|8,3:2|2:0,2:0:0:0:
248,274,146949,1,2,2:0:0:0:
316,327,147108,2,0,P|372:319|417:314,1,79.3500015134812,2|0,3:2|3:0,2:0:0:0:
461,373,147427,1,10,2:0:0:0:
509,307,147587,1,2,3:2:0:0:
509,307,147667,1,0,3:0:0:0:
509,307,147747,6,0,B|479:289|461:274|461:274|401:285|331:298,1,158.700003026962,6|2,3:2|3:2,2:0:0:0:
334,374,148225,2,0,P|293:348|299:232,1,158.700003026962,10|2,2:0|3:2,2:0:0:0:
336,174,148704,1,10,2:0:0:0:
336,174,148864,1,10,2:0:0:0:
406,225,149023,6,0,P|477:212|508:206,1,79.3500015134812,6|0,3:2|2:0,2:0:0:0:
482,123,149342,2,0,P|411:110|380:104,1,79.3500015134812,8|2,2:0|2:0,2:0:0:0:
336,174,149662,1,10,2:3:0:0:
336,174,149821,1,8,2:3:0:0:
319,92,149981,1,6,2:3:0:0:
319,92,150140,1,6,2:3:0:0:
250,146,150300,6,0,B|201:137|201:137|154:161|154:161|99:152,1,158.700003026962,4|2,3:2|2:0,2:0:0:0:
25,103,150779,1,2,3:2:0:0:
6,187,150938,2,0,B|-1:226|-12:285|-12:285|2:303|20:333,1,158.700003026962,8|2,2:0|3:2,2:0:0:0:
75,265,151417,1,10,2:0:0:0:
152,304,151576,6,0,P|209:290|259:278,1,79.3500015134812,2|8,3:2|2:0,2:0:0:0:
289,221,151896,2,0,P|327:230|366:239,1,79.3500015134812,10|2,2:0|3:2,2:0:0:0:
450,264,152215,1,10,2:0:0:0:
450,264,152374,1,10,2:0:0:0:
500,192,152534,2,0,P|485:127|478:91,1,79.3500015134812,2|10,3:2|2:0,2:0:0:0:
475,71,152773,1,10,2:0:0:0:
475,71,152853,6,0,B|397:43|409:121|326:95,1,158.700003026962,6|10,3:2|2:0,2:0:0:0:
173,12,153491,2,0,L|180:92,1,79.3500015134812,2|2,3:2|3:2,2:0:0:0:
126,160,153810,1,8,2:0:0:0:
56,106,153970,6,0,B|37:154|37:154|62:264,1,158.700003026962,2|2,0:2|0:2,0:0:0:0:
92,338,154449,2,0,P|54:346|17:334,1,79.3500015134812,10|0,2:0|2:0,2:0:0:0:
174,306,154768,2,0,L|165:387,2,79.3500015134812,2|2|8,3:2|3:2|0:2,0:0:0:0:
243,253,155247,6,0,B|324:243|308:302|390:292,1,158.700003026962,2|2,2:0|2:0,2:0:0:0:
466,247,155725,2,0,P|445:175|378:212,1,158.700003026962,10|2,2:0|3:2,2:0:0:0:
301,166,156204,2,0,B|323:134|323:134|306:92,1,79.3500015134812,2|8,3:2|2:0,2:0:0:0:
231,53,156523,6,0,L|221:221,1,158.700003026962,2|0,3:2|3:0,2:0:0:0:
279,277,157002,2,0,P|241:297|194:295,1,79.3500015134812,8|2,2:0|2:0,2:0:0:0:
172,277,157241,1,2,2:2:0:0:
172,277,157321,2,0,L|91:270,1,79.3500015134812,2|2,3:2|3:2,2:0:0:0:
5,265,157640,1,10,2:0:0:0:
57,197,157800,1,10,2:0:0:0:
57,197,157880,1,8,2:0:0:0:
57,197,157959,6,0,P|92:163|87:53,1,158.700003026962,6|10,3:2|2:0,2:0:0:0:
11,22,158438,2,0,B|60:44|60:44|163:21,1,158.700003026962,2|2,2:0|3:2,2:0:0:0:
198,100,158917,2,0,L|289:113,1,79.3500015134812,8|0,2:0|2:0,2:0:0:0:
398,116,159236,6,0,P|326:115|317:188,1,158.700003026962,2|8,3:2|2:0,2:0:0:0:
404,191,159715,2,0,B|394:110|453:126|443:44,1,158.700003026962,2|0,2:0|3:2,2:0:0:0:
363,20,160193,1,10,2:0:0:0:
363,20,160353,1,2,2:0:0:0:
283,55,160513,6,0,L|203:49,2,79.3500015134812,6|2|2,3:2|2:0|3:2,2:0:0:0:
261,139,160991,2,0,L|341:133,2,79.3500015134812,14|2|10,2:0|2:0|2:0,2:0:0:0:
283,223,161470,2,0,L|203:217,2,79.3500015134812,2|2|2,3:2|2:0|3:2,2:0:0:0:
261,307,161949,2,0,L|341:301,2,79.3500015134812,14|2|10,0:2|2:0|0:2,2:0:0:0:
208,376,162427,2,0,P|179:338|174:305,1,79.3500015134812,2|10,3:2|0:2,0:0:0:0:
103,255,162747,1,8,0:2:0:0:
103,255,162906,1,8,0:2:0:0:
131,172,163066,6,0,B|209:144|197:222|280:196,1,158.700003026962,6|10,3:2|2:0,2:0:0:0:
453,178,163704,1,0,3:2:0:0:
454,269,163864,1,2,3:2:0:0:
454,269,164023,2,0,L|441:358,1,79.3500015134812,8|0,2:2|2:0,2:0:0:0:
357,369,164342,6,0,P|301:318|232:347,1,158.700003026962,2|8,3:2|2:0,2:0:0:0:
145,361,164821,2,0,B|161:299|161:299|143:268|143:268|159:206,1,158.700003026962,2|0,2:0|3:2,2:0:0:0:
220,149,165300,2,0,L|201:65,1,79.3500015134812,10|0,2:0|2:0,2:0:0:0:
295,193,165619,6,0,P|230:235|158:211,1,158.700003026962,2|10,3:2|2:0,2:0:0:0:
100,160,166098,1,10,2:0:0:0:
100,160,166177,1,8,2:0:0:0:
100,160,166257,1,0,3:2:0:0:
33,216,166417,2,0,L|43:304,1,79.3500015134812,10|8,2:0|2:0,2:0:0:0:
79,373,166736,6,0,B|133:350|133:350|231:373,1,158.700003026962,6|2,3:2|3:2,2:0:0:0:
270,355,167135,1,8,2:0:0:0:
270,355,167215,2,0,L|361:337,1,79.3500015134812,8|8,2:0|2:0,2:0:0:0:
427,376,167534,2,0,P|435:330|421:292,1,79.3500015134812,2|0,3:2|3:2,2:0:0:0:
419,212,167853,2,0,P|375:228|349:259,1,79.3500015134812,10|8,2:0|2:0,2:0:0:0:
314,270,168092,1,8,2:0:0:0:
314,270,168172,6,0,B|340:228|340:228|307:122,1,158.700003026962,14|8,3:2|3:2,2:0:0:0:
235,74,168650,2,0,P|187:78|231:143,1,158.700003026962,2|0,3:2|3:2,2:0:0:0:
307,123,169129,2,0,B|388:133|372:74|454:84,1,158.700003026962,10|10,3:2|3:2,2:0:0:0:
505,155,169608,2,0,L|481:319,1,158.700003026962,2|2,3:2|3:2,2:0:0:0:
419,372,170086,1,10,3:2:0:0:
419,372,170246,1,10,2:0:0:0:
368,300,170406,6,0,P|335:275|291:269,2,79.3500015134812,14|2|10,3:2|3:2|3:2,2:0:0:0:
302,356,170884,2,0,P|260:361|225:388,2,79.3500015134812,2|10|2,3:2|3:2|3:2,2:0:0:0:
385,382,171363,2,0,L|370:215,1,158.700003026962,10|10,3:2|3:2,2:0:0:0:
455,207,171842,2,0,P|379:200|341:135,1,158.700003026962,2|2,3:2|3:2,2:0:0:0:
389,63,172320,1,10,3:2:0:0:
389,63,172480,1,10,2:0:0:0:
309,27,172640,6,0,L|211:14,1,79.3500015134812,6|10,3:2|2:0,2:0:0:0:
182,90,172959,1,10,2:0:0:0:
95,82,173118,2,0,L|193:69,1,79.3500015134812,6|10,3:2|2:0,2:0:0:0:
257,97,173437,1,10,2:0:0:0:
308,168,173597,6,0,P|324:203|324:243,1,79.3500015134812,6|10,3:2|2:0,2:0:0:0:
257,300,173916,1,10,2:0:0:0:
179,340,174076,2,0,P|201:307|235:288,1,79.3500015134812,6|10,3:2|2:0,2:0:0:0:
329,319,174395,1,10,2:0:0:0:
408,354,174554,6,0,L|406:266,1,79.3500015134812,6|10,3:2|2:0,2:0:0:0:
460,205,174874,1,10,2:0:0:0:
460,205,175033,6,0,B|379:215|395:156|313:166,1,158.700003026962,6|2,3:2|3:2,2:0:0:0:
253,231,175512,2,0,L|168:220,1,79.3500015134812,8|8,3:2|3:2,2:0:0:0:
144,138,175831,2,0,L|229:127,1,79.3500015134812,8|8,3:2|3:2,2:0:0:0:
299,83,176150,1,8,3:2:0:0:
299,83,176310,1,8,3:2:0:0:
384,97,176469,6,0,P|372:134|342:160,2,79.3500015134812,8|8|8,3:2|3:2|3:2,2:0:0:0:
452,41,176948,2,0,P|469:75|467:115,2,79.3500015134812,8|8|8,3:2|3:2|3:2,2:0:0:0:
373,16,177427,1,8,3:2:0:0:
373,16,177586,1,8,3:2:0:0:
299,83,177746,5,6,3:2:0:0:
256,192,185405,12,0,187639,2:0:0:0:
141,13,187958,5,6,3:2:0:0:
141,13,188118,1,2,2:0:0:0:
91,65,188278,2,0,L|108:221,1,131.099996499252,2|2,3:2|3:2,2:0:0:0:
83,259,188756,2,0,B|110:245|110:245|144:255,1,65.5499982496262,2|2,2:0|3:2,2:0:0:0:
190,310,189075,6,0,L|321:290,1,131.099996499252,2|2,2:0|2:0,2:0:0:0:
363,353,189554,1,2,3:2:0:0:
363,353,189714,2,0,L|435:360,1,65.5499982496262,2|0,2:0|3:0,2:0:0:0:
463,296,190033,2,0,P|488:316|500:346,2,65.5499982496262,2|2|10,2:0|3:2|2:0,2:0:0:0:
391,261,190512,6,0,B|413:218|413:218|382:109,1,144.899995578003,6|10,3:2|2:0,2:0:0:0:
444,70,190990,1,0,2:0:0:0:
444,70,191150,2,0,B|369:60|384:114|309:105,1,144.899995578003,6|10,3:2|2:0,2:0:0:0:
253,47,191629,1,10,2:0:0:0:
253,47,191788,6,0,P|210:29|215:115,1,144.899995578003,4|10,3:2|2:0,2:0:0:0:
248,154,192267,1,8,2:0:0:0:
194,213,192427,2,0,L|187:296,1,72.4499977890015,8|8,2:0|2:0,2:0:0:0:
238,346,192746,2,0,P|197:363|162:358,1,72.4499977890015,8|10,2:3|2:3,2:0:0:0:
108,309,193065,6,0,B|75:339|75:339|84:232,1,144.899995578003,6|10,3:2|2:0,2:0:0:0:
17,193,193544,2,0,L|5:45,1,144.899995578003,2|2,3:2|2:0,2:0:0:0:
69,1,194022,1,10,2:0:0:0:
69,1,194182,1,10,2:0:0:0:
134,45,194341,6,0,B|182:63|182:63|279:45,1,144.899995578003,0|10,2:0|2:0,2:0:0:0:
346,90,194820,1,0,3:2:0:0:
346,90,194980,2,0,P|318:124|313:156,1,72.4499977890015,2|0,2:0|3:2,2:0:0:0:
233,138,195299,2,0,P|237:181|256:208,1,72.4499977890015,10|0,2:0|2:0,2:0:0:0:
319,249,195618,6,0,P|273:213|181:225,1,144.899995578003,10|8,2:0|2:0,2:0:0:0:
175,300,196097,1,2,3:2:0:0:
175,300,196256,2,0,L|252:305,1,72.4499977890015,10|0,2:0|3:2,2:0:0:0:
303,368,196575,1,8,2:0:0:0:
303,368,196735,1,8,2:0:0:0:
380,348,196895,6,0,L|463:331,1,72.4499977890015,0|0,3:2|3:2,2:0:0:0:
487,262,197214,2,0,L|404:245,1,72.4499977890015,0|0,3:2|3:2,2:0:0:0:
380,176,197533,2,0,L|463:159,1,72.4499977890015,8|8,3:2|3:2,2:0:0:0:
487,90,197852,2,0,L|404:73,1,72.4499977890015,8|8,3:2|3:2,2:0:0:0:
376,6,198171,5,2,2:0:0:0:
29,100,199448,6,0,B|233:72|189:231|384:207|384:207|320:189|313:117,1,507.149984523011,6|0,3:2|2:0,2:0:0:0:
406,117,200724,6,0,P|300:243|465:246,1,410.55000783062,6|0,3:2|2:0,2:0:0:0:
458,158,202001,6,0,B|417:179|417:179|421:67,1,158.700003026962,6|2,3:2|3:2,2:0:0:0:
505,44,202480,2,0,B|418:55|436:-6|349:3,1,158.700003026962,14|2,2:0|3:2,2:0:0:0:
295,65,202958,1,8,2:0:0:0:
295,65,203118,6,0,L|199:48,2,79.3500015134812,2|2|0,3:2|2:0|2:0,2:0:0:0:
369,111,203597,2,0,P|333:143|296:152,1,79.3500015134812,8|2,2:0|2:0,2:0:0:0:
216,146,203916,2,0,L|225:235,1,79.3500015134812,2|0,3:2|3:2,2:0:0:0:
174,297,204235,1,10,2:0:0:0:
93,262,204395,1,10,2:0:0:0:
93,262,204474,1,8,2:0:0:0:
93,262,204554,6,0,P|41:284|36:340,1,117.30000223732,6|2,3:2|3:2,2:0:0:0:
102,384,205033,2,0,L|182:376,1,58.65000111866,2|0,2:0|3:2,2:0:0:0:
233,353,205352,2,0,L|313:361,1,58.65000111866,2|0,2:0|3:2,2:0:0:0:
361,327,205671,1,10,2:0:0:0:
361,327,205831,6,0,B|384:295|384:295|363:206,1,117.30000223732,2|2,3:2|3:2,2:0:0:0:
320,158,206310,2,0,P|298:184|291:219,2,58.65000111866,2|0|0,2:0|3:2|2:0,2:0:0:0:
394,151,206788,1,2,3:2:0:0:
448,217,206948,1,8,2:0:0:0:
448,217,207028,1,8,2:0:0:0:
448,217,207107,6,0,L|431:50,1,158.700003026962,6|10,3:2|3:2,2:0:0:0:
342,17,207586,1,8,3:2:0:0:
342,17,207746,2,0,P|311:46|253:47,1,79.3500015134812,10|8,3:2|3:2,2:0:0:0:
179,22,208065,1,10,3:2:0:0:
179,22,208224,2,0,L|101:14,1,79.3500015134812,10|2,3:2|0:2,0:0:0:0:
76,91,209661,6,0,B|37:68|37:68|171:44,1,158.700003026962,6|8,3:2|2:0,2:0:0:0:
220,96,210139,1,2,2:0:0:0:
162,161,210299,2,0,L|148:239,1,79.3500015134812,2|2,3:2|3:2,2:0:0:0:
81,295,210618,1,10,2:0:0:0:
81,295,210778,1,2,2:0:0:0:
44,373,210937,6,0,B|88:342|88:342|198:359,1,158.700003026962,2|8,3:2|2:0,2:0:0:0:
262,306,211416,1,2,2:0:0:0:
262,306,211575,2,0,L|341:293,1,79.3500015134812,2|0,3:2|3:0,2:0:0:0:
420,252,211895,2,0,P|429:290|420:329,1,79.3500015134812,10|2,2:0|3:2,2:0:0:0:
345,205,212214,6,0,L|355:40,1,158.700003026962,6|2,3:2|3:2,2:0:0:0:
425,98,212693,2,0,P|352:134|275:89,1,158.700003026962,10|2,2:0|3:2,2:0:0:0:
237,31,213171,2,0,P|210:59|200:111,1,79.3500015134812,10|10,2:0|2:0,2:0:0:0:
238,175,213490,6,0,B|227:293|227:293|191:256,1,158.700003026962,6|8,3:2|2:0,2:0:0:0:
150,191,213969,1,2,2:0:0:0:
89,253,214129,2,0,L|-5:262,1,79.3500015134812,10|8,2:3|2:3,2:0:0:0:
39,342,214448,2,0,L|133:351,1,79.3500015134812,6|6,2:3|2:3,2:0:0:0:
200,379,214767,6,0,P|246:317|323:310,1,158.700003026962,6|10,3:2|2:0,2:0:0:0:
390,366,215246,2,0,B|364:327|364:327|391:217,1,158.700003026962,2|2,2:0|3:2,2:0:0:0:
451,156,215724,2,0,L|435:58,1,79.3500015134812,8|2,2:0|2:0,2:0:0:0:
372,18,216044,6,0,P|343:49|302:64,1,79.3500015134812,4|0,3:2|2:0,2:0:0:0:
233,18,216363,2,0,L|147:12,1,79.3500015134812,10|0,3:2|3:2,2:0:0:0:
113,14,216602,1,0,3:2:0:0:
113,14,216682,2,8,P|76:33|55:68,1,79.3500015134812,10|0,0:0|3:2,0:0:0:0:
88,102,216921,1,0,3:2:0:0:
88,102,217001,2,0,P|124:121|145:156,1,79.3500015134812,10|0,0:0|3:0,0:0:0:0:
207,212,217320,6,0,B|137:186|137:186|51:211,1,158.700003026962,6|8,3:2|2:0,2:0:0:0:
1,278,217799,1,0,2:0:0:0:
34,358,217958,2,0,P|65:335|83:299,1,79.3500015134812,0|0,3:0|3:0,2:0:0:0:
56,209,218278,1,10,2:0:0:0:
56,209,218437,1,2,2:0:0:0:
64,121,218597,6,0,L|225:109,1,158.700003026962,2|8,3:2|2:0,2:0:0:0:
297,65,219075,1,2,2:0:0:0:
374,105,219235,2,0,B|384:66|384:66|374:28,1,79.3500015134812,2|0,3:2|3:0,2:0:0:0:
304,157,219554,2,0,L|313:253,1,79.3500015134812,10|0,2:0|3:2,2:0:0:0:
345,316,219873,6,0,P|304:251|227:247,1,158.700003026962,14|0,2:0|3:2,2:0:0:0:
166,310,220352,1,0,3:2:0:0:
101,250,220512,2,0,L|97:169,1,79.3500015134812,14|2,0:2|3:2,0:0:0:0:
12,142,220831,2,0,L|16:61,1,79.3500015134812,10|10,0:2|0:2,0:0:0:0:
88,13,221150,5,6,3:2:0:0:
256,192,221230,12,10,223065,2:3:0:0:
462,350,223703,6,0,L|299:342,1,158.700003026962,6|2,3:2|2:0,2:0:0:0:
219,337,224182,1,2,3:2:0:0:
219,337,224341,2,0,P|230:299|258:271,1,79.3500015134812,8|0,2:0|2:0,2:0:0:0:
302,197,224661,1,2,3:2:0:0:
302,197,224820,1,10,2:0:0:0:
244,131,224980,6,0,B|163:141|179:82|97:92,1,158.700003026962,2|2,3:2|3:2,2:0:0:0:
35,154,225458,1,0,2:0:0:0:
96,216,225618,2,0,L|89:303,1,79.3500015134812,10|0,2:0|2:0,2:0:0:0:
118,377,225937,2,0,P|159:348|172:316,1,79.3500015134812,2|8,3:2|2:0,2:0:0:0:
192,237,226256,6,0,B|237:208|237:208|354:230,1,158.700003026962,6|0,3:2|3:0,2:0:0:0:
405,285,226735,1,0,3:0:0:0:
405,285,226895,2,0,P|359:245|359:146,1,158.700003026962,10|0,2:0|3:0,2:0:0:0:
435,117,227373,1,8,2:0:0:0:
496,55,227533,6,0,B|440:33|440:33|340:57,1,158.700003026962,2|0,3:2|3:0,2:0:0:0:
276,111,228012,1,0,3:0:0:0:
276,111,228171,2,0,L|111:98,1,158.700003026962,10|0,2:0|3:0,2:0:0:0:
52,156,228650,1,8,2:0:0:0:
52,156,228810,5,6,3:2:0:0:
138,307,229129,1,2,3:2:0:0:
289,221,229448,1,2,3:2:0:0:
203,70,229767,1,2,3:2:0:0:
23,187,230086,5,2,3:2:0:0:
169,335,230405,1,2,3:2:0:0:
317,189,230724,1,2,3:2:0:0:
171,41,231043,1,6,3:2:0:0:
169,48,231363,5,2,2:0:0:0:
334,322,232681,5,2,2:0:0:0:
351,37,233978,5,2,2:0:0:0:
256,192,234059,12,10,236260,2:0:0:0:
459,132,236579,6,0,P|453:65|386:55,1,144.899995578003,6|8,3:2|2:0,2:0:0:0:
379,133,237057,2,0,B|353:203|424:192|400:268,1,144.899995578003,2|2,3:2|3:2,2:0:0:0:
351,328,237536,2,0,L|273:336,1,72.4499977890015,10|0,2:0|2:0,2:0:0:0:
227,281,237855,5,0,3:2:0:0:
227,281,238015,2,0,L|149:273,1,72.4499977890015,0|8,3:2|2:0,2:0:0:0:
97,235,238334,1,2,3:2:0:0:
97,235,238414,1,2,2:0:0:0:
97,235,238493,1,2,2:0:0:0:
34,285,238653,2,0,P|23:324|27:361,2,72.4499977890015,2|10|2,3:2|2:0|2:0,2:0:0:0:
97,235,239132,6,0,L|88:78,1,144.899995578003,2|8,3:2|2:0,2:0:0:0:
54,24,239610,1,2,0:0:0:0:
54,24,239770,2,0,B|90:14|90:14|137:29,1,72.4499977890015,2|2,3:2|3:2,0:0:0:0:
193,62,240089,2,0,B|228:72|228:72|263:62,2,72.4499977890015,10|0|0,2:0|3:0|2:0,2:0:0:0:
190,145,240568,5,2,3:2:0:0:
190,145,240727,2,0,L|185:220,1,72.4499977890015,8|2,2:0|2:0,2:0:0:0:
202,295,241047,2,0,P|242:277|261:247,1,72.4499977890015,2|2,3:2|3:2,2:0:0:0:
161,228,241366,2,0,L|79:222,1,72.4499977890015,10|2,2:0|2:0,2:0:0:0:
70,144,241685,6,0,B|94:183|94:183|66:286,1,144.899995578003,2|10,3:2|2:0,2:0:0:0:
10,334,242164,2,0,P|62:360|137:318,1,144.899995578003,2|2,3:2|3:2,2:0:0:0:
205,357,242642,2,0,L|298:345,1,72.4499977890015,10|0,2:0|2:0,2:0:0:0:
333,281,242961,5,2,3:2:0:0:
333,281,243121,2,0,L|408:285,1,72.4499977890015,2|8,3:2|2:0,2:0:0:0:
475,243,243440,1,2,3:2:0:0:
475,243,243600,2,0,P|486:284|471:329,1,72.4499977890015,2|2,2:0|3:2,2:0:0:0:
405,204,243919,2,0,L|394:123,1,72.4499977890015,10|2,2:0|2:0,2:0:0:0:
404,52,244238,6,0,B|348:66|348:66|320:50|320:50|265:64,1,144.899995578003,14|10,2:0|2:0,2:0:0:0:
228,134,244717,1,0,3:0:0:0:
228,134,244876,2,0,L|53:118,1,144.899995578003,10|10,2:0|2:0,2:0:0:0:
15,90,245355,1,2,3:2:0:0:
15,90,245515,6,0,P|25:49|17:14,2,72.4499977890015,10|10|10,2:0|2:0|2:0,2:0:0:0:
54,159,245993,1,10,2:0:0:0:
17,235,246153,1,2,3:2:0:0:
17,235,246233,1,2,0:2:0:0:
17,235,246313,2,0,P|54:246|95:233,1,72.4499977890015,2|8,3:2|2:0,2:0:0:0:
155,277,246632,1,6,3:2:0:0:
256,192,246711,12,0,254451,2:0:0:0:
