osu file format v14

[General]
AudioFilename: audio.mp3
AudioLeadIn: 0
PreviewTime: -1
Countdown: 0
SampleSet: None
StackLeniency: 0.5
Mode: 0
LetterboxInBreaks: 0
WidescreenStoryboard: 0

[Editor]
Bookmarks: 42128
DistanceSpacing: 2.6
BeatDivisor: 4
GridSize: 32
TimelineZoom: 1.4

[Metadata]
Title:Dear Brave
TitleUnicode:ディアブレイブ
Artist:Kano
ArtistUnicode:鹿乃
Creator:pashty
Version:
Source:
Tags:
BeatmapID:1846480
BeatmapSetID:883298

[Difficulty]
HPDrainRate:6
CircleSize:4.2
OverallDifficulty:8.5
ApproachRate:9.3
SliderMultiplier:1.7
SliderTickRate:1

[Events]
//Background and Video events
0,0,"bigeffort.png",0,0
//Break Periods
//Storyboard Layer 0 (Background)
//Storyboard Layer 1 (Fail)
//Storyboard Layer 2 (Pass)
//Storyboard Layer 3 (Foreground)
//Storyboard Sound Samples

[TimingPoints]
2235,319.148936170213,4,1,0,100,1,0
2235,-133.333333333333,4,1,0,30,0,0
7022,-133.333333333333,4,1,0,5,0,0
7102,-100,4,1,0,50,0,0
17554,-111.111111111111,4,1,0,40,0,0
22102,-111.111111111111,4,1,0,5,0,0
22181,-111.111111111111,4,1,0,40,0,0
26330,-200,4,1,0,40,0,0
26809,-100,4,1,0,40,0,0
33671,-200,4,1,0,40,0,0
34788,-142.857142857143,4,1,0,40,0,0
36703,-125,4,1,0,40,0,0
37022,-111.111111111111,4,1,0,40,0,0
37341,-100,4,1,0,45,0,0
43086,-200,4,1,0,40,0,0
48032,-90.9090909090909,4,1,0,50,0,0
57766,-90.9090909090909,4,1,0,70,0,0
58086,-90.9090909090909,4,1,0,90,0,0
58405,-76.9230769230769,4,1,0,100,0,1
168192,319.148936170213,7,1,0,100,1,0
172660,319.148936170213,4,1,0,100,1,0
231383,328.767123287671,4,1,0,100,1,0
236232,319.148936170213,4,1,0,100,1,0

[HitObjects]
186,106,2235,6,0,P|186:143|206:183,1,63.7500024318696
104,172,2554,2,0,P|104:209|84:249,1,63.7500024318696
192,242,2873,6,0,P|247:280|307:236,1,127.500004863739
198,342,3352,1,0,0:0:0:0:
249,213,3511,2,0,P|257:175|239:148,1,63.7500024318696
349,219,3830,2,0,P|341:257|359:284,1,63.7500024318696
304,143,4149,5,0,0:0:0:0:
408,247,4309,1,0,0:0:0:0:
305,164,4469,5,0,0:0:0:0:
201,268,4628,1,0,0:0:0:0:
306,185,4788,6,0,P|308:224|327:260,1,63.7500024318696
217,174,5107,2,0,P|215:135|196:99,1,63.7500024318696
295,43,5426,2,0,P|297:82|316:118,1,63.7500024318696
153,150,5745,5,0,0:0:0:0:
360,65,5905,1,0,0:0:0:0:
256,192,5985,12,0,7022,0:0:0:0:
309,110,7181,6,0,P|314:162|341:205,1,85
218,77,7500,1,0,0:0:0:0:
196,187,7660,2,0,P|191:239|164:282,1,85
374,138,7979,5,0,0:0:0:0:
130,214,8139,1,0,0:0:0:0:
326,193,8298,5,0,0:0:0:0:
179,147,8458,2,0,L|84:113,1,85
244,68,8777,1,0,0:0:0:0:
250,172,8937,2,0,P|231:220|175:244,1,85
319,262,9256,1,0,0:0:0:0:
179,147,9415,1,0,0:0:0:0:
328,118,9575,5,0,0:0:0:0:
146,267,9735,2,0,L|96:307,1,42.5
179,240,10054,2,0,L|129:280,1,42.5
361,145,10373,6,0,L|411:185,1,42.5
328,118,10692,2,0,L|378:158,1,42.5
242,244,11011,6,0,P|227:287|173:305,1,85
318,205,11330,1,0,0:0:0:0:
346,297,11490,2,0,P|361:340|415:358,1,85
451,371,11729,1,0,0:0:0:0:
451,371,11809,5,0,0:0:0:0:
242,244,11969,1,0,0:0:0:0:
479,214,12128,5,0,0:0:0:0:
194,305,12288,2,0,L|101:335,1,85
408,130,12607,5,0,0:0:0:0:
187,199,12767,2,0,L|103:226,1,85
337,46,13086,5,0,0:0:0:0:
180,93,13246,2,0,L|88:119,1,85
224,11,13564,5,0,0:0:0:0:
337,165,13724,2,0,L|397:239,1,85
337,46,14043,5,0,0:0:0:0:
281,89,14203,1,0,0:0:0:0:
145,41,14362,5,0,0:0:0:0:
227,136,14522,1,0,0:0:0:0:
387,96,14681,5,0,0:0:0:0:
174,183,14841,1,0,0:0:0:0:
371,315,15000,2,0,L|448:370,1,85
339,165,15320,5,0,0:0:0:0:
181,270,15479,2,0,L|105:323,1,85
230,114,15798,5,0,0:0:0:0:
356,198,15957,2,0,L|430:255,1,85
257,27,16277,5,0,0:0:0:0:
420,136,16436,2,0,L|516:210,1,85
392,14,16756,5,0,0:0:0:0:
392,14,16836,1,0,0:0:0:0:
392,14,16915,1,0,0:0:0:0:
209,232,17075,1,0,0:0:0:0:
209,232,17554,6,0,P|195:269|161:301,1,76.4999976654053
268,155,17873,1,0,0:0:0:0:
268,155,18032,2,0,P|292:189|301:162,1,76.4999976654053
188,108,18352,2,0,P|164:142|155:115,1,76.4999976654053
209,232,18671,1,0,0:0:0:0:
315,114,18830,6,0,P|349:94|396:91,1,76.4999976654053
246,46,19149,1,0,0:0:0:0:
246,46,19309,2,0,P|278:21|246:14,1,76.4999976654053
200,174,19628,6,0,P|248:156|213:205,1,152.999995330811
163,203,20027,1,0,0:0:0:0:
163,203,20107,5,0,0:0:0:0:
252,285,20266,1,0,0:0:0:0:
156,138,20426,1,0,0:0:0:0:
133,330,20586,2,0,P|112:370|85:386,1,76.4999976654053
210,278,20905,2,0,P|227:319|207:346,1,76.4999976654053
226,187,21224,2,0,P|269:200|245:223,1,76.4999976654053
159,116,21543,5,0,0:0:0:0:
283,110,21703,1,0,0:0:0:0:
209,236,21862,2,0,P|172:267|106:263,1,114.749996498108
68,228,22181,1,0,0:0:0:0:
208,301,22341,1,0,0:0:0:0:
42,214,22500,1,0,0:0:0:0:
231,315,22660,6,0,L|325:361,1,76.4999976654053
374,229,22979,1,0,0:0:0:0:
374,229,23139,2,0,L|280:275,1,76.4999976654053
170,181,23458,1,0,0:0:0:0:
170,181,23617,2,0,P|214:191|246:156,1,76.4999976654053
146,48,23937,6,0,L|197:116,1,76.4999976654053
161,258,24256,1,0,0:0:0:0:
161,258,24415,2,0,P|105:226|96:186,1,76.4999976654053
170,335,24735,2,0,P|226:303|235:263,1,76.4999976654053
304,197,25054,1,0,0:0:0:0:
304,197,25213,6,0,L|340:286,1,76.4999976654053
381,134,25532,1,0,0:0:0:0:
286,89,25692,2,0,P|238:83|208:97,1,76.4999976654053
222,227,26011,2,0,P|251:188|254:155,1,76.4999976654053
146,129,26330,2,0,L|182:171,1,42.5
213,93,26649,5,0,0:0:0:0:
222,227,26809,2,0,P|175:241|143:232,1,76.4999976654053
29,203,27128,2,0,L|86:276,1,85
299,242,27447,2,0,P|280:283|214:304,1,85
222,227,27766,6,0,P|210:191|240:206,1,85
288,139,28086,1,0,0:0:0:0:
263,63,28245,2,0,P|227:85|210:123,1,85
394,96,28564,2,0,P|365:65|325:55,1,85
374,222,28883,2,0,P|345:252|305:262,1,85
332,124,29203,5,0,0:0:0:0:
336,310,29362,1,0,0:0:0:0:
445,169,29522,2,0,P|457:122|440:72,1,85
337,246,29841,1,0,0:0:0:0:
337,246,30000,2,0,P|368:287|406:298,1,85
247,213,30320,6,0,P|235:177|265:192,1,85
264,108,30639,1,0,0:0:0:0:
184,126,30798,2,0,P|185:84|210:50,1,85
278,222,31117,2,0,P|237:213|208:182,1,85
307,320,31437,2,0,P|356:290|380:246,1,85
351,133,31756,6,0,P|378:168|380:132,1,85
456,303,32075,2,0,L|468:217,1,85
304,244,32394,1,0,0:0:0:0:
393,87,32554,2,0,P|432:53|476:53,1,85
271,109,32873,2,0,P|290:157|330:188,1,85
217,45,33192,5,0,0:0:0:0:
217,45,33352,2,0,P|192:90|194:140,1,85
126,27,33671,2,0,L|101:64,1,42.5
61,122,33990,1,0,0:0:0:0:
61,122,34149,6,0,L|36:85,1,42.5
117,200,34469,2,0,L|142:163,1,42.5
260,187,34788,6,0,L|224:134,1,59.4999981842042
316,265,35108,2,0,L|354:214,1,59.4999981842042
441,246,35426,5,0,0:0:0:0:
292,224,35586,1,0,0:0:0:0:
430,162,35745,2,0,P|393:171|368:208,1,59.4999981842042
295,303,36064,2,0,P|332:294|357:257,1,59.4999981842042
266,163,36383,5,0,0:0:0:0:
468,304,36543,1,0,0:0:0:0:
499,188,36703,2,0,P|454:189|419:204,1,68
229,348,37022,2,0,P|261:374|313:384,1,76.4999976654053
390,126,37341,2,0,P|360:156|354:208,1,85
356,255,37580,1,0,0:0:0:0:
356,255,37660,5,0,0:0:0:0:
311,123,37820,1,0,0:0:0:0:
421,188,37979,5,0,0:0:0:0:
168,156,38139,1,0,0:0:0:0:
241,219,38298,1,0,0:0:0:0:
241,93,38458,1,0,0:0:0:0:
168,156,38617,2,0,L|98:218,1,85
241,219,38937,1,0,0:0:0:0:
241,93,39096,2,0,L|243:40,1,42.5
314,156,39256,5,0,0:0:0:0:
152,304,39415,1,0,0:0:0:0:
262,339,39575,1,0,0:0:0:0:
241,219,39735,1,0,0:0:0:0:
152,304,39894,2,0,L|85:367,1,85
262,339,40213,1,0,0:0:0:0:
241,219,40373,2,0,L|232:170,1,42.5
351,254,40532,5,0,0:0:0:0:
126,184,40692,1,0,0:0:0:0:
213,337,40852,2,0,P|260:340|307:312,1,85
241,219,41171,1,0,0:0:0:0:
244,278,41330,1,0,0:0:0:0:
272,157,41490,2,0,P|225:154|178:182,1,85
379,228,41809,5,0,0:0:0:0:
113,265,41969,1,0,0:0:0:0:
213,337,42128,2,0,P|260:340|307:312,1,85
272,157,42447,2,0,P|225:154|178:182,1,85
298,337,42766,2,0,P|257:340|218:324,1,85
277,239,43086,6,0,P|318:235|357:251,1,85
453,152,43724,2,0,P|411:148|372:164,1,85
282,91,44362,1,0,0:0:0:0:
282,91,45000,5,0,0:0:0:0:
230,110,45320,1,0,0:0:0:0:
189,147,45639,2,0,P|159:188|158:237,1,85
262,266,46277,2,0,P|292:225|293:176,1,85
226,205,46915,1,0,0:0:0:0:
226,205,47235,5,0,0:0:0:0:
224,216,47394,2,0,L|213:246,2,21.25
295,192,47713,1,0,0:0:0:0:
189,147,47873,1,0,0:0:0:0:
358,219,48032,6,0,L|403:241,1,46.7500014266968
125,120,48192,1,0,0:0:0:0:
205,269,48352,1,0,0:0:0:0:
292,124,48511,1,0,0:0:0:0:
125,120,48671,1,0,0:0:0:0:
205,269,48830,2,0,L|252:362,1,93.5000028533936
292,124,49149,1,0,0:0:0:0:
125,120,49309,2,0,L|74:118,1,46.7500014266968
207,0,49469,5,0,0:0:0:0:
205,269,49628,1,0,0:0:0:0:
379,269,49788,1,0,0:0:0:0:
292,124,49947,1,0,0:0:0:0:
205,269,50107,2,0,L|147:349,1,93.5000028533936
379,269,50426,1,0,0:0:0:0:
292,124,50586,2,0,L|267:82,1,46.7500014266968
466,124,50745,5,0,0:0:0:0:
205,269,50905,1,0,0:0:0:0:
379,269,51064,1,0,0:0:0:0:
271,192,51224,2,0,P|218:165|152:178,1,93.5000028533936
337,115,51543,1,0,0:0:0:0:
379,269,51703,1,0,0:0:0:0:
205,269,51862,2,0,P|258:296|324:283,1,93.5000028533936
175,115,52181,5,0,0:0:0:0:
133,269,52341,1,0,0:0:0:0:
307,269,52500,2,0,P|254:296|188:283,1,93.5000028533936
482,274,52820,1,0,0:0:0:0:
242,204,52979,1,0,0:0:0:0:
242,204,53059,1,0,0:0:0:0:
242,204,53139,2,0,L|187:181,1,46.7500014266968
309,351,53298,2,0,L|339:390,1,46.7500014266968
402,147,53458,1,0,0:0:0:0:
203,351,53617,6,0,L|173:390,1,46.7500014266968
110,147,53777,1,0,0:0:0:0:
391,316,53937,5,0,0:0:0:0:
97,232,54096,1,0,0:0:0:0:
414,235,54256,5,0,0:0:0:0:
120,319,54415,1,0,0:0:0:0:
256,92,54575,5,0,0:0:0:0:
325,353,54735,1,0,0:0:0:0:
256,72,54894,5,0,0:0:0:0:
187,333,55054,1,0,0:0:0:0:
416,160,55213,6,0,L|469:144,1,46.7500014266968
96,224,55373,1,0,0:0:0:0:
416,224,55532,6,0,L|491:238,1,46.7500014266968
96,160,55692,1,0,0:0:0:0:
416,92,55852,5,0,0:0:0:0:
256,192,56011,1,0,0:0:0:0:
96,92,56171,5,0,0:0:0:0:
256,256,56330,1,0,0:0:0:0:
448,64,56490,5,0,0:0:0:0:
256,320,56649,1,0,0:0:0:0:
64,64,56809,5,0,0:0:0:0:
256,384,56968,1,0,0:0:0:0:
480,32,57128,5,0,0:0:0:0:
480,32,57447,1,0,0:0:0:0:
480,32,57766,1,0,0:0:0:0:
480,32,58086,1,0,0:0:0:0:
480,32,58405,6,0,P|503:95|490:153,1,110.499994941712
372,200,58724,2,0,L|417:95,1,110.499994941712
448,266,59043,2,0,P|389:299|330:296,1,110.499994941712
273,232,59362,1,0,0:0:0:0:
403,297,59522,2,0,P|381:355|329:391,1,110.499994941712
301,280,59841,5,0,0:0:0:0:
464,322,60000,1,0,0:0:0:0:
419,160,60160,1,0,0:0:0:0:
301,280,60320,6,0,P|246:311|181:301,1,110.499994941712
419,160,60639,2,0,P|418:96|377:45,1,110.499994941712
235,239,60958,2,0,P|226:304|258:359,1,110.499994941712
352,280,61277,1,0,0:0:0:0:
454,86,61437,6,0,P|388:88|339:129,1,110.499994941712
433,207,61756,2,0,L|506:303,1,110.499994941712
319,165,62075,6,0,P|288:223|299:285,1,110.499994941712
433,207,62394,1,0,0:0:0:0:
291,112,62554,1,0,0:0:0:0:
356,230,62713,1,0,0:0:0:0:
362,66,62873,2,0,P|312:28|241:41,1,110.499994941712
186,95,63192,1,0,0:0:0:0:
270,191,63352,1,0,0:0:0:0:
270,191,63431,1,0,0:0:0:0:
270,191,63511,6,0,P|320:229|391:216,1,110.499994941712
362,66,63830,1,0,0:0:0:0:
175,175,63990,2,0,P|179:230|248:281,1,110.499994941712
453,261,64309,2,0,P|422:306|336:316,1,110.499994941712
337,164,64628,1,0,0:0:0:0:
178,227,64788,6,0,P|174:282|105:333,1,110.499994941712
345,146,65107,1,0,0:0:0:0:
103,253,65266,2,0,P|47:249|-3:180,1,110.499994941712
115,98,65586,1,0,0:0:0:0:
160,295,65745,1,0,0:0:0:0:
397,98,65905,1,0,0:0:0:0:
320,320,66064,5,0,0:0:0:0:
192,64,66224,1,0,0:0:0:0:
192,320,66383,5,0,0:0:0:0:
320,64,66543,1,0,0:0:0:0:
339,358,66703,5,0,0:0:0:0:
172,25,66863,1,0,0:0:0:0:
172,358,67022,5,0,0:0:0:0:
339,25,67182,1,0,0:0:0:0:
448,288,67341,5,0,0:0:0:0:
96,160,67500,1,0,0:0:0:0:
448,96,67660,5,0,0:0:0:0:
256,192,67819,1,0,0:0:0:0:
64,96,67979,5,0,0:0:0:0:
256,256,68138,1,0,0:0:0:0:
480,64,68298,5,0,0:0:0:0:
256,320,68457,1,0,0:0:0:0:
256,320,68538,1,0,0:0:0:0:
256,320,68617,2,0,P|207:358|153:355,1,110.499994941712
230,223,68937,2,0,P|291:225|331:262,1,110.499994941712
189,293,69256,2,0,L|102:214,1,110.499994941712
272,171,69575,1,0,0:0:0:0:
160,357,69735,1,0,0:0:0:0:
155,184,69894,2,0,P|171:121|231:77,1,110.499994941712
230,223,70213,5,0,0:0:0:0:
163,65,70373,1,0,0:0:0:0:
315,191,70532,2,0,P|315:260|273:305,1,110.499994941712
83,102,70852,2,0,P|83:33|125:-12,1,110.499994941712
418,263,71171,6,0,L|396:384,1,110.499994941712
309,129,71490,1,0,0:0:0:0:
94,263,71649,6,0,L|116:384,1,110.499994941712
203,129,71968,1,0,0:0:0:0:
256,320,72128,1,0,0:0:0:0:
309,129,72288,2,0,P|345:70|420:63,1,110.499994941712
406,165,72607,5,0,0:0:0:0:
256,64,72766,1,0,0:0:0:0:
106,165,72926,1,0,0:0:0:0:
310,211,73086,6,0,P|351:266|426:267,1,110.499994941712,0|0,0:0|0:0,0:3:0:0:
256,64,73405,1,0,0:0:0:0:
202,211,73564,6,0,P|160:266|85:267,1,110.499994941712,0|0,0:0|0:0,0:3:0:0:
