osu file format v14

[General]
AudioFilename: audio.mp3
AudioLeadIn: 0
PreviewTime: 56692
Countdown: 0
SampleSet: Soft
StackLeniency: 0.4
Mode: 0
LetterboxInBreaks: 0
WidescreenStoryboard: 0

[Editor]
Bookmarks: 52224,59884
DistanceSpacing: 1
BeatDivisor: 4
GridSize: 4
TimelineZoom: 1.7

[Metadata]
Title:Dear Brave
TitleUnicode:ディアブレイブ (TV Size)
Artist:Kano
ArtistUnicode:鹿乃
Creator:Yogurtt
Version:extra
Source:ヘヴィーオブジェクト
Tags:HEAVY OBJECT ED ENDING
BeatmapID:968815
BeatmapSetID:451645

[Difficulty]
HPDrainRate:7
CircleSize:4.2
OverallDifficulty:9
ApproachRate:9.4
SliderMultiplier:1.6
SliderTickRate:1

[Events]
//Background and Video events
0,0,"HyAEaZQ.jpg",0,0
//Break Periods
//Storyboard Layer 0 (Background)
//Storyboard Layer 1 (Fail)
//Storyboard Layer 2 (Pass)
//Storyboard Layer 3 (Foreground)
//Storyboard Sound Samples

[TimingPoints]
1480,319.148936170213,4,2,1,30,1,0
1799,-133.333333333333,4,2,1,30,0,0
6426,-100,4,2,1,60,0,0
16639,-133.333333333333,4,2,1,30,0,0
37224,-100,4,2,1,60,0,0
42171,-133.333333333333,4,2,1,30,0,0
47437,-133.333333333333,4,2,1,60,0,0
57650,-100,4,2,1,80,0,1
65309,-100,4,2,1,70,0,0
67862,-100,4,2,1,70,0,1
72331,-100,4,3,1,70,0,1
72969,-100,4,2,1,70,0,0
79352,-133.333333333333,4,2,1,50,0,0
80628,-133.333333333333,4,2,1,10,0,0

[HitObjects]
60,92,1480,5,4,0:0:0:0:
187,129,1799,2,0,B|155:108|103:147|55:101,1,120.000004577637
295,91,2437,1,2,0:0:0:0:
206,28,2597,1,2,0:0:0:0:
372,52,2756,6,0,L|367:118,1,60.0000022888184,2|0,0:0|0:0,0:0:0:0:
232,207,3075,2,0,L|282:163,1,60.0000022888184,2|0,0:0|0:0,0:0:0:0:
421,231,3394,2,0,L|355:225,1,60.0000022888184,2|0,0:0|0:0,0:0:0:0:
412,139,3714,1,2,0:0:0:0:
441,326,3873,1,0,0:0:0:0:
441,326,3953,1,0,0:0:0:0:
441,326,4033,5,4,0:0:0:0:
290,307,4352,2,0,L|424:313,1,120.000004577637
173,301,4831,2,2,P|183:262|212:238,1,60.0000022888184
224,247,5150,6,0,P|156:258|135:121,1,240.000009155274
362,169,5948,5,8,0:0:0:0:
332,167,6027,1,8,0:0:0:0:
302,166,6107,1,8,0:0:0:0:
272,167,6187,1,8,0:0:0:0:
242,170,6267,1,8,0:0:0:0:
212,174,6346,1,8,0:0:0:0:
183,180,6426,6,0,B|236:181|286:221|286:221|349:206,1,160,4|0,0:0|0:0,0:0:0:0:
406,114,6905,2,0,P|383:70|385:29,1,80,8|0,0:0|0:0,0:0:0:0:
512,197,7224,2,0,P|508:236|488:270,1,80
367,333,7543,1,8,0:0:0:0:
245,257,7703,5,2,0:0:0:0:
355,308,7862,1,2,0:0:0:0:
195,375,8022,1,2,0:0:0:0:
196,173,8182,2,0,P|201:129|228:80,1,80,8|0,0:0|0:0,0:0:0:0:
389,177,8501,1,2,0:0:0:0:
290,143,8660,1,2,0:0:0:0:
439,86,8820,1,10,0:0:0:0:
226,236,8980,6,0,L|314:246,1,80,4|0,0:0|0:0,0:0:0:0:
174,151,9299,6,0,L|86:161,1,80,4|8,0:0|0:0,0:0:0:0:
385,305,9618,6,0,P|403:256|392:208,1,80,4|0,0:0|0:0,0:0:0:0:
280,160,9937,6,0,P|262:111|273:63,1,80,4|8,0:0|0:0,0:0:0:0:
386,203,10256,6,0,L|210:216,1,160,4|0,0:0|0:0,0:0:0:0:
76,138,10735,1,10,0:0:0:0:
161,164,10894,1,2,0:0:0:0:
62,233,11054,1,2,0:0:0:0:
71,70,11214,5,2,0:0:0:0:
155,258,11373,1,10,0:0:0:0:
1,152,11533,6,0,L|177:165,1,160,4|0,0:0|0:0,0:0:0:0:
324,250,12011,1,4,0:0:0:0:
267,139,12171,1,0,0:0:0:0:
414,110,12331,2,0,L|428:215,1,80,0|4,0:0|0:0,0:0:0:0:
227,309,12650,5,0,0:0:0:0:
346,353,12809,1,0,0:0:0:0:
127,351,12969,2,0,P|118:312|134:258,1,80,4|0,0:0|0:0,0:0:0:0:
209,209,13288,1,0,0:0:0:0:
363,145,13448,5,2,0:0:0:0:
194,194,13607,1,2,0:0:0:0:
318,243,13767,1,2,0:0:0:0:
245,75,13926,1,2,0:0:0:0:
224,290,14086,1,2,0:0:0:0:
445,312,14245,6,0,P|408:218|428:149,1,160,4|0,0:0|0:0,0:0:0:0:
245,75,14724,1,4,0:0:0:0:
326,148,14884,1,0,0:0:0:0:
184,246,15043,2,0,L|172:158,1,80,0|4,0:0|0:0,0:0:0:0:
108,333,15362,5,0,0:0:0:0:
108,333,15522,1,0,0:0:0:0:
330,384,15682,1,4,0:0:0:0:
244,307,15841,1,0,0:0:0:0:
421,285,16001,1,0,0:0:0:0:
330,384,16160,5,8,0:0:0:0:
295,178,16320,1,8,0:0:0:0:
421,285,16639,5,0,0:0:0:0:
313,299,16799,2,0,L|234:306,1,60.0000022888184,4|0,0:0|0:0,0:0:0:0:
146,228,17118,2,0,P|161:259|164:293,1,60.0000022888184,2|0,0:0|0:0,0:0:0:0:
66,165,17437,2,0,P|77:132|99:106,1,60.0000022888184
56,263,17756,2,0,P|25:277|-8:281,1,60.0000022888184,2|0,0:0|0:0,0:0:0:0:
108,100,18075,6,0,L|241:99,1,120.000004577637,0|2,0:0|0:0,0:0:0:0:
323,204,18554,1,0,0:0:0:0:
274,299,18714,1,0,0:0:0:0:
323,204,18873,2,0,L|391:200,1,60.0000022888184,0|2,0:0|0:0,0:0:0:0:
470,240,19192,1,0,0:0:0:0:
326,362,19352,6,0,P|294:380|210:345,1,120.000004577637,0|2,0:0|0:0,0:0:0:0:
155,198,19831,1,0,0:0:0:0:
234,245,19990,1,0,0:0:0:0:
152,291,20150,1,0,0:0:0:0:
165,182,20309,5,2,0:0:0:0:
242,261,20469,1,0,0:0:0:0:
133,289,20628,1,0,0:0:0:0:
182,168,20788,5,0,0:0:0:0:
335,229,20948,2,0,P|339:263|336:291,1,60.0000022888184,2|0,0:0|0:0,0:0:0:0:
290,363,21267,1,0,0:0:0:0:
280,154,21426,2,0,L|354:149,1,60.0000022888184,0|2,0:0|0:0,0:0:0:0:
426,178,21745,1,0,0:0:0:0:
331,120,21905,6,0,L|211:128,1,120.000004577637,0|2,0:0|0:0,0:0:0:0:
140,140,22384,2,0,L|260:148,1,120.000004577637
410,274,22862,1,2,0:0:0:0:
339,348,23022,1,0,0:0:0:0:
377,193,23182,6,0,P|427:184|497:238,1,120.000004577637,0|2,0:0|0:0,0:0:0:0:
410,274,23660,2,0,L|346:267,1,60.0000022888184
144,241,23980,1,0,0:0:0:0:
206,341,24139,1,2,0:0:0:0:
231,186,24299,1,0,0:0:0:0:
127,256,24458,6,0,L|138:388,1,120.000004577637,0|2,0:0|0:0,0:0:0:0:
88,320,24937,2,0,L|97:200,1,120.000004577637
192,96,25416,1,2,0:0:0:0:
284,176,25575,1,0,0:0:0:0:
184,236,25735,5,0,0:0:0:0:
204,80,25894,1,0,0:0:0:0:
308,277,26054,5,2,0:0:0:0:
298,162,26213,1,0,0:0:0:0:
433,293,26373,5,0,0:0:0:0:
387,211,26533,1,0,0:0:0:0:
362,358,26692,6,0,L|406:364,1,30.0000011444092,2|0,0:0|0:0,0:0:0:0:
458,310,26852,2,0,L|487:305,1,30.0000011444092,2|0,0:0|0:0,0:0:0:0:
270,297,27011,6,0,L|273:366,1,60.0000022888184,4|0,0:0|0:0,0:0:0:0:
179,211,27331,2,0,L|176:151,1,60.0000022888184,8|0,0:0|0:0,0:0:0:0:
368,222,27650,2,0,L|371:291,1,60.0000022888184,2|0,0:0|0:0,0:0:0:0:
281,93,27969,1,8,0:0:0:0:
395,137,28128,1,0,0:0:0:0:
281,93,28288,5,2,0:0:0:0:
385,43,28448,1,0,0:0:0:0:
306,189,28607,2,0,L|246:187,1,60.0000022888184,8|0,0:0|0:0,0:0:0:0:
95,144,28926,2,0,L|155:142,1,60.0000022888184,2|0,0:0|0:0,0:0:0:0:
33,220,29245,1,8,0:0:0:0:
33,220,29405,1,0,0:0:0:0:
131,317,29565,6,0,L|122:235,1,60.0000022888184,2|0,0:0|0:0,0:0:0:0:
234,325,29884,2,0,L|227:384,1,60.0000022888184,8|0,0:0|0:0,0:0:0:0:
210,230,30203,1,2,0:0:0:0:
419,267,30362,1,0,0:0:0:0:
317,216,30522,1,8,0:0:0:0:
461,358,30682,6,0,L|453:213,1,120.000004577637,4|0,0:0|0:0,0:0:0:0:
388,163,31160,2,2,L|398:98,1,60.0000022888184
266,38,31480,1,2,0:0:0:0:
276,140,31639,1,2,0:0:0:0:
351,42,31799,1,2,0:0:0:0:
196,79,31958,1,2,0:0:0:0:
220,235,32118,6,0,B|306:224|306:224|350:189,1,120.000004577637,4|8,0:0|0:0,0:0:0:0:
117,159,32597,2,0,B|118:177|100:201|100:201|102:223|102:223|84:247|76:290,1,120.000004577637
151,64,33075,1,8,0:0:0:0:
37,111,33235,1,0,0:0:0:0:
157,57,33394,6,0,L|243:62,1,60.0000022888184
361,133,33714,2,0,P|337:113|330:81,1,60.0000022888184,8|0,0:0|0:0,0:0:0:0:
456,158,34033,2,0,P|447:186|424:204,1,60.0000022888184
238,192,34352,2,0,L|324:197,1,60.0000022888184,8|0,0:0|0:0,0:0:0:0:
168,292,34671,5,2,0:0:0:0:
140,215,34831,1,0,0:0:0:0:
112,138,34990,1,8,0:0:0:0:
64,292,35150,5,0,0:0:0:0:
121,234,35310,1,2,0:0:0:0:
179,176,35469,1,0,0:0:0:0:
28,224,35628,5,8,0:0:0:0:
182,279,35788,1,0,0:0:0:0:
48,328,35948,5,2,0:0:0:0:
124,152,36107,1,0,0:0:0:0:
173,310,36267,1,8,0:0:0:0:
28,224,36426,1,0,0:0:0:0:
192,245,36586,5,2,0:0:0:0:
133,125,36745,1,0,0:0:0:0:
278,289,36905,5,8,0:0:0:0:
248,124,37064,1,0,0:0:0:0:
96,220,37224,6,0,L|111:312,1,80,4|0,0:0|0:0,0:0:0:0:
278,289,37543,1,0,0:0:0:0:
284,283,37862,1,0,0:0:0:0:
290,277,38182,1,0,0:0:0:0:
213,171,38501,6,0,L|210:251,1,80,4|0,0:0|0:0,0:0:0:0:
148,116,38820,1,0,0:0:0:0:
142,110,39139,1,0,0:0:0:0:
136,104,39459,1,0,0:0:0:0:
61,201,39777,6,0,L|152:192,1,80,4|0,0:0|0:0,0:0:0:0:
92,291,40097,1,0,0:0:0:0:
86,297,40417,1,0,0:0:0:0:
80,303,40736,1,0,0:0:0:0:
30,103,41054,6,0,L|20:202,1,80,4|0,0:0|0:0,0:0:0:0:
144,120,41373,1,0,0:0:0:0:
150,114,41693,1,0,0:0:0:0:
156,108,42012,1,0,0:0:0:0:
301,175,42171,5,0,0:0:0:0:
301,175,42251,1,0,0:0:0:0:
301,175,42331,1,4,0:0:0:0:
279,93,42490,1,2,0:0:0:0:
309,221,42650,1,2,0:0:0:0:
331,139,42809,2,2,L|248:151,1,60.0000022888184
195,221,43128,2,2,L|112:209,1,60.0000022888184
45,120,43448,6,0,L|44:260,1,120.000004577637,4|0,0:0|0:0,0:0:0:0:
125,297,43926,2,0,L|116:370,1,60.0000022888184
225,276,44245,2,0,L|217:216,1,60.0000022888184
341,113,44565,1,0,0:0:0:0:
294,35,44724,1,0,0:0:0:0:
423,75,44884,6,0,P|435:115|381:182,1,120.000004577637,4|0,0:0|0:0,0:0:0:0:
279,149,45362,1,0,0:0:0:0:
221,106,45522,2,0,L|354:113,1,120.000004577637
154,188,46001,1,0,0:0:0:0:
143,51,46160,6,2,L|75:59,1,60.0000022888184
69,154,46480,2,2,L|1:146,1,60.0000022888184
9,146,46719,1,2,0:0:0:0:
9,146,46799,1,2,0:0:0:0:
154,188,46958,2,0,L|222:180,1,60.0000022888184
297,117,47277,1,0,0:0:0:0:
184,66,47437,5,4,0:0:0:0:
242,294,47597,1,0,0:0:0:0:
403,168,47756,1,8,0:0:0:0:
297,117,47916,1,0,0:0:0:0:
411,162,48075,2,0,L|412:84,1,60.0000022888184
296,57,48394,2,0,L|296:116,1,60.0000022888184,8|0,0:0|0:0,0:0:0:0:
232,245,48714,5,4,0:0:0:0:
56,106,48873,1,0,0:0:0:0:
208,136,49033,1,8,0:0:0:0:
80,207,49192,1,0,0:0:0:0:
216,131,49352,2,0,L|290:136,1,60.0000022888184
445,194,49671,2,0,L|371:199,1,60.0000022888184,8|0,0:0|0:0,0:0:0:0:
201,293,49990,5,4,0:0:0:0:
386,365,50150,1,0,0:0:0:0:
275,135,50309,1,8,0:0:0:0:
297,257,50469,1,0,0:0:0:0:
266,116,50628,2,0,L|196:131,1,60.0000022888184
136,204,50948,2,0,L|66:189,1,60.0000022888184,8|0,0:0|0:0,0:0:0:0:
131,78,51267,5,4,0:0:0:0:
80,308,51426,1,0,0:0:0:0:
22,121,51586,1,8,0:0:0:0:
0,233,51745,1,0,0:0:0:0:
22,121,51905,2,0,L|95:136,1,60.0000022888184
160,188,52224,2,0,L|233:173,1,60.0000022888184,8|0,0:0|0:0,0:0:0:0:
349,69,52543,5,4,0:0:0:0:
216,43,52703,1,0,0:0:0:0:
349,69,52862,1,8,0:0:0:0:
256,123,53022,5,0,0:0:0:0:
377,182,53181,1,0,0:0:0:0:
240,225,53341,5,0,0:0:0:0:
361,330,53500,1,8,0:0:0:0:
130,206,53660,5,0,0:0:0:0:
237,365,53819,1,0,0:0:0:0:
39,139,53980,5,0,0:0:0:0:
18,349,54139,1,8,0:0:0:0:
39,139,54299,1,0,0:0:0:0:
125,324,54458,5,0,0:0:0:0:
146,114,54618,1,0,0:0:0:0:
234,297,54777,5,8,0:0:0:0:
255,87,54937,1,0,0:0:0:0:
396,245,55097,6,0,L|332:254,1,60.0000022888184
112,182,55416,1,8,0:0:0:0:
232,162,55575,1,8,0:0:0:0:
151,304,55735,1,8,0:0:0:0:
93,145,55894,5,8,0:0:0:0:
326,167,56054,1,8,0:0:0:0:
182,368,56214,1,8,0:0:0:0:
0,238,56373,5,4,0:0:0:0:
136,68,56692,5,2,0:0:0:0:
347,130,57011,1,8,0:0:0:0:
347,130,57091,1,8,0:0:0:0:
347,130,57171,1,8,0:0:0:0:
318,119,57251,1,8,0:0:0:0:
287,121,57331,1,8,0:0:0:0:
261,135,57410,1,8,0:0:0:0:
243,159,57490,1,8,0:0:0:0:
233,187,57570,1,8,0:0:0:0:
216,260,57650,6,0,L|207:75,1,160,4|8,0:0|0:0,0:0:0:0:
40,67,58128,1,8,0:0:0:0:
40,67,58208,1,8,0:0:0:0:
40,67,58288,1,8,0:0:0:0:
117,129,58448,1,2,0:0:0:0:
0,183,58607,1,10,0:0:0:0:
136,282,58767,1,2,0:0:0:0:
305,217,58926,6,0,P|336:160|289:66,1,160,0|8,0:0|0:0,0:0:0:0:
144,160,59405,2,0,P|196:167|241:153,1,80,0|8,0:0|0:0,0:0:0:0:
232,152,59644,1,8,0:0:0:0:
238,143,59724,1,8,0:0:0:0:
92,50,59884,2,0,P|50:81|28:123,1,80,8|0,0:0|0:0,0:0:0:0:
46,292,60203,5,2,0:0:0:0:
185,357,60362,1,2,0:0:0:0:
143,161,60522,1,10,0:0:0:0:
67,324,60682,2,0,L|233:311,1,160,4|0,0:0|0:0,0:0:0:0:
335,284,61160,1,10,0:0:0:0:
266,187,61320,6,0,P|218:218|227:313,1,160,4|0,0:0|0:0,0:0:0:0:
421,198,61799,2,0,L|408:116,1,80,8|0,0:0|0:0,0:0:0:0:
303,79,62118,2,0,L|316:-3,1,80
110,135,62437,1,8,0:0:0:0:
148,126,62516,1,8,0:0:0:0:
188,128,62596,1,8,0:0:0:0:
226,140,62676,1,8,0:0:0:0:
260,162,62756,5,4,0:0:0:0:
159,248,62916,1,0,0:0:0:0:
203,22,63075,1,8,0:0:0:0:
347,122,63235,2,0,P|358:177|339:211,1,80
161,323,63554,2,0,P|150:268|169:234,1,80,0|8,0:0|0:0,0:0:0:0:
244,209,63873,1,0,0:0:0:0:
254,357,64033,6,0,B|205:354|205:354|146:370|146:370|75:363,1,160,4|8,0:0|0:0,0:0:0:0:
4,244,64511,1,2,0:0:0:0:
136,266,64671,1,2,0:0:0:0:
4,244,64831,1,2,0:0:0:0:
121,174,64990,1,10,0:0:0:0:
72,340,65150,1,2,0:0:0:0:
52,101,65309,6,0,L|151:93,1,80,4|0,0:0|0:0,0:0:0:0:
392,166,65628,6,0,L|293:158,1,80,4|0,0:0|0:0,0:0:0:0:
211,322,65948,6,0,P|192:276|207:224,1,80,4|0,0:0|0:0,0:0:0:0:
341,15,66267,6,0,P|360:61|345:113,1,80,4|0,0:0|0:0,0:0:0:0:
144,89,66586,5,4,0:0:0:0:
270,179,66745,1,0,0:0:0:0:
123,184,66905,1,4,0:0:0:0:
241,91,67064,1,0,0:0:0:0:
196,247,67224,1,4,0:0:0:0:
126,82,67384,1,0,0:0:0:0:
369,216,67543,6,8,L|364:158,1,40
305,45,67703,2,8,L|301:84,1,40
283,274,67862,6,0,L|447:260,1,160,4|8,0:0|0:0,0:0:0:0:
497,100,68341,1,8,0:0:0:0:
459,113,68421,1,8,0:0:0:0:
421,127,68501,1,8,0:0:0:0:
241,78,68660,1,0,0:0:0:0:
357,68,68820,1,8,0:0:0:0:
255,191,68980,1,0,0:0:0:0:
81,66,69139,6,0,L|249:78,1,160,4|8,0:0|0:0,0:0:0:0:
259,179,69618,2,0,L|352:164,1,80,0|8,0:0|0:0,0:0:0:0:
337,166,69857,1,8,0:0:0:0:
337,166,69937,1,8,0:0:0:0:
512,271,70097,2,0,L|419:256,1,80,8|0,0:0|0:0,0:0:0:0:
211,270,70416,6,0,P|172:241|172:135,1,160,4|0,0:0|0:0,0:0:0:0:
431,134,70894,2,0,L|274:160,1,160,4|0,0:0|0:0,0:0:0:0:
66,117,71373,1,2,0:0:0:0:
217,58,71533,1,2,0:0:0:0:
208,271,71692,6,0,L|221:357,1,80,4|0,0:0|0:0,0:0:0:0:
336,285,72011,2,0,P|383:297|431:279,1,80,8|0,0:0|0:0,0:0:0:0:
498,141,72331,1,8,0:0:0:0:
380,215,72490,1,8,0:0:0:0:
407,11,72650,1,8,0:0:0:0:
506,224,72809,1,8,0:0:0:0:
297,146,72969,6,0,P|251:127|148:154,1,160,4|8,0:0|0:0,0:0:0:0:
80,225,73448,2,0,P|99:272|99:314,1,80
233,384,73767,2,0,P|236:344|253:308,1,80,0|8,0:0|0:0,0:0:0:0:
328,264,74086,1,0,0:0:0:0:
380,346,74245,6,0,L|370:181,1,160,4|8,0:0|0:0,0:0:0:0:
214,79,74724,1,0,0:0:0:0:
129,162,74884,1,0,0:0:0:0:
241,162,75043,1,0,0:0:0:0:
187,48,75203,5,8,0:0:0:0:
146,200,75362,1,0,0:0:0:0:
325,101,75522,2,0,L|405:91,1,80
512,189,75841,2,0,L|432:179,1,80,8|0,0:0|0:0,0:0:0:0:
276,240,76160,2,0,P|266:279|284:331,1,80
410,384,76480,2,0,P|420:345|402:293,1,80,8|0,0:0|0:0,0:0:0:0:
267,222,76799,6,0,L|93:243,1,160,4|8,0:0|0:0,0:0:0:0:
14,156,77277,2,0,L|109:159,1,80
168,128,77597,2,0,L|73:125,1,80,0|8,0:0|0:0,0:0:0:0:
247,44,77916,1,0,0:0:0:0:
247,44,77995,1,0,0:0:0:0:
247,44,78075,5,2,0:0:0:0:
408,146,78394,1,2,0:0:0:0:
234,204,78714,1,2,0:0:0:0:
387,334,79033,1,2,0:0:0:0:
434,154,79352,6,0,L|448:223,1,60.0000022888184,2|0,0:0|0:0,0:0:0:0:
280,129,79671,2,0,L|268:70,1,60.0000022888184,2|0,0:0|0:0,0:0:0:0:
211,326,79990,2,0,L|225:395,1,60.0000022888184,2|0,0:0|0:0,0:0:0:0:
24,96,80309,2,0,L|12:37,1,60.0000022888184,2|0,0:0|0:0,0:0:0:0:
2,303,80628,5,0,0:0:0:0:
